osu file format v14

[General]
AudioFilename: audio.mp3
AudioLeadIn: 0
PreviewTime: 57496
Countdown: 0
SampleSet: Soft
StackLeniency: 0.3
Mode: 0
LetterboxInBreaks: 0
WidescreenStoryboard: 0

[Editor]
Bookmarks: 7480
DistanceSpacing: 0.6
BeatDivisor: 4
GridSize: 4
TimelineZoom: 1.4

[Metadata]
Title:Umarun Taisou(TV size)
TitleUnicode:うまるん体操(TV size)
Artist:SisterS
ArtistUnicode:妹S
Creator:[C u r i]
Version:Cola Nomitai
Source:干物妹!うまるちゃんR
Tags:himouto! umaruchan R Rumia- Ending ED TV size Umaru Doma Aimi Tanaka Nana Ebina Akari Kageyama Kirie Motoba Haruka Shiraishi Sylphinford Tachibana Yurina Furukawa 土間うまる 田中あいみ 海老名菜々 影山 灯 本場切絵 白石晴香 橘・シルフィンフォード 古川由利奈
BeatmapID:1438380
BeatmapSetID:680251

[Difficulty]
HPDrainRate:6
CircleSize:4
OverallDifficulty:8
ApproachRate:9
SliderMultiplier:1.6
SliderTickRate:1

[Events]
//Background and Video events
0,0,"cache-0877e7cd-0aef-4005-c01f-9b37af4d9d1b.jpg",0,0
Video,-400,"ending.avi"
//Break Periods
//Storyboard Layer 0 (Background)
//Storyboard Layer 1 (Fail)
//Storyboard Layer 2 (Pass)
//Storyboard Layer 3 (Foreground)
//Storyboard Sound Samples

[TimingPoints]
1907.79678954597,352.941176470588,4,2,1,70,1,0
9407,-100,4,2,1,5,0,0
9496,-100,4,2,1,70,0,0
9584,-100,4,2,1,5,0,0
9672,-100,4,2,1,70,0,0
12231,-100,4,2,1,5,0,0
12319,-100,4,2,1,70,0,0
12407,-100,4,2,1,5,0,0
12496,-100,4,2,1,70,0,0
12937,-100,4,2,1,5,0,0
13025,-100,4,2,1,70,0,0
13113,-100,4,2,1,25,0,0
13201,-100,4,2,1,70,0,0
15054,-100,4,2,1,5,0,0
15143,-100,4,2,1,70,0,0
15231,-100,4,2,1,5,0,0
15319,-100,4,2,1,70,0,0
15937,-100,4,2,1,5,0,0
16025,-100,4,2,1,70,0,0
18143,-71.4285714285714,4,2,1,70,0,0
18231,-71.4285714285714,4,2,1,5,0,0
18319,-71.4285714285714,4,2,1,70,0,0
18407,-71.4285714285714,4,2,1,5,0,0
18496,-55.5555555555556,4,2,3,80,0,0
18584,-62.5,4,2,1,70,0,0
18760,-62.5,4,2,1,5,0,0
18848,-100,4,2,1,70,0,0
23878,-100,4,2,1,5,0,0
23966,-100,4,2,1,70,0,0
24054,-100,4,2,1,5,0,0
24143,-83.3333333333333,4,2,1,70,0,0
24496,-100,4,2,1,70,0,0
31643,-100,4,2,1,5,0,0
31731,-100,4,2,1,70,0,0
32172,-100,4,2,1,5,0,0
32260,-100,4,2,1,70,0,0
37290,-100,4,2,1,5,0,0
37378,-100,4,2,1,70,0,0
38172,-100,4,2,1,5,0,0
38260,-100,4,2,1,70,0,0
38348,-100,4,2,1,5,0,0
38437,-100,4,2,1,70,0,0
38525,-100,4,2,1,5,0,0
38613,-100,4,2,1,70,0,0
41437,-142.857142857143,4,2,1,70,0,0
42407,-142.857142857143,4,2,1,5,0,0
42496,-142.857142857143,4,2,1,70,0,0
42760,-142.857142857143,4,2,1,5,0,0
42848,-142.857142857143,4,2,1,70,0,0
45937,-142.857142857143,4,2,1,5,0,0
46025,-142.857142857143,4,2,1,70,0,0
47084,-125,4,2,1,70,0,0
52731,-125,4,2,3,70,0,0
52907,-125,4,2,1,70,0,0
57937,-125,4,2,1,5,0,0
58025,-125,4,2,1,70,0,0
58290,-125,4,2,1,5,0,0
58378,-83.3333333333333,4,2,1,90,0,1
58643,-83.3333333333333,4,2,1,5,0,1
58731,-83.3333333333333,4,2,1,90,0,1
58996,-83.3333333333333,4,2,1,5,0,1
59084,-83.3333333333333,4,2,1,90,0,1
59348,-83.3333333333333,4,2,1,5,0,1
59437,-83.3333333333333,4,2,1,90,0,1
63584,-83.3333333333333,4,2,1,5,0,1
63672,-71.4285714285714,4,2,1,90,0,1
63937,-71.4285714285714,4,2,1,5,0,1
64025,-83.3333333333333,4,2,1,90,0,1
64290,-83.3333333333333,4,2,1,5,0,1
64378,-83.3333333333333,4,2,1,90,0,1
64643,-83.3333333333333,4,2,1,5,0,1
64731,-83.3333333333333,4,2,1,90,0,1
64996,-83.3333333333333,4,2,1,5,0,1
65084,-83.3333333333333,4,2,1,90,0,1
69937,-83.3333333333333,4,2,1,5,0,1
70025,-83.3333333333333,4,2,1,90,0,1
71348,-83.3333333333333,4,2,1,5,0,1
71437,-83.3333333333333,4,2,1,90,0,1
72760,-83.3333333333333,4,2,1,5,0,1
72848,-83.3333333333333,4,2,1,90,0,1
73290,-83.3333333333333,4,2,1,5,0,1
73378,-83.3333333333333,4,2,1,90,0,1
73996,-83.3333333333333,4,2,1,5,0,1
74084,-83.3333333333333,4,2,1,90,0,1
75319,-166.666666666667,4,2,1,90,0,1
76025,-125,4,2,1,90,0,1
76731,-100,4,2,1,90,0,1
77437,-50,4,2,1,90,0,1
78143,-125,4,2,1,70,0,0
79378,-125,4,2,1,5,0,0
79554,-100,4,2,1,70,0,0
80260,-71.4285714285714,4,2,1,70,0,0
80348,-71.4285714285714,4,2,1,5,0,0
80437,-50,4,2,1,70,0,0
80525,-50,4,2,1,5,0,0
80613,-100,4,2,1,70,0,0
82819,-100,4,2,1,5,0,0
82907,-100,4,2,1,70,0,0
82996,-100,4,2,1,5,0,0
83084,-100,4,2,1,70,0,0
83437,-125,4,2,1,70,0,0
83790,-100,4,2,1,70,0,0
85554,-100,4,2,1,70,0,0
85643,-100,4,2,1,5,0,0
85731,-100,4,2,1,70,0,0
85819,-100,4,2,1,5,0,0
85907,-66.6666666666667,4,2,1,70,0,0
85996,-66.6666666666667,4,2,1,5,0,0
86084,-66.6666666666667,4,2,1,70,0,0
86172,-66.6666666666667,4,2,1,5,0,0
86260,-66.6666666666667,4,2,1,70,0,0

[Colours]
Combo1 : 255,194,166
Combo2 : 255,128,64
Combo3 : 255,255,85
Combo4 : 255,119,255

[HitObjects]
65,108,7554,6,0,L|75:187,1,80,6|0,0:0|0:0,0:0:0:0:
146,90,7819,1,0,0:0:0:0:
146,90,7907,2,0,L|156:169,1,80,2|0,0:0|0:0,0:0:0:0:
395,108,8260,6,0,L|382:209,1,80,2|0,0:0|0:0,0:0:0:0:
314,90,8525,1,0,0:0:0:0:
314,90,8613,2,0,L|301:191,1,80,2|0,0:0|0:0,0:0:0:0:
191,316,8966,6,0,P|229:325|267:316,1,80,2|0,0:0|0:0,0:0:0:0:
229,245,9231,1,0,0:0:0:0:
191,316,9319,2,0,L|197:362,1,40,2|0,0:0|0:0,0:0:0:0:
119,367,9496,2,0,L|113:327,1,40,0|0,0:0|0:0,0:0:0:0:
89,158,9672,6,0,L|76:56,1,80,2|0,0:0|0:0,0:0:0:0:
103,247,9937,1,0,0:0:0:0:
103,247,10025,2,0,L|113:326,1,80,2|0,0:0|0:0,0:0:0:0:
44,14,10378,6,0,P|81:5|127:27,1,80,2|0,0:0|0:0,0:0:0:0:
180,82,10643,1,0,0:0:0:0:
180,82,10731,2,0,P|217:91|263:69,1,80,2|0,0:0|0:0,0:0:0:0:
416,352,11084,6,0,P|379:361|333:339,1,80,2|0,0:0|0:0,0:0:0:0:
280,284,11349,1,0,0:0:0:0:
280,284,11437,2,0,P|243:275|197:297,1,80,2|0,0:0|0:0,0:0:0:0:
180,82,11790,6,0,P|217:91|263:69,1,80,2|0,0:0|0:0,0:0:0:0:
214,14,12054,1,0,0:0:0:0:
180,82,12143,2,0,L|189:132,1,40,2|0,0:0|0:0,0:0:0:0:
247,186,12319,2,0,L|238:236,1,40,0|0,0:0|0:0,0:0:0:0:
199,305,12496,1,2,0:0:0:0:
101,125,12672,1,8,0:0:0:0:
101,125,12760,1,0,0:0:0:0:
101,125,12848,6,0,L|111:177,1,40,2|0,0:0|0:0,0:0:0:0:
29,180,13025,2,0,L|19:128,1,40,8|0,0:0|0:0,0:0:0:0:
177,215,13201,6,0,P|215:212|246:185,1,80,6|0,0:0|0:0,0:0:0:0:
248,99,13466,1,0,0:0:0:0:
248,99,13554,2,0,P|225:68|187:54,1,80,2|0,0:0|0:0,0:0:0:0:
246,185,13907,6,0,P|230:219|238:259,1,80,2|0,0:0|0:0,0:0:0:0:
311,304,14172,1,0,0:0:0:0:
311,304,14260,2,0,P|348:300|379:273,1,80,2|0,0:0|0:0,0:0:0:0:
238,259,14613,6,0,P|215:228|177:214,1,80,2|0,0:0|0:0,0:0:0:0:
104,249,14878,1,0,0:0:0:0:
104,249,14966,2,0,P|88:283|90:309,1,40,2|0,0:0|0:0,0:0:0:0:
99,165,15143,2,0,P|62:175|44:192,1,40,0|0,0:0|0:0,0:0:0:0:
70,363,15319,2,0,P|131:353|152:328,1,80,2|0,0:0|0:0,0:0:0:0:
88,285,15584,1,0,0:0:0:0:
88,285,15672,2,0,L|100:165,1,120,2|0,0:0|0:0,0:0:0:0:
103,141,16025,6,0,P|172:134|198:104,1,80,6|0,0:0|0:0,0:0:0:0:
231,62,16290,1,0,0:0:0:0:
231,62,16378,2,0,P|270:57|306:73,1,80,2|0,0:0|0:0,0:0:0:0:
426,229,16731,6,0,P|357:236|331:266,1,80,6|0,0:0|0:0,0:0:0:0:
298,308,16996,1,0,0:0:0:0:
298,308,17084,2,0,P|258:312|222:296,1,80,2|0,0:0|0:0,0:0:0:0:
371,113,17437,6,0,L|374:156,1,40,8|8,0:0|0:0,0:0:0:0:
272,195,17613,1,2,0:0:0:0:
272,195,17701,1,8,0:0:0:0:
272,195,17790,2,0,L|269:238,1,40,8|0,0:0|0:0,0:0:0:0:
382,327,17966,2,0,P|421:320|432:314,1,40,8|8,0:0|0:0,0:0:0:0:
222,296,18143,6,0,P|160:283|121:286,1,55.9999982910157,4|0,0:0|0:0,0:0:0:0:
84,301,18319,2,0,P|34:340|11:371,1,55.9999982910157,0|0,0:0|0:0,0:0:0:0:
112,221,18496,6,0,B|93:185|113:147|113:147|145:92|83:44|39:100|64:139|105:145,1,215.999993408203,8|0,0:0|0:0,0:0:0:0:
188,189,18848,6,0,P|233:179|265:145,1,80,6|0,0:0|0:0,0:0:0:0:
290,0,19201,1,8,0:0:0:0:
203,30,19378,1,0,0:0:0:0:
203,30,19466,1,0,0:0:0:0:
203,30,19554,2,0,L|195:109,1,80,2|2,0:0|0:0,0:0:0:0:
188,189,19907,1,8,0:0:0:0:
411,161,20084,6,0,B|384:143|337:158|337:158|288:177|256:156,1,160,2|2,0:0|0:0,0:0:0:0:
360,312,20613,2,0,P|365:272|373:233,1,80,8|0,0:0|0:0,0:0:0:0:
281,5,20966,1,2,0:0:0:0:
294,83,21142,1,2,0:0:0:0:
360,312,21319,5,8,0:0:0:0:
374,234,21495,1,2,0:0:0:0:
219,61,21672,6,0,P|181:45|126:55,1,80,6|0,0:0|0:0,0:0:0:0:
98,252,22025,1,8,0:0:0:0:
179,208,22201,1,0,0:0:0:0:
179,208,22290,1,0,0:0:0:0:
179,208,22378,2,0,L|167:114,1,80,2|2,0:0|0:0,0:0:0:0:
237,271,22731,1,8,0:0:0:0:
35,184,22907,6,0,L|16:20,1,160,2|2,0:0|0:0,0:0:0:0:
55,344,23437,2,0,L|44:253,1,80,8|0,0:0|0:0,0:0:0:0:
204,344,23790,2,0,P|160:338|146:330,1,40,2|0,0:0|0:0,0:0:0:0:
67,297,23966,2,0,P|43:259|40:243,1,40,2|0,0:0|0:0,0:0:0:0:
27,117,24143,6,0,P|38:62|69:24,1,95.9999970703126,8|0,0:0|0:0,0:0:0:0:
141,13,24407,1,8,0:0:0:0:
141,13,24496,6,0,L|230:23,1,80,6|0,0:0|0:0,0:0:0:0:
354,143,24848,1,8,0:0:0:0:
270,157,25025,1,0,0:0:0:0:
270,157,25113,1,0,0:0:0:0:
270,157,25201,2,0,P|276:98|293:75,1,80,2|2,0:0|0:0,0:0:0:0:
424,193,25554,1,8,0:0:0:0:
186,99,25731,6,0,L|27:116,1,160,2|2,0:0|0:0,0:0:0:0:
104,327,26260,2,0,L|119:231,1,80,8|2,0:0|0:0,0:0:0:0:
39,36,26613,1,0,0:0:0:0:
26,116,26789,1,2,0:0:0:0:
104,327,26966,5,8,0:0:0:0:
116,247,27143,1,2,0:0:0:0:
13,36,27319,6,0,L|25:115,1,80,6|0,0:0|0:0,0:0:0:0:
40,270,27672,1,8,0:0:0:0:
54,190,27848,1,0,0:0:0:0:
54,190,27937,1,0,0:0:0:0:
54,190,28025,2,0,P|96:166|135:166,1,80,2|2,0:0|0:0,0:0:0:0:
76,339,28378,1,8,0:0:0:0:
25,115,28554,6,0,P|82:91|199:105,1,160,2|0,0:0|0:0,0:0:0:0:
54,190,29084,2,0,P|96:166|135:166,1,80,8|2,0:0|0:0,0:0:0:0:
314,241,29437,1,0,0:0:0:0:
202,257,29613,1,2,0:0:0:0:
407,168,29790,1,8,0:0:0:0:
404,197,29878,1,8,0:0:0:0:
401,227,29966,1,8,0:0:0:0:
399,257,30054,1,8,0:0:0:0:
396,287,30142,5,6,0:0:0:0:
286,323,30496,1,8,0:0:0:0:
178,357,30848,5,2,0:0:0:0:
286,323,31025,1,2,0:0:0:0:
495,256,31201,1,8,0:0:0:0:
396,287,31378,6,0,L|408:141,1,120,2|0,0:0|0:0,0:0:0:0:
409,143,31731,1,2,0:0:0:0:
307,33,31907,2,0,P|249:32|200:65,1,120,8|0,0:0|0:0,0:0:0:0:
194,89,32260,1,2,0:0:0:0:
306,217,32437,1,2,0:0:0:0:
279,127,32613,1,8,0:0:0:0:
194,89,32790,1,0,0:0:0:0:
174,327,32966,5,6,0:0:0:0:
186,217,33143,1,0,0:0:0:0:
318,327,33672,5,2,0:0:0:0:
306,217,33849,1,2,0:0:0:0:
306,217,34201,5,0,0:0:0:0:
174,327,34378,1,2,0:0:0:0:
186,217,34554,1,2,0:0:0:0:
318,327,34731,1,8,0:0:0:0:
306,217,34907,1,0,0:0:0:0:
107,265,35084,5,2,0:0:0:0:
152,73,35260,1,2,0:0:0:0:
385,265,35437,1,8,0:0:0:0:
340,73,35613,1,0,0:0:0:0:
340,73,35701,1,0,0:0:0:0:
340,73,35790,5,6,0:0:0:0:
243,120,36143,1,8,0:0:0:0:
152,73,36496,5,2,0:0:0:0:
243,120,36672,1,2,0:0:0:0:
431,119,36848,1,8,0:0:0:0:
340,73,37025,6,0,L|328:207,1,120,2|0,0:0|0:0,0:0:0:0:
327,216,37378,1,2,0:0:0:0:
271,313,37554,2,0,L|267:274,3,40,8|0|0|0,0:0|0:0|0:0|0:0,0:0:0:0:
203,236,37907,1,2,0:0:0:0:
203,236,37996,1,0,0:0:0:0:
203,236,38084,6,0,P|157:246|140:257,1,40,8|0,0:0|0:0,0:0:0:0:
70,179,38260,2,0,P|81:195|95:209,1,40,8|0,0:0|0:0,0:0:0:0:
90,321,38437,2,0,P|98:303|103:284,1,40,8|0,0:0|0:0,0:0:0:0:
68,96,38613,5,6,0:0:0:0:
103,284,38790,1,0,0:0:0:0:
68,96,38966,1,8,0:0:0:0:
424,96,39319,5,2,0:0:0:0:
389,284,39496,1,2,0:0:0:0:
424,96,39672,1,8,0:0:0:0:
424,96,40025,5,2,0:0:0:0:
389,284,40202,1,2,0:0:0:0:
68,96,40378,1,8,0:0:0:0:
103,284,40555,1,0,0:0:0:0:
249,38,40731,5,6,0:0:0:0:
103,284,40907,1,2,0:0:0:0:
389,284,41084,2,0,L|380:195,1,80,8|8,0:0|0:0,0:0:0:0:
337,138,41348,1,8,0:0:0:0:
337,138,41437,6,0,B|300:120|255:145|255:145|210:166|170:144,1,167.999994873047,6|2,0:0|0:0,0:0:0:0:
85,119,42143,2,0,P|106:156|93:217,1,83.9999974365235,2|0,0:0|0:0,0:0:0:0:
103,196,42496,2,0,P|82:159|95:98,1,83.9999974365235,8|0,0:0|0:0,0:0:0:0:
104,197,42848,6,0,P|129:270|71:347,1,167.999994873047,2|2,0:0|0:0,0:0:0:0:
2,331,43554,1,2,0:0:0:0:
46,261,43731,1,8,0:0:0:0:
163,352,43907,1,8,0:0:0:0:
82,341,44084,1,0,0:0:0:0:
104,197,44260,6,0,B|138:177|183:198|183:198|228:223|265:205,1,167.999994873047,2|2,0:0|0:0,0:0:0:0:
351,190,44966,2,0,L|334:307,1,111.999996582031,2|8,0:0|0:0,0:0:0:0:
421,243,45496,2,0,L|412:290,1,27.9999991455078
334,300,45672,6,0,P|291:304|246:276,1,83.9999974365235,2|0,0:0|0:0,0:0:0:0:
255,286,46025,2,0,P|219:287|181:303,1,55.9999982910157,8|0,0:0|0:0,0:0:0:0:
200,292,46290,1,2,0:0:0:0:
200,292,46378,1,2,0:0:0:0:
240,372,46554,1,8,0:0:0:0:
125,331,46731,1,8,0:0:0:0:
126,310,46819,1,8,0:0:0:0:
128,289,46907,1,0,0:0:0:0:
130,268,46995,1,0,0:0:0:0:
132,247,47084,6,0,L|138:161,1,64,6|0,0:0|0:0,0:0:0:0:
46,277,47437,1,8,0:0:0:0:
212,303,47613,1,0,0:0:0:0:
212,303,47701,1,0,0:0:0:0:
212,303,47790,1,2,0:0:0:0:
132,247,47966,1,2,0:0:0:0:
46,277,48143,1,8,0:0:0:0:
291,277,48319,1,0,0:0:0:0:
291,277,48408,1,0,0:0:0:0:
291,277,48496,5,2,0:0:0:0:
212,303,48672,1,0,0:0:0:0:
132,247,48848,1,8,0:0:0:0:
46,277,49025,1,0,0:0:0:0:
132,247,49201,2,0,L|138:161,1,64,2|0,0:0|0:0,0:0:0:0:
204,104,49554,2,0,L|198:18,1,64,8|8,0:0|0:0,0:0:0:0:
123,79,49819,1,8,0:0:0:0:
123,79,49907,5,6,0:0:0:0:
204,104,50084,1,0,0:0:0:0:
365,88,50260,1,8,0:0:0:0:
285,63,50437,1,0,0:0:0:0:
285,63,50525,1,0,0:0:0:0:
285,63,50613,2,0,L|289:126,1,64,2|2,0:0|0:0,0:0:0:0:
405,228,50966,2,0,P|453:219|474:198,1,64,8|0,0:0|0:0,0:0:0:0:
493,139,51231,1,0,0:0:0:0:
493,139,51319,6,0,P|486:99|477:84,1,32,2|0,0:0|0:0,0:0:0:0:
451,37,51496,2,0,P|415:16|398:13,1,32,8|8,0:0|0:0,0:0:0:0:
344,9,51672,2,0,P|305:22|292:34,1,32,8|8,0:0|0:0,0:0:0:0:
255,67,51848,2,0,P|241:105|241:122,1,32,8|8,0:0|0:0,0:0:0:0:
315,208,52025,5,10,0:0:0:0:
299,209,52113,1,8,0:0:0:0:
283,210,52201,1,8,0:0:0:0:
267,212,52289,1,8,0:0:0:0:
251,213,52377,1,10,0:0:0:0:
235,215,52466,1,8,0:0:0:0:
219,216,52554,1,8,0:0:0:0:
203,217,52642,1,8,0:0:0:0:
187,219,52730,5,2,0:0:0:0:
256,304,52907,1,0,0:0:0:0:
363,287,53084,1,2,0:0:0:0:
413,190,53260,1,0,0:0:0:0:
363,287,53437,5,2,0:0:0:0:
436,263,53613,1,0,0:0:0:0:
413,190,53790,1,2,0:0:0:0:
340,214,53966,1,0,0:0:0:0:
362,287,54143,5,2,0:0:0:0:
343,327,54319,1,0,0:0:0:0:
306,352,54496,1,2,0:0:0:0:
261,357,54672,1,0,0:0:0:0:
192,322,54848,5,2,0:0:0:0:
196,245,55025,1,0,0:0:0:0:
200,168,55201,1,2,0:0:0:0:
204,91,55378,1,0,0:0:0:0:
120,160,55554,5,2,0:0:0:0:
196,245,55731,1,0,0:0:0:0:
279,175,55907,1,2,0:0:0:0:
204,91,56084,1,0,0:0:0:0:
196,245,56260,5,2,0:0:0:0:
337,312,56437,1,0,0:0:0:0:
455,212,56613,1,2,0:0:0:0:
125,220,56878,5,0,0:0:0:0:
127,160,56966,5,8,0:0:0:0:
126,192,57054,1,8,0:0:0:0:
258,197,57231,5,8,0:0:0:0:
258,197,57319,1,8,0:0:0:0:
68,278,57496,1,8,0:0:0:0:
346,227,57672,6,0,P|347:178|307:120,1,96,2|0,0:0|0:0,0:0:0:0:
326,137,58025,2,0,P|325:88|365:30,1,96,0|0,0:0|0:0,0:0:0:0:
403,106,58378,6,0,P|325:123|268:67,1,143.999995605469,14|0,0:0|0:0,0:0:0:0:
277,87,58731,2,0,P|330:146|310:223,1,143.999995605469,8|0,0:0|0:0,0:0:0:0:
323,205,59084,2,0,P|347:128|424:107,1,143.999995605469,10|0,0:0|0:0,0:0:0:0:
430,110,59437,1,8,0:0:0:0:
352,285,59613,6,0,P|284:280|247:244,1,95.9999970703126,0|2,0:0|0:0,0:0:0:0:
197,74,59966,2,0,P|235:17|285:3,1,95.9999970703126,0|8,0:0|0:0,0:0:0:0:
481,46,60319,2,0,P|510:107|497:157,1,95.9999970703126,0|2,0:0|0:0,0:0:0:0:
352,285,60672,1,0,0:0:0:0:
396,172,60848,1,8,0:0:0:0:
508,133,61025,1,0,0:0:0:0:
410,383,61201,6,0,L|259:366,1,143.999995605469,2|0,0:0|0:0,0:0:0:0:
266,366,61554,1,8,0:0:0:0:
490,318,61731,1,0,0:0:0:0:
183,350,61907,2,0,L|32:333,1,143.999995605469,2|0,0:0|0:0,0:0:0:0:
39,333,62260,1,8,0:0:0:0:
490,318,62437,6,0,P|514:220|438:140,1,191.999994140625
308,221,62966,1,8,0:0:0:0:
413,250,63143,1,0,0:0:0:0:
243,305,63319,2,0,L|92:288,1,143.999995605469,2|0,0:0|0:0,0:0:0:0:
99,288,63672,6,0,P|150:330|249:298,1,167.999994873047,8|0,0:0|0:0,0:0:0:0:
308,221,64025,6,0,L|289:52,1,143.999995605469,14|0,0:0|0:0,0:0:0:0:
291,77,64378,2,0,L|154:177,1,143.999995605469,8|0,0:0|0:0,0:0:0:0:
175,162,64731,2,0,L|330:230,1,143.999995605469,10|0,0:0|0:0,0:0:0:0:
332,232,65084,1,8,0:0:0:0:
370,62,65260,6,0,P|348:21|293:-2,1,95.9999970703126,0|2,0:0|0:0,0:0:0:0:
121,102,65613,2,0,P|96:141|104:200,1,95.9999970703126,0|8,0:0|0:0,0:0:0:0:
291,77,65966,1,0,0:0:0:0:
282,295,66143,2,0,P|328:296|375:260,1,95.9999970703126,2|0,0:0|0:0,0:0:0:0:
175,162,66496,1,8,0:0:0:0:
306,219,66672,1,0,0:0:0:0:
120,102,66848,6,0,P|95:141|103:200,1,95.9999970703126,2|0,0:0|0:0,0:0:0:0:
126,229,67113,1,0,0:0:0:0:
126,229,67201,2,0,P|145:281|139:334,1,95.9999970703126,8|0,0:0|0:0,0:0:0:0:
175,162,67554,5,2,0:0:0:0:
65,283,67731,1,0,0:0:0:0:
223,323,67907,1,8,0:0:0:0:
102,37,68084,6,0,L|125:228,1,191.999994140625
332,268,68613,1,8,0:0:0:0:
125,228,68790,1,0,0:0:0:0:
318,355,68966,1,8,0:0:0:0:
318,355,69054,2,0,P|373:343|394:325,1,47.9999985351563,8|0,0:3|0:0,0:0:0:0:
413,226,69231,1,0,0:0:0:0:
413,226,69319,2,0,L|402:155,1,47.9999985351563,2|8,0:0|0:0,0:0:0:0:
459,328,69496,2,0,L|451:375,1,47.9999985351563,8|8,0:0|0:0,0:0:0:0:
457,115,69672,6,0,P|412:97|332:145,1,143.999995605469,6|0,0:0|0:0,0:0:0:0:
330,169,70025,2,0,P|265:187|220:165,1,95.9999970703126,8|0,0:0|0:0,0:0:0:0:
405,178,70378,1,2,0:0:0:0:
272,108,70554,1,2,0:0:0:0:
292,262,70731,1,8,0:0:0:0:
405,178,70907,1,0,0:0:0:0:
201,62,71084,6,0,L|50:81,1,143.999995605469,6|0,0:0|0:0,0:0:0:0:
37,100,71437,2,0,P|37:159|70:205,1,95.9999970703126,8|0,0:0|0:0,0:0:0:0:
170,355,71790,5,2,0:0:0:0:
187,264,71966,1,2,0:0:0:0:
37,100,72143,5,8,0:0:0:0:
55,191,72319,1,2,0:0:0:0:
262,328,72496,6,0,B|291:340|327:326|327:326|367:309|407:326,1,143.999995605469,6|0,0:0|0:0,0:0:0:0:
427,338,72848,1,8,0:0:0:0:
315,117,73025,2,0,P|263:162|281:242,1,143.999995605469,6|0,0:0|0:0,0:0:0:0:
290,252,73378,1,2,0:0:0:0:
456,213,73554,1,8,0:0:0:0:
352,37,73731,6,0,B|316:21|276:38|276:38|240:52|211:40,1,143.999995605469,6|0,0:0|0:0,0:0:0:0:
187,25,74084,1,8,0:0:0:0:
96,192,74260,2,0,P|160:187|200:142,1,95.9999970703126,8|2,0:0|0:0,0:0:0:0:
332,75,74613,1,8,0:0:0:0:
310,46,74701,1,8,0:0:0:0:
279,29,74789,1,0,0:0:0:0:
244,26,74877,1,8,0:0:0:0:
210,40,74966,2,0,P|190:75|185:102,1,47.9999985351563,8|8,0:0|0:0,0:0:0:0:
184,169,75143,2,0,P|205:203|227:220,1,47.9999985351563
322,255,75319,6,0,P|287:205|194:222,1,143.999995605469,6|0,0:0|0:0,0:0:0:0:
215,47,76025,6,0,P|167:125|209:206,1,192,4|0,0:0|0:0,0:0:0:0:
27,265,76731,6,0,P|137:294|209:206,1,240,6|0,0:0|0:0,0:0:0:0:
333,143,77437,5,8,0:0:0:0:
333,143,77525,2,0,P|280:128|245:131,1,80,8|2,0:0|0:0,0:0:0:0:
105,51,77790,1,8,0:0:0:0:
105,51,77878,2,0,P|59:81|39:110,1,80,8|2,0:0|0:0,0:0:0:0:
95,372,78143,6,0,B|164:384|236:349|236:349|337:290|396:337|396:337|346:384|260:341,1,448,6|0,0:0|0:0,0:0:0:0:
473,308,79554,5,8,0:0:0:0:
473,308,79643,2,0,L|481:365,1,40,8|0,0:0|0:0,0:0:0:0:
411,211,79819,1,8,0:0:0:0:
411,211,79908,2,0,L|402:266,1,40,8|0,0:0|0:0,0:0:0:0:
469,140,80084,1,8,0:0:0:0:
328,90,80260,6,0,P|286:95|243:120,1,55.9999982910157,8|0,0:0|0:0,0:0:0:0:
273,99,80437,6,0,P|341:110|382:71,1,80,8|0,0:3|0:0,0:0:0:0:
206,34,80613,5,2,0:0:0:0:
177,24,80701,1,8,0:3:0:0:
147,26,80789,1,0,0:0:0:0:
121,39,80877,1,0,0:0:0:0:
101,62,80966,6,0,L|117:151,1,80,6|0,0:0|0:0,0:0:0:0:
129,219,81231,1,0,0:0:0:0:
129,219,81319,2,0,L|144:307,1,80,2|0,0:0|0:0,0:0:0:0:
349,106,81672,6,0,L|333:194,1,80,2|0,0:0|0:0,0:0:0:0:
320,264,81937,1,0,0:0:0:0:
320,264,82025,2,0,L|304:352,1,80,2|0,0:0|0:0,0:0:0:0:
115,141,82378,6,0,L|132:235,1,80,2|0,0:0|0:0,0:0:0:0:
142,297,82643,1,0,0:0:0:0:
142,297,82731,2,0,L|152:354,1,40,2|0,0:0|0:0,0:0:0:0:
229,320,82907,2,0,L|219:263,1,40,0|0,0:0|0:0,0:0:0:0:
129,219,83084,1,2,0:0:0:0:
306,342,83260,6,0,P|340:349|378:351,1,40
421,249,83437,6,0,P|366:245|319:282,1,96,10|0,0:0|0:0,0:0:0:0:
421,249,83790,6,0,L|412:163,1,80,6|0,0:0|0:0,0:0:0:0:
404,92,84054,1,0,0:0:0:0:
404,92,84143,2,0,P|359:76|300:85,1,80,2|0,0:0|0:0,0:0:0:0:
91,249,84496,6,0,L|100:163,1,80,6|0,0:0|0:0,0:0:0:0:
108,92,84760,1,0,0:0:0:0:
108,92,84849,2,0,P|153:76|212:85,1,80,2|0,0:0|0:0,0:0:0:0:
294,286,85201,6,0,P|255:295|217:285,1,80,6|8,0:0|0:0,0:0:0:0:
251,175,85466,1,8,0:0:0:0:
251,175,85554,2,0,L|257:238,1,40,8|0,0:0|0:0,0:0:0:0:
294,286,85731,2,0,L|288:349,1,40,8|0,0:0|0:0,0:0:0:0:
91,249,85907,6,0,L|80:171,1,60.0000022888184,8|0,0:0|0:0,0:0:0:0:
226,39,86084,2,0,P|255:34|285:38,1,60.0000022888184,8|0,0:0|0:0,0:0:0:0:
429,189,86260,1,4,0:0:0:0:
