osu file format v14

[General]
AudioFilename: audio.ogg
AudioLeadIn: 0
PreviewTime: 56790
Countdown: 0
SampleSet: Soft
StackLeniency: 0.7
Mode: 3
LetterboxInBreaks: 0
SpecialStyle: 0
WidescreenStoryboard: 0

[Editor]
Bookmarks: 7555,13202,16025,18849,30143,32966,35790,38613,41433,47084,52731,58378,69672,72496,75319,79555,80966,83790
DistanceSpacing: 1.8
BeatDivisor: 4
GridSize: 4
TimelineZoom: 1.96

[Metadata]
Title:Umarun Taisou (TV Size)
TitleUnicode:うまるん体操 (TV Size)
Artist:SisterS
ArtistUnicode:妹S
Creator:Sillot
Version:Easy
Source:干物妹!うまるちゃんR
Tags:anime japanese pop j-pop jpop himouto! umaruchan R Ending Umaru Doma Aimi Tanaka Nana Ebina Akari Kageyama Kirie Motoba Haruka Shiraishi Sylphinford Tachibana Yurina Furukawaコメント到着! 土間うまる 田中あいみ 海老名菜々 影山 灯 本場切絵 白石晴香 橘・シルフィンフォード 古川由利奈 ヒゲドライバー ゆよゆっぺ hige driver yuyoyuppe THCS-60167
BeatmapID:3941962
BeatmapSetID:1911085

[Difficulty]
HPDrainRate:6.5
CircleSize:4
OverallDifficulty:6.5
ApproachRate:5
SliderMultiplier:1.4
SliderTickRate:1

[Events]
//Background and Video events
Video,-400,"fin.avi"
0,0,"bg4.jpg",0,0
//Break Periods
//Storyboard Layer 0 (Background)
//Storyboard Layer 1 (Fail)
//Storyboard Layer 2 (Pass)
//Storyboard Layer 3 (Foreground)
//Storyboard Layer 4 (Overlay)
//Storyboard Sound Samples

[TimingPoints]
1908,352.941176470588,4,2,1,50,1,0
18849,-100,4,2,1,50,0,1
30143,-100,4,2,1,50,0,0
58378,-100,4,2,1,50,0,1
78143,-100,4,2,1,50,0,0

[HitObjects]
320,192,1907,5,2,0:0:0:50:
448,192,1907,1,4,0:0:0:50:
64,192,2260,1,2,0:0:0:50:
320,192,2613,1,2,0:0:0:50:
192,192,2966,1,2,0:0:0:50:
448,192,3319,1,2,0:0:0:50:
320,192,3672,1,2,0:0:0:50:
64,192,4025,1,2,0:0:0:50:
320,192,4378,1,2,0:0:0:50:
192,192,4731,1,2,0:0:0:50:
448,192,5084,1,2,0:0:0:50:
64,192,5437,1,2,0:0:0:50:
192,192,5790,1,2,0:0:0:50:
320,192,6143,1,2,0:0:0:50:
448,192,6496,1,2,0:0:0:50:
192,192,6849,1,2,0:0:0:50:
64,192,7202,1,2,0:0:0:50:
448,192,7378,1,8,0:0:0:50:
192,192,7555,128,2,7907:0:0:0:50:
320,192,7555,1,4,0:0:0:50:
448,192,7907,1,2,0:0:0:50:
320,192,8260,128,2,8613:0:0:0:50:
64,192,8613,1,2,0:0:0:50:
192,192,8966,128,2,9319:0:0:0:50:
448,192,9319,128,2,9672:0:0:0:50:
64,192,9672,128,2,10025:0:0:0:50:
192,192,10025,1,2,0:0:0:50:
320,192,10378,1,2,0:0:0:50:
448,192,10378,128,0,10731:0:0:0:0:
192,192,10731,1,2,0:0:0:50:
64,192,11084,128,2,11437:0:0:0:50:
320,192,11437,1,2,0:0:0:50:
448,192,11790,128,2,12143:0:0:0:50:
64,192,12143,128,2,12496:0:0:0:50:
320,192,12496,1,2,0:0:0:50:
192,192,12672,1,8,0:0:0:50:
448,192,12849,1,2,0:0:0:50:
320,192,13025,1,8,0:0:0:50:
64,192,13202,1,2,0:0:0:50:
192,192,13202,128,4,13555:0:0:0:50:
448,192,13555,128,2,13907:0:0:0:50:
320,192,13907,128,2,14260:0:0:0:50:
64,192,14260,128,2,14613:0:0:0:50:
192,192,14613,128,2,14966:0:0:0:50:
448,192,14966,128,2,15319:0:0:0:50:
192,192,15319,128,2,15672:0:0:0:50:
64,192,15672,1,2,0:0:0:50:
320,192,16025,128,2,16378:0:0:0:50:
448,192,16025,1,4,0:0:0:50:
64,192,16378,128,2,16731:0:0:0:50:
192,192,16731,128,2,17084:0:0:0:50:
320,192,16731,1,4,0:0:0:50:
448,192,17084,128,2,17437:0:0:0:50:
64,192,17437,1,8,0:0:0:50:
320,192,17437,1,0,0:0:0:0:
448,192,17790,1,0,0:0:0:50:Tom2.wav
192,192,18143,1,2,0:0:0:50:
320,192,18319,1,0,0:0:0:0:
64,192,18496,1,0,0:0:0:0:
448,192,18496,1,0,0:0:0:0:
192,192,18849,1,2,0:0:0:50:
320,192,18849,128,4,19202:0:0:0:50:
64,192,19202,1,8,0:0:0:50:
192,192,19378,1,0,0:0:0:0:
448,192,19555,128,2,19907:0:0:0:50:
320,192,19907,1,8,0:0:0:50:
64,192,20084,128,2,20437:0:0:0:50:
192,192,20437,1,2,0:0:0:50:
320,192,20613,1,8,0:0:0:50:
64,192,20966,1,2,0:0:0:50:
448,192,21143,1,2,0:0:0:50:
192,192,21319,1,8,0:0:0:50:
64,192,21672,128,2,22025:0:0:0:50:
320,192,21672,1,4,0:0:0:50:
448,192,22025,1,8,0:0:0:50:
320,192,22202,1,0,0:0:0:0:
192,192,22378,128,2,22731:0:0:0:50:
320,192,22731,1,8,0:0:0:50:
448,192,22907,128,2,23260:0:0:0:50:
64,192,23260,1,2,0:0:0:50:
320,192,23437,1,8,0:0:0:50:
192,192,23790,1,2,0:0:0:50:
448,192,23966,1,2,0:0:0:50:
64,192,24143,128,8,24496:0:0:0:50:
192,192,24496,1,4,0:0:0:50:
320,192,24496,128,2,24849:0:0:0:50:
64,192,24849,1,8,0:0:0:50:
192,192,25025,1,0,0:0:0:0:
448,192,25202,128,2,25555:0:0:0:50:
320,192,25555,1,8,0:0:0:50:
192,192,25731,128,2,26084:0:0:0:50:
448,192,26084,1,2,0:0:0:50:
320,192,26260,1,8,0:0:0:50:
64,192,26613,1,0,0:0:0:0:
448,192,26790,1,2,0:0:0:50:
192,192,26966,1,8,0:0:0:50:
64,192,27319,128,2,27672:0:0:0:50:
320,192,27319,1,4,0:0:0:50:
448,192,27672,1,8,0:0:0:50:
320,192,27849,1,0,0:0:0:0:
192,192,28025,128,2,28378:0:0:0:50:
320,192,28378,1,8,0:0:0:50:
64,192,28555,1,2,0:0:0:50:
448,192,28555,128,4,28907:0:0:0:50:
192,192,28907,1,0,0:0:0:0:
320,192,29084,1,8,0:0:0:50:
64,192,29260,1,2,0:0:0:50:
320,192,29437,128,0,29790:0:0:0:0:
192,192,29790,128,8,30143:0:0:0:50:
64,192,30143,1,2,0:0:0:50:
448,192,30143,1,4,0:0:0:50:
320,192,30496,1,8,0:0:0:50:
64,192,30849,1,2,0:0:0:50:
448,192,31025,1,2,0:0:0:50:
192,192,31202,1,8,0:0:0:50:
320,192,31378,1,2,0:0:0:50:
448,192,31731,1,2,0:0:0:50:
64,192,31907,1,8,0:0:0:50:
320,192,32260,1,2,0:0:0:50:
192,192,32437,1,2,0:0:0:50:
320,192,32613,1,8,0:0:0:50:
192,192,32790,1,2,0:0:0:50:
64,192,32966,128,2,33319:0:0:0:50:
448,192,32966,1,4,0:0:0:50:
320,192,33319,1,8,0:0:0:50:
448,192,33672,128,2,34025:0:0:0:50:
192,192,34025,1,8,0:0:0:50:
64,192,34378,128,2,34731:0:0:0:50:
192,192,34731,128,8,35084:0:0:0:50:
448,192,35084,128,2,35437:0:0:0:50:
192,192,35437,128,8,35790:0:0:0:50:
64,192,35790,1,2,0:0:0:50:
448,192,35790,1,4,0:0:0:50:
320,192,36143,1,8,0:0:0:50:
64,192,36496,1,2,0:0:0:50:
192,192,36672,1,2,0:0:0:50:
448,192,36849,1,8,0:0:0:50:
320,192,37025,1,2,0:0:0:50:
192,192,37378,1,2,0:0:0:50:
320,192,37555,1,8,0:0:0:50:
448,192,37907,1,2,0:0:0:50:
320,192,38084,1,8,0:0:0:50:
192,192,38260,1,8,0:0:0:50:
64,192,38437,1,8,0:0:0:50:
320,192,38613,128,4,38966:0:0:0:50:
448,192,38613,1,2,0:0:0:50:
192,192,38966,1,8,0:0:0:50:
320,192,39319,128,2,39672:0:0:0:50:
192,192,39672,1,8,0:0:0:50:
320,192,40025,128,2,40378:0:0:0:50:
64,192,40378,128,8,40731:0:0:0:50:
192,192,40731,128,2,41437:0:0:0:50:
320,192,41437,1,2,0:0:0:50:
448,192,41437,1,4,0:0:0:50:
64,192,41790,1,0,0:0:0:0:
320,192,41966,1,2,0:0:0:50:
192,192,42143,128,2,42496:0:0:0:50:
320,192,42496,128,8,42849:0:0:0:50:
64,192,42849,1,2,0:0:0:50:
448,192,42849,128,4,43202:0:0:0:50:
192,192,43202,128,0,43555:0:0:0:0:
448,192,43555,128,2,43907:0:0:0:50:
64,192,43907,128,10,44260:0:0:0:50:
320,192,44260,128,2,45143:0:0:0:50:
448,192,44260,1,4,0:0:0:50:
64,192,45143,1,0,0:0:0:0:
192,192,45319,1,8,0:0:0:50:
320,192,45496,1,0,0:0:0:0:
64,192,45672,1,2,0:0:0:50:
448,192,45672,1,4,0:0:0:50:
192,192,46025,1,8,0:0:0:50:
448,192,46378,1,2,0:0:0:50:
192,192,46731,1,8,0:0:0:50:
320,192,46907,1,0,0:0:0:50:Tom1.wav
64,192,47084,1,4,0:0:0:50:
448,192,47084,1,2,0:0:0:50:
192,192,47437,1,8,0:0:0:50:
448,192,47790,128,2,48143:0:0:0:50:
192,192,48143,1,8,0:0:0:50:
64,192,48496,1,2,0:0:0:50:
320,192,48496,1,4,0:0:0:50:
192,192,48849,1,8,0:0:0:50:
320,192,49202,128,2,49555:0:0:0:50:
448,192,49555,128,8,49907:0:0:0:50:
64,192,49907,1,2,0:0:0:50:
192,192,49907,1,4,0:0:0:50:
320,192,50260,128,8,50613:0:0:0:50:
64,192,50613,128,2,50966:0:0:0:50:
448,192,50613,1,4,0:0:0:50:
320,192,50966,128,8,51319:0:0:0:50:
192,192,51319,128,2,51672:0:0:0:50:
448,192,51319,1,4,0:0:0:50:
64,192,51672,128,2,52025:0:0:0:50:
320,192,52025,128,2,52378:0:0:0:50:
192,192,52378,128,2,52731:0:0:0:50:
448,192,52731,1,2,0:0:0:50:
64,192,53084,1,2,0:0:0:50:
448,192,53437,1,2,0:0:0:50:
64,192,53790,1,2,0:0:0:50:
448,192,54143,1,2,0:0:0:50:
64,192,54496,1,2,0:0:0:50:
448,192,54849,1,2,0:0:0:50:
64,192,55202,1,2,0:0:0:50:
448,192,55555,1,2,0:0:0:50:
64,192,55907,1,2,0:0:0:50:
192,192,56260,128,2,56613:0:0:0:50:
320,192,56613,128,2,56966:0:0:0:50:
64,192,56966,1,2,0:0:0:50:
448,192,57319,1,10,0:0:0:50:
320,192,57672,128,2,58025:0:0:0:50:
192,192,58025,128,0,58378:0:0:0:0:
320,192,58378,128,4,58731:0:0:0:50:
448,192,58378,1,2,0:0:0:50:
64,192,58731,128,8,59084:0:0:0:50:
320,192,59084,128,2,59437:0:0:0:50:
64,192,59437,1,8,0:0:0:50:
192,192,59613,128,0,59966:0:0:0:0:
320,192,59966,128,0,60319:0:0:0:0:
448,192,60319,128,0,60672:0:0:0:0:
192,192,60672,128,0,61025:0:0:0:0:
320,192,61025,1,0,0:0:0:0:
64,192,61202,1,2,0:0:0:50:
448,192,61202,1,4,0:0:0:50:
320,192,61466,1,0,0:0:0:0:
64,192,61731,1,0,0:0:0:0:
448,192,61907,1,2,0:0:0:50:
320,192,61907,1,4,0:0:0:50:
192,192,62172,1,0,0:0:0:0:
320,192,62437,128,0,62790:0:0:0:0:
64,192,62790,1,0,0:0:0:0:
448,192,62966,1,8,0:0:0:50:
320,192,63143,1,0,0:0:0:0:
192,192,63319,128,2,63672:0:0:0:50:
320,192,63672,1,12,0:0:0:50:
320,192,64025,128,4,64378:0:0:0:50:
448,192,64025,1,2,0:0:0:50:
64,192,64378,128,8,64731:0:0:0:50:
320,192,64731,128,2,65084:0:0:0:50:
64,192,65084,1,8,0:0:0:50:
448,192,65260,128,0,65613:0:0:0:0:
192,192,65613,128,0,65966:0:0:0:0:
64,192,65966,1,0,0:0:0:0:
448,192,66143,128,2,66496:0:0:0:50:
192,192,66496,1,8,0:0:0:50:
320,192,66672,1,0,0:0:0:0:
64,192,66849,1,2,0:0:0:50:
192,192,66849,1,4,0:0:0:50:
448,192,67113,1,0,0:0:0:0:
192,192,67378,1,0,0:0:0:0:
64,192,67555,1,2,0:0:0:50:
448,192,67555,1,4,0:0:0:50:
320,192,67907,1,8,0:0:0:50:
192,192,68084,1,0,0:0:0:0:
448,192,68437,1,0,0:0:0:0:
320,192,68613,1,8,0:0:0:50:
64,192,68790,1,0,0:0:0:0:
192,192,68966,128,2,69319:0:0:0:50:
448,192,69319,128,2,69672:0:0:0:50:
64,192,69672,1,4,0:0:0:50:
320,192,69672,1,2,0:0:0:50:
192,192,70025,1,8,0:0:0:50:
448,192,70378,1,2,0:0:0:50:
64,192,70555,128,2,70907:0:0:0:50:
320,192,70907,128,0,71437:0:0:0:0:
64,192,71437,1,8,0:0:0:50:
448,192,71790,128,2,72143:0:0:0:50:
192,192,72143,1,8,0:0:0:50:
320,192,72319,1,2,0:0:0:50:
64,192,72496,128,2,72849:0:0:0:50:
192,192,72496,1,4,0:0:0:50:
448,192,72849,1,8,0:0:0:50:
192,192,73025,128,6,73378:0:0:0:50:
320,192,73378,1,2,0:0:0:50:
64,192,73555,1,8,0:0:0:50:
320,192,73731,1,4,0:0:0:50:
448,192,73731,128,2,74084:0:0:0:50:
192,192,74084,1,10,0:0:0:50:
320,192,74260,1,10,0:0:0:50:
192,192,74613,1,8,0:0:0:50:
448,192,74790,1,8,0:0:0:50:
320,192,74966,1,8,0:0:0:50:
192,192,75143,1,0,0:0:0:50:Tom2.wav
64,192,75319,1,2,0:0:0:50:
448,192,75319,1,4,0:0:0:50:
320,192,75584,1,0,0:0:0:0:
64,192,75849,1,0,0:0:0:0:
320,192,76025,128,2,76378:0:0:0:50:
448,192,76025,1,4,0:0:0:50:
192,192,76378,1,0,0:0:0:0:
64,192,76731,1,4,0:0:0:50:
320,192,76731,1,2,0:0:0:50:
448,192,76996,1,0,0:0:0:0:
192,192,77260,1,0,0:0:0:0:
64,192,77437,128,8,77790:0:0:0:50:
192,192,77790,128,8,78143:0:0:0:50:
320,192,78143,128,4,79555:0:0:0:50:
448,192,78143,1,2,0:0:0:50:
192,192,79555,1,2,0:0:0:50:
320,192,79907,1,10,0:0:0:50:
64,192,80260,1,10,0:0:0:50:
448,192,80613,1,0,0:0:0:50:Tom1.wav
64,192,80966,128,2,81319:0:0:0:50:
320,192,80966,1,8,0:0:0:50:
448,192,81319,128,2,81672:0:0:0:50:
192,192,81672,128,2,82025:0:0:0:50:
320,192,82025,128,2,82378:0:0:0:50:
64,192,82378,128,2,82731:0:0:0:50:
448,192,82731,128,2,83084:0:0:0:50:
192,192,83084,128,2,83437:0:0:0:50:
320,192,83437,1,10,0:0:0:50:
64,192,83790,128,4,84143:0:0:0:50:
448,192,83790,1,2,0:0:0:50:
192,192,84143,128,2,84496:0:0:0:50:
320,192,84496,1,2,0:0:0:50:
448,192,84496,128,4,84849:0:0:0:50:
64,192,84849,128,2,85202:0:0:0:50:
192,192,85202,1,2,0:0:0:50:
448,192,85202,1,4,0:0:0:50:
320,192,85555,1,10,0:0:0:50:
64,192,85907,1,8,0:0:0:50:
192,192,86084,1,8,0:0:0:50:
320,192,86260,1,2,0:0:0:50:
448,192,86260,1,4,0:0:0:50:
