osu file format v14

[General]
AudioFilename: audio.ogg
AudioLeadIn: 0
PreviewTime: 56790
Countdown: 0
SampleSet: Soft
StackLeniency: 0.7
Mode: 3
LetterboxInBreaks: 0
SpecialStyle: 0
WidescreenStoryboard: 0

[Editor]
Bookmarks: 7555,13202,16025,18849,24496,30143,32966,35790,38613,41433,47084,52731,58378,69672,72496,75319,79555,80966,83790
DistanceSpacing: 1.8
BeatDivisor: 4
GridSize: 4
TimelineZoom: 1.96

[Metadata]
Title:Umarun Taisou (TV Size)
TitleUnicode:うまるん体操 (TV Size)
Artist:SisterS
ArtistUnicode:妹S
Creator:Sillot
Version:Hard
Source:干物妹!うまるちゃんR
Tags:anime japanese pop j-pop jpop himouto! umaruchan R Ending Umaru Doma Aimi Tanaka Nana Ebina Akari Kageyama Kirie Motoba Haruka Shiraishi Sylphinford Tachibana Yurina Furukawaコメント到着! 土間うまる 田中あいみ 海老名菜々 影山 灯 本場切絵 白石晴香 橘・シルフィンフォード 古川由利奈 ヒゲドライバー ゆよゆっぺ hige driver yuyoyuppe THCS-60167
BeatmapID:3942005
BeatmapSetID:1911085

[Difficulty]
HPDrainRate:7.5
CircleSize:4
OverallDifficulty:7.5
ApproachRate:5
SliderMultiplier:1.4
SliderTickRate:1

[Events]
//Background and Video events
Video,-400,"fin.avi"
0,0,"bg2.jpg",0,0
//Break Periods
//Storyboard Layer 0 (Background)
//Storyboard Layer 1 (Fail)
//Storyboard Layer 2 (Pass)
//Storyboard Layer 3 (Foreground)
//Storyboard Layer 4 (Overlay)
//Storyboard Sound Samples

[TimingPoints]
1908,352.941176470588,4,2,1,50,1,0
18849,-100,4,2,1,50,0,1
30143,-100,4,2,1,50,0,0
58378,-100,4,2,1,50,0,1
78143,-100,4,2,1,50,0,0

[HitObjects]
320,192,1907,5,2,0:0:0:50:
448,192,1907,1,4,0:0:0:50:
64,192,2084,1,0,0:0:0:0:
192,192,2260,1,2,0:0:0:50:
320,192,2260,1,0,0:0:0:0:
448,192,2437,1,0,0:0:0:0:
64,192,2613,1,2,0:0:0:50:
320,192,2613,1,0,0:0:0:0:
192,192,2790,1,0,0:0:0:0:
320,192,2966,1,2,0:0:0:50:
448,192,2966,1,0,0:0:0:0:
64,192,3143,1,0,0:0:0:0:
192,192,3319,1,2,0:0:0:50:
448,192,3319,1,0,0:0:0:0:
320,192,3496,1,0,0:0:0:0:
64,192,3672,1,2,0:0:0:50:
192,192,3672,1,0,0:0:0:0:
448,192,3849,1,0,0:0:0:0:
192,192,4025,1,2,0:0:0:50:
320,192,4025,1,0,0:0:0:0:
64,192,4202,1,0,0:0:0:0:
320,192,4378,1,2,0:0:0:50:
448,192,4378,1,0,0:0:0:0:
64,192,4555,1,0,0:0:0:0:
192,192,4731,1,2,0:0:0:50:
448,192,4731,1,0,0:0:0:0:
320,192,4907,1,0,0:0:0:0:
64,192,5084,1,2,0:0:0:50:
192,192,5084,1,0,0:0:0:0:
448,192,5260,1,0,0:0:0:0:
64,192,5437,1,2,0:0:0:50:
320,192,5437,1,0,0:0:0:0:
192,192,5613,1,0,0:0:0:0:
320,192,5790,1,2,0:0:0:50:
448,192,5790,1,0,0:0:0:0:
192,192,5966,1,0,0:0:0:0:
64,192,6143,1,2,0:0:0:50:
448,192,6143,1,0,0:0:0:0:
320,192,6319,1,0,0:0:0:0:
64,192,6496,1,2,0:0:0:50:
192,192,6496,1,0,0:0:0:0:
448,192,6672,1,0,0:0:0:0:
192,192,6849,1,2,0:0:0:50:
320,192,6849,1,0,0:0:0:0:
64,192,7025,1,0,0:0:0:0:
320,192,7202,1,2,0:0:0:50:
448,192,7202,1,0,0:0:0:0:
64,192,7378,1,8,0:0:0:50:
448,192,7378,1,0,0:0:0:0:
64,192,7555,128,2,7731:0:0:0:50:
192,192,7555,1,4,0:0:0:50:
448,192,7731,1,0,0:0:0:0:
320,192,7819,1,0,0:0:0:0:
64,192,7907,1,2,0:0:0:50:
192,192,7907,128,0,8260:0:0:0:0:
320,192,8260,1,2,0:0:0:50:
448,192,8260,128,0,8437:0:0:0:0:
64,192,8437,1,0,0:0:0:0:
192,192,8525,1,0,0:0:0:0:
320,192,8613,128,2,8966:0:0:0:50:
448,192,8613,1,0,0:0:0:0:
64,192,8966,128,2,9143:0:0:0:50:
192,192,8966,1,0,0:0:0:0:
448,192,9143,1,0,0:0:0:0:
320,192,9231,1,0,0:0:0:0:
64,192,9319,1,2,0:0:0:50:
192,192,9319,128,0,9496:0:0:0:0:
320,192,9496,128,0,9672:0:0:0:0:
192,192,9672,1,2,0:0:0:50:
448,192,9672,128,0,9849:0:0:0:0:
64,192,9849,1,0,0:0:0:0:
192,192,9937,1,0,0:0:0:0:
320,192,10025,128,2,10202:0:0:0:50:
448,192,10025,1,0,0:0:0:0:
64,192,10202,1,0,0:0:0:0:
192,192,10378,128,2,10555:0:0:0:50:
448,192,10378,1,0,0:0:0:0:
64,192,10555,1,0,0:0:0:0:
320,192,10643,1,0,0:0:0:0:
192,192,10731,1,2,0:0:0:50:
448,192,10731,128,0,11084:0:0:0:0:
64,192,11084,1,2,0:0:0:50:
320,192,11084,128,0,11260:0:0:0:0:
448,192,11260,1,0,0:0:0:0:
192,192,11349,1,0,0:0:0:0:
64,192,11437,128,2,11790:0:0:0:50:
320,192,11437,1,0,0:0:0:0:
192,192,11790,128,2,11966:0:0:0:50:
448,192,11790,1,0,0:0:0:0:
64,192,11966,1,0,0:0:0:0:
320,192,12055,1,0,0:0:0:0:
192,192,12143,1,2,0:0:0:50:
448,192,12143,128,0,12319:0:0:0:0:
192,192,12319,128,0,12496:0:0:0:0:
320,192,12496,128,2,12672:0:0:0:50:
448,192,12496,1,0,0:0:0:0:
64,192,12672,1,8,0:0:0:50:
192,192,12672,1,0,0:0:0:0:
448,192,12849,1,2,0:0:0:50:
192,192,13025,1,8,0:0:0:50:
320,192,13025,1,0,0:0:0:0:
64,192,13202,128,2,13378:0:0:0:50:
448,192,13202,1,4,0:0:0:50:
192,192,13378,1,0,0:0:0:0:
320,192,13466,1,0,0:0:0:0:
64,192,13555,1,2,0:0:0:50:
448,192,13555,128,0,13907:0:0:0:0:
64,192,13907,1,2,0:0:0:50:
192,192,13907,128,0,14084:0:0:0:0:
320,192,14084,1,0,0:0:0:0:
64,192,14172,1,0,0:0:0:0:
192,192,14260,1,2,0:0:0:50:
448,192,14260,128,0,14613:0:0:0:0:
64,192,14613,128,2,14790:0:0:0:50:
320,192,14613,1,0,0:0:0:0:
192,192,14790,1,0,0:0:0:0:
320,192,14878,1,0,0:0:0:0:
192,192,14966,1,2,0:0:0:50:
448,192,14966,128,0,15143:0:0:0:0:
64,192,15143,128,0,15319:0:0:0:0:
320,192,15319,128,2,15496:0:0:0:50:
448,192,15319,1,0,0:0:0:0:
192,192,15496,1,0,0:0:0:0:
448,192,15584,1,0,0:0:0:0:
64,192,15672,128,2,15849:0:0:0:50:
320,192,15672,1,0,0:0:0:0:
192,192,15849,1,0,0:0:0:0:
320,192,16025,128,2,16202:0:0:0:50:
448,192,16025,128,4,16202:0:0:0:50:
64,192,16202,1,0,0:0:0:0:
192,192,16290,1,0,0:0:0:0:
320,192,16378,128,2,16731:0:0:0:50:
448,192,16378,1,0,0:0:0:0:
64,192,16731,128,2,16907:0:0:0:50:
192,192,16731,128,4,16907:0:0:0:50:
448,192,16907,1,0,0:0:0:0:
320,192,16996,1,0,0:0:0:0:
64,192,17084,1,2,0:0:0:50:
192,192,17084,128,0,17437:0:0:0:0:
320,192,17437,1,8,0:0:0:50:
448,192,17437,1,0,0:0:0:0:
64,192,17525,1,8,0:0:0:50:
192,192,17613,1,2,0:0:0:50:
320,192,17702,1,0,0:0:0:50:Tom1.wav
448,192,17702,1,0,0:0:0:0:
64,192,17790,1,0,0:0:0:50:Tom2.wav
192,192,17790,1,0,0:0:0:0:
448,192,17878,1,2,0:0:0:50:
320,192,17966,1,8,0:0:0:50:
64,192,18055,1,8,0:0:0:50:
192,192,18055,1,0,0:0:0:0:
320,192,18143,1,2,0:0:0:50:
448,192,18143,1,0,0:0:0:0:
64,192,18319,1,0,0:0:0:0:
192,192,18319,1,0,0:0:0:0:
320,192,18496,128,0,18849:0:0:0:0:
448,192,18496,128,0,18849:0:0:0:0:
64,192,18849,128,2,19025:0:0:0:50:
192,192,18849,1,4,0:0:0:50:
448,192,19025,128,0,19202:0:0:0:0:
64,192,19202,1,8,0:0:0:50:
192,192,19202,128,0,19378:0:0:0:0:
448,192,19378,128,0,19731:0:0:0:0:
320,192,19555,1,2,0:0:0:50:
64,192,19731,128,2,19907:0:0:0:50:
192,192,19907,128,8,20084:0:0:0:50:
448,192,19907,1,0,0:0:0:0:
64,192,20084,1,2,0:0:0:50:
320,192,20084,128,0,20437:0:0:0:0:
64,192,20437,128,2,20613:0:0:0:50:
320,192,20613,128,8,20790:0:0:0:50:
448,192,20613,1,0,0:0:0:0:
192,192,20790,128,0,20966:0:0:0:0:
448,192,20966,128,2,21143:0:0:0:50:
64,192,21143,128,2,21319:0:0:0:50:
192,192,21319,1,8,0:0:0:50:
320,192,21319,128,0,21672:0:0:0:0:
448,192,21496,1,2,0:0:0:50:
64,192,21672,128,2,21849:0:0:0:50:
192,192,21672,1,4,0:0:0:50:
320,192,21849,128,0,22025:0:0:0:0:
64,192,22025,1,8,0:0:0:50:
192,192,22025,128,0,22202:0:0:0:0:
448,192,22202,128,0,22555:0:0:0:0:
64,192,22378,1,2,0:0:0:50:
192,192,22555,128,2,22731:0:0:0:50:
320,192,22731,128,8,22907:0:0:0:50:
448,192,22731,1,0,0:0:0:0:
64,192,22907,128,2,23260:0:0:0:50:
192,192,22907,1,0,0:0:0:0:
448,192,23260,128,2,23437:0:0:0:50:
64,192,23437,1,8,0:0:0:50:
320,192,23437,128,0,23613:0:0:0:0:
192,192,23613,128,0,23790:0:0:0:0:
448,192,23790,128,2,23966:0:0:0:50:
64,192,23966,128,2,24143:0:0:0:50:
192,192,24143,1,8,0:0:0:50:
448,192,24143,1,0,0:0:0:0:
64,192,24319,1,8,0:0:0:50:
320,192,24319,1,0,0:0:0:0:
192,192,24407,1,8,0:0:0:50:
320,192,24496,128,4,24672:0:0:0:50:
448,192,24496,1,2,0:0:0:50:
192,192,24672,128,0,24849:0:0:0:0:
64,192,24849,1,8,0:0:0:50:
448,192,24849,1,0,0:0:0:0:
320,192,25025,128,0,25378:0:0:0:0:
192,192,25202,1,2,0:0:0:50:
64,192,25378,128,2,25555:0:0:0:50:
320,192,25555,1,8,0:0:0:50:
448,192,25555,128,0,25731:0:0:0:0:
64,192,25731,1,2,0:0:0:50:
192,192,25731,128,0,26084:0:0:0:0:
320,192,26084,128,2,26260:0:0:0:50:
192,192,26260,128,8,26437:0:0:0:50:
448,192,26260,1,0,0:0:0:0:
64,192,26437,128,2,26613:0:0:0:50:
320,192,26613,128,0,26790:0:0:0:0:
64,192,26790,1,2,0:0:0:50:
192,192,26790,128,0,26966:0:0:0:0:
320,192,26966,128,8,27319:0:0:0:50:
448,192,26966,1,0,0:0:0:0:
192,192,27143,1,2,0:0:0:50:
64,192,27319,128,2,27496:0:0:0:50:
448,192,27319,1,4,0:0:0:50:
320,192,27496,128,0,27672:0:0:0:0:
64,192,27672,1,8,0:0:0:50:
192,192,27672,128,0,27849:0:0:0:0:
448,192,27849,128,0,28202:0:0:0:0:
320,192,28025,1,2,0:0:0:50:
64,192,28202,128,2,28378:0:0:0:50:
192,192,28378,1,8,0:0:0:50:
320,192,28378,128,0,28555:0:0:0:0:
64,192,28555,1,2,0:0:0:50:
448,192,28555,128,4,28907:0:0:0:50:
192,192,28907,128,0,29084:0:0:0:0:
320,192,29084,128,8,29260:0:0:0:50:
448,192,29084,1,0,0:0:0:0:
64,192,29260,128,2,29437:0:0:0:50:
192,192,29260,1,0,0:0:0:0:
448,192,29437,128,0,29790:0:0:0:0:
192,192,29613,1,2,0:0:0:50:
320,192,29790,1,8,0:0:0:50:
192,192,29878,1,8,0:0:0:50:
320,192,29966,1,8,0:0:0:50:
192,192,30055,1,8,0:0:0:50:
64,192,30143,1,2,0:0:0:50:
448,192,30143,1,4,0:0:0:50:
320,192,30319,1,0,0:0:0:0:
448,192,30407,1,0,0:0:0:0:
64,192,30496,128,8,30672:0:0:0:50:
192,192,30496,1,0,0:0:0:0:
320,192,30672,1,0,0:0:0:0:
192,192,30760,1,0,0:0:0:0:
448,192,30849,128,2,31025:0:0:0:50:
192,192,31025,1,2,0:0:0:50:
320,192,31113,128,0,31378:0:0:0:0:
64,192,31202,1,8,0:0:0:50:
448,192,31202,1,0,0:0:0:0:
64,192,31378,1,2,0:0:0:50:
192,192,31378,128,0,31555:0:0:0:0:
320,192,31555,128,0,31731:0:0:0:0:
192,192,31731,1,2,0:0:0:50:
448,192,31731,128,0,31907:0:0:0:0:
64,192,31907,1,8,0:0:0:50:
192,192,31907,128,0,32084:0:0:0:0:
320,192,32084,1,0,0:0:0:0:
448,192,32172,1,0,0:0:0:0:
64,192,32260,128,2,32437:0:0:0:50:
192,192,32437,128,2,32613:0:0:0:50:
320,192,32437,1,0,0:0:0:0:
64,192,32613,1,8,0:0:0:50:
448,192,32613,128,0,32790:0:0:0:0:
320,192,32790,128,2,32966:0:0:0:50:
64,192,32966,128,2,33319:0:0:0:50:
192,192,32966,1,4,0:0:0:50:
320,192,33319,1,8,0:0:0:50:
448,192,33319,1,0,0:0:0:0:
64,192,33672,1,2,0:0:0:50:
192,192,33672,128,0,34025:0:0:0:0:
448,192,33849,1,2,0:0:0:50:
64,192,34025,1,8,0:0:0:50:
320,192,34025,1,0,0:0:0:0:
192,192,34202,128,0,34378:0:0:0:0:
320,192,34378,1,2,0:0:0:50:
448,192,34378,128,0,34555:0:0:0:0:
64,192,34555,128,2,34731:0:0:0:50:
320,192,34731,128,8,34907:0:0:0:50:
448,192,34731,1,0,0:0:0:0:
192,192,34907,128,0,35084:0:0:0:0:
320,192,35084,128,2,35260:0:0:0:50:
448,192,35084,1,0,0:0:0:0:
64,192,35260,128,2,35437:0:0:0:50:
192,192,35437,1,8,0:0:0:50:
448,192,35437,1,0,0:0:0:0:
320,192,35613,1,0,0:0:0:50:Tom1.wav
192,192,35702,1,0,0:0:0:50:Tom2.wav
64,192,35790,1,2,0:0:0:50:
448,192,35790,1,4,0:0:0:50:
320,192,35966,1,0,0:0:0:0:
192,192,36055,1,0,0:0:0:0:
320,192,36143,1,8,0:0:0:50:
448,192,36143,128,0,36496:0:0:0:0:
64,192,36319,1,0,0:0:0:0:
320,192,36407,1,0,0:0:0:0:
192,192,36496,128,2,36672:0:0:0:50:
448,192,36672,1,2,0:0:0:50:
320,192,36760,1,0,0:0:0:0:
64,192,36849,1,8,0:0:0:50:
192,192,36849,1,0,0:0:0:0:
320,192,37025,128,2,37202:0:0:0:50:
448,192,37025,1,0,0:0:0:0:
64,192,37202,1,0,0:0:0:0:
448,192,37378,1,2,0:0:0:50:
64,192,37555,1,8,0:0:0:50:
320,192,37555,1,0,0:0:0:0:
192,192,37731,1,0,0:0:0:0:
448,192,37907,1,2,0:0:0:50:
192,192,38084,1,8,0:0:0:50:
320,192,38084,1,0,0:0:0:50:Tom2.wav
64,192,38260,1,8,0:0:0:50:
448,192,38260,1,0,0:0:0:50:Tom2.wav
192,192,38437,1,8,0:0:0:50:
320,192,38437,1,0,0:0:0:50:Tom2.wav
64,192,38613,1,4,0:0:0:50:
448,192,38613,128,2,38790:0:0:0:50:
320,192,38790,128,0,38966:0:0:0:0:
64,192,38966,128,8,39319:0:0:0:50:
192,192,38966,1,0,0:0:0:0:
192,192,39319,1,2,0:0:0:50:
448,192,39319,128,0,39496:0:0:0:0:
64,192,39496,1,2,0:0:0:50:
320,192,39496,128,0,39672:0:0:0:0:
64,192,39672,128,8,40025:0:0:0:50:
192,192,39672,1,0,0:0:0:0:
320,192,39849,1,0,0:0:0:0:
192,192,40025,1,2,0:0:0:50:
448,192,40025,128,0,40202:0:0:0:0:
192,192,40202,1,2,0:0:0:50:
64,192,40290,1,0,0:0:0:0:
320,192,40378,1,8,0:0:0:50:
448,192,40378,128,0,40555:0:0:0:0:
192,192,40555,128,0,40731:0:0:0:0:
64,192,40731,128,2,41084:0:0:0:50:
448,192,40731,1,0,0:0:0:0:
320,192,40907,1,2,0:0:0:50:
192,192,41084,1,8,0:0:0:50:
448,192,41084,1,0,0:0:0:0:
320,192,41260,1,8,0:0:0:50:
192,192,41349,1,8,0:0:0:50:
64,192,41437,1,2,0:0:0:50:
320,192,41437,128,4,41790:0:0:0:50:
192,192,41790,1,0,0:0:0:0:
448,192,41966,1,2,0:0:0:50:
64,192,42143,1,2,0:0:0:50:
192,192,42143,128,0,42496:0:0:0:0:
64,192,42496,128,8,42849:0:0:0:50:
320,192,42496,1,0,0:0:0:0:
320,192,42849,1,2,0:0:0:50:
448,192,42849,128,4,43202:0:0:0:50:
64,192,43202,1,0,0:0:0:0:
192,192,43378,1,2,0:0:0:50:
320,192,43555,1,2,0:0:0:50:
64,192,43731,1,8,0:0:0:50:
192,192,43731,1,0,0:0:0:0:
320,192,43907,1,2,0:0:0:50:
448,192,43907,1,8,0:0:0:50:
64,192,44084,1,0,0:0:0:50:Tom1.wav
320,192,44260,128,2,44790:0:0:0:50:
448,192,44260,1,4,0:0:0:50:
192,192,44613,1,0,0:0:0:0:
448,192,44790,1,2,0:0:0:50:
64,192,44966,1,2,0:0:0:50:
192,192,44966,1,0,0:0:0:0:
448,192,45143,1,0,0:0:0:0:
64,192,45319,1,8,0:0:0:50:
320,192,45319,1,0,0:0:0:0:
448,192,45496,128,0,46025:0:0:0:0:
192,192,45672,1,2,0:0:0:50:
320,192,45672,1,4,0:0:0:50:
64,192,46025,1,8,0:0:0:50:
192,192,46025,1,0,0:0:0:0:
320,192,46202,1,0,0:0:0:50:Tom2.wav
448,192,46290,1,0,0:0:0:50:Tom2.wav
64,192,46378,128,2,46731:0:0:0:50:
192,192,46555,1,2,0:0:0:50:
448,192,46731,1,8,0:0:0:50:
320,192,46819,1,8,0:0:0:50:
64,192,46907,1,0,0:0:0:50:Tom1.wav
192,192,46996,1,0,0:0:0:50:Tom1.wav
320,192,47084,1,4,0:0:0:50:
448,192,47084,1,2,0:0:0:50:
192,192,47260,1,0,0:0:0:0:
64,192,47437,1,8,0:0:0:50:
448,192,47437,1,0,0:0:0:0:
320,192,47613,1,0,0:0:0:50:Tom2.wav
192,192,47702,1,0,0:0:0:50:Tom1.wav
64,192,47790,1,2,0:0:0:50:
320,192,47790,128,0,48143:0:0:0:0:
448,192,47966,1,2,0:0:0:50:
64,192,48143,1,8,0:0:0:50:
192,192,48143,1,0,0:0:0:0:
448,192,48319,1,0,0:0:0:50:Tom1.wav
64,192,48407,1,0,0:0:0:50:Tom2.wav
192,192,48496,1,2,0:0:0:50:
320,192,48496,1,4,0:0:0:50:
448,192,48672,1,2,0:0:0:50:
64,192,48849,1,8,0:0:0:50:
320,192,48849,1,0,0:0:0:0:
192,192,49025,1,0,0:0:0:50:Tom2.wav
320,192,49202,128,2,49555:0:0:0:50:
448,192,49202,1,0,0:0:0:0:
192,192,49378,1,2,0:0:0:50:
64,192,49555,128,8,49907:0:0:0:50:
448,192,49555,1,0,0:0:0:0:
320,192,49731,1,8,0:0:0:50:
192,192,49819,1,8,0:0:0:50:
320,192,49907,1,2,0:0:0:50:
448,192,49907,1,4,0:0:0:50:
192,192,50084,1,2,0:0:0:50:
320,192,50260,128,8,50613:0:0:0:50:
448,192,50260,1,0,0:0:0:0:
64,192,50437,1,0,0:0:0:50:Tom1.wav
192,192,50525,1,0,0:0:0:50:Tom1.wav
64,192,50613,128,6,50966:0:0:0:50:
448,192,50790,1,2,0:0:0:50:
192,192,50966,1,8,0:0:0:50:
320,192,50966,128,0,51319:0:0:0:0:
448,192,51143,1,0,0:0:0:50:Tom1.wav
192,192,51231,1,0,0:0:0:50:Tom2.wav
64,192,51319,1,6,0:0:0:50:
448,192,51496,1,8,0:0:0:50:
320,192,51584,1,8,0:0:0:50:
64,192,51672,1,2,0:0:0:50:
192,192,51760,1,8,0:0:0:50:
448,192,51849,1,8,0:0:0:50:
320,192,51937,1,8,0:0:0:50:
192,192,52025,1,2,0:0:0:50:
64,192,52113,1,8,0:0:0:50:
320,192,52202,1,8,0:0:0:50:
448,192,52290,1,8,0:0:0:50:
64,192,52378,1,2,0:0:0:50:
192,192,52466,1,8,0:0:0:50:
448,192,52555,1,8,0:0:0:50:
320,192,52643,1,8,0:0:0:50:
64,192,52731,1,2,0:0:0:50:
192,192,52731,1,0,0:0:0:0:
64,192,52907,1,0,0:0:0:0:
320,192,53084,1,2,0:0:0:50:
448,192,53084,1,0,0:0:0:0:
448,192,53260,1,0,0:0:0:0:
64,192,53437,1,2,0:0:0:50:
192,192,53437,1,0,0:0:0:0:
192,192,53613,1,0,0:0:0:0:
320,192,53790,1,2,0:0:0:50:
448,192,53790,1,0,0:0:0:0:
320,192,53966,1,0,0:0:0:0:
64,192,54143,1,2,0:0:0:50:
192,192,54143,1,0,0:0:0:0:
64,192,54319,1,0,0:0:0:0:
320,192,54496,1,2,0:0:0:50:
448,192,54496,1,0,0:0:0:0:
320,192,54672,1,0,0:0:0:0:
64,192,54849,1,2,0:0:0:50:
192,192,54849,1,0,0:0:0:0:
192,192,55025,1,0,0:0:0:0:
320,192,55202,1,2,0:0:0:50:
448,192,55202,1,0,0:0:0:0:
448,192,55378,1,0,0:0:0:0:
64,192,55555,1,2,0:0:0:50:
320,192,55555,1,0,0:0:0:0:
64,192,55731,1,0,0:0:0:0:
192,192,55907,1,2,0:0:0:50:
448,192,55907,1,0,0:0:0:0:
448,192,56084,1,0,0:0:0:0:
192,192,56260,128,2,56437:0:0:0:50:
320,192,56260,1,0,0:0:0:0:
448,192,56437,128,0,56613:0:0:0:0:
64,192,56613,128,2,56966:0:0:0:50:
192,192,56613,1,0,0:0:0:0:
192,192,56966,1,2,0:0:0:50:
320,192,57055,1,8,0:0:0:50:
448,192,57055,1,0,0:0:0:0:
320,192,57231,1,8,0:0:0:50:
64,192,57319,1,8,0:0:0:50:
192,192,57319,1,2,0:0:0:50:
320,192,57496,1,8,0:0:0:50:
448,192,57496,1,0,0:0:0:0:
320,192,57672,128,2,58025:0:0:0:50:
192,192,58025,128,0,58378:0:0:0:0:
320,192,58378,128,4,58555:0:0:0:50:
448,192,58378,128,2,58555:0:0:0:50:
64,192,58555,1,0,0:0:0:0:
320,192,58731,128,8,58907:0:0:0:50:
448,192,58731,128,0,58907:0:0:0:0:
64,192,58907,1,0,0:0:0:0:
320,192,59084,128,2,59260:0:0:0:50:
448,192,59084,128,0,59260:0:0:0:0:
64,192,59260,1,0,0:0:0:0:
192,192,59349,1,0,0:0:0:0:
320,192,59437,1,8,0:0:0:50:
448,192,59437,128,0,59613:0:0:0:0:
192,192,59613,128,0,59966:0:0:0:0:
320,192,59790,1,2,0:0:0:50:
64,192,59966,1,0,0:0:0:0:
448,192,60055,1,0,0:0:0:0:
192,192,60143,1,8,0:0:0:50:
320,192,60143,1,0,0:0:0:0:
64,192,60319,128,0,60672:0:0:0:0:
448,192,60496,1,2,0:0:0:50:
192,192,60672,1,0,0:0:0:0:
320,192,60760,1,0,0:0:0:0:
64,192,60849,1,8,0:0:0:50:
448,192,60849,1,0,0:0:0:0:
192,192,61025,1,0,0:0:0:0:
320,192,61202,128,2,61466:0:0:0:50:
448,192,61202,1,4,0:0:0:50:
64,192,61466,128,0,61731:0:0:0:0:
192,192,61555,1,8,0:0:0:50:
448,192,61555,1,0,0:0:0:0:
320,192,61731,1,0,0:0:0:0:
192,192,61907,128,2,62172:0:0:0:50:
64,192,61907,1,4,0:0:0:0:
448,192,62172,128,0,62437:0:0:0:0:
64,192,62260,1,8,0:0:0:50:
192,192,62260,1,0,0:0:0:0:
320,192,62437,128,0,62790:0:0:0:0:
192,192,62613,1,2,0:0:0:50:
64,192,62790,128,0,62966:0:0:0:0:
320,192,62966,1,8,0:0:0:50:
448,192,62966,128,0,63143:0:0:0:0:
192,192,63143,128,0,63319:0:0:0:0:
64,192,63319,1,2,0:0:0:50:
320,192,63319,128,0,63672:0:0:0:0:
448,192,63496,1,0,0:0:0:0:
64,192,63672,1,8,0:0:0:50:
192,192,63672,128,4,64025:0:0:0:50:
320,192,64025,128,4,64202:0:0:0:50:
448,192,64025,128,2,64202:0:0:0:50:
64,192,64202,1,0,0:0:0:0:
320,192,64378,128,8,64555:0:0:0:50:
448,192,64378,128,0,64555:0:0:0:0:
64,192,64555,1,0,0:0:0:0:
320,192,64731,128,2,64907:0:0:0:50:
448,192,64731,128,0,64907:0:0:0:0:
192,192,64907,1,0,0:0:0:0:
64,192,65084,1,8,0:0:0:50:
448,192,65084,1,0,0:0:0:0:
320,192,65260,128,0,65613:0:0:0:0:
448,192,65437,1,2,0:0:0:50:
64,192,65613,128,0,65966:0:0:0:0:
192,192,65702,1,0,0:0:0:0:
320,192,65790,1,8,0:0:0:50:
448,192,65790,1,0,0:0:0:0:
192,192,65966,1,0,0:0:0:0:
64,192,66143,1,2,0:0:0:50:
448,192,66143,128,0,66496:0:0:0:0:
320,192,66319,1,0,0:0:0:0:
192,192,66407,1,0,0:0:0:0:
64,192,66496,1,8,0:0:0:50:
320,192,66496,1,0,0:0:0:0:
448,192,66672,1,0,0:0:0:0:
64,192,66849,1,2,0:0:0:50:
320,192,66849,128,4,67113:0:0:0:50:
64,192,67113,128,0,67378:0:0:0:0:
320,192,67202,1,8,0:0:0:50:
448,192,67202,1,0,0:0:0:0:
192,192,67378,128,0,67731:0:0:0:0:
320,192,67555,1,2,0:0:0:50:
448,192,67555,1,4,0:0:0:50:
64,192,67731,1,0,0:0:0:0:
320,192,67819,1,0,0:0:0:0:
192,192,67907,1,8,0:0:0:50:
448,192,67907,1,0,0:0:0:0:
320,192,68084,128,0,68437:0:0:0:0:
64,192,68260,1,2,0:0:0:50:
448,192,68437,128,0,68613:0:0:0:0:
192,192,68613,128,8,68790:0:0:0:50:
320,192,68613,1,0,0:0:0:0:
64,192,68790,128,0,68966:0:0:0:0:
448,192,68966,1,2,0:0:0:50:
320,192,69055,1,8,0:0:0:50:
64,192,69143,1,0,0:0:0:50:Tom1.wav
192,192,69231,1,0,0:0:0:50:Tom1.wav
320,192,69319,1,2,0:0:0:50:
448,192,69407,1,0,0:0:0:50:Tom1.wav
192,192,69496,1,0,0:0:0:50:Tom2.wav
64,192,69584,1,0,0:0:0:50:Tom3.wav
320,192,69672,1,4,0:0:0:50:
448,192,69672,1,2,0:0:0:50:
64,192,70025,1,8,0:0:0:50:
320,192,70025,1,0,0:0:0:0:
192,192,70378,1,2,0:0:0:50:
64,192,70555,128,2,70907:0:0:0:50:
320,192,70731,1,8,0:0:0:50:
448,192,70731,1,0,0:0:0:0:
192,192,70907,128,0,71437:0:0:0:0:
320,192,71084,1,2,0:0:0:50:
448,192,71084,1,4,0:0:0:50:
64,192,71437,1,8,0:0:0:50:
320,192,71437,1,0,0:0:0:0:
320,192,71790,128,2,72143:0:0:0:50:
448,192,71790,1,0,0:0:0:0:
192,192,71966,1,2,0:0:0:50:
64,192,72143,1,8,0:0:0:50:
448,192,72143,1,0,0:0:0:0:
320,192,72319,1,2,0:0:0:50:
64,192,72496,128,2,72849:0:0:0:50:
448,192,72496,128,4,72849:0:0:0:50:
192,192,72849,128,8,73025:0:0:0:50:
64,192,73025,128,2,73378:0:0:0:50:
320,192,73025,128,4,73378:0:0:0:50:
448,192,73378,128,2,73555:0:0:0:50:
192,192,73555,1,8,0:0:0:50:
320,192,73555,1,0,0:0:0:0:
64,192,73731,128,4,74084:0:0:0:50:
448,192,73731,128,2,74084:0:0:0:50:
192,192,74084,1,2,0:0:0:50:
320,192,74084,1,8,0:0:0:50:
64,192,74260,1,2,0:0:0:50:
448,192,74260,1,8,0:0:0:50:
192,192,74437,1,2,0:0:0:50:
448,192,74613,1,8,0:0:0:50:
320,192,74702,1,8,0:0:0:50:
64,192,74790,1,8,0:0:0:50:
192,192,74878,1,8,0:0:0:50:
320,192,74966,1,8,0:0:0:50:
448,192,75055,1,0,0:0:0:50:Tom1.wav
192,192,75143,1,0,0:0:0:50:Tom2.wav
64,192,75231,1,0,0:0:0:50:Tom3.wav
320,192,75319,128,2,75584:0:0:0:50:
448,192,75319,1,4,0:0:0:50:
192,192,75584,128,0,75849:0:0:0:0:
448,192,75672,1,0,0:0:0:0:
64,192,75849,128,0,76025:0:0:0:0:
320,192,76025,128,2,76378:0:0:0:50:
448,192,76025,1,4,0:0:0:50:
192,192,76378,1,0,0:0:0:0:
448,192,76555,128,0,76731:0:0:0:0:
64,192,76731,1,4,0:0:0:50:
192,192,76731,128,2,76996:0:0:0:50:
320,192,76996,128,0,77260:0:0:0:0:
64,192,77084,1,0,0:0:0:0:
448,192,77260,1,0,0:0:0:0:
64,192,77437,1,8,0:0:0:50:
320,192,77437,1,0,0:0:0:0:
192,192,77525,1,0,0:0:0:0:
320,192,77613,1,2,0:0:0:50:
192,192,77790,1,8,0:0:0:50:
448,192,77790,1,0,0:0:0:0:
320,192,77878,1,0,0:0:0:0:
192,192,77966,1,2,0:0:0:50:
64,192,78143,128,4,79202:0:0:0:50:
448,192,78143,128,2,79555:0:0:0:50:
64,192,79555,1,2,0:0:0:50:
192,192,79555,1,0,0:0:0:0:
320,192,79643,1,8,0:0:0:50:
192,192,79819,1,8,0:0:0:50:
320,192,79907,1,8,0:0:0:50:
448,192,79907,1,2,0:0:0:50:
64,192,80084,1,8,0:0:0:50:
192,192,80084,1,0,0:0:0:0:
320,192,80260,1,2,0:0:0:50:
448,192,80260,1,8,0:0:0:50:
192,192,80437,1,0,0:0:0:50:Tom1.wav
64,192,80613,1,0,0:0:0:50:Tom1.wav
192,192,80702,1,0,0:0:0:50:Tom2.wav
448,192,80790,1,0,0:0:0:50:Tom3.wav
320,192,80878,1,0,0:0:0:50:Tom3.wav
64,192,80966,1,2,0:0:0:50:
192,192,80966,128,8,81143:0:0:0:50:
448,192,81143,1,0,0:0:0:0:
320,192,81231,1,0,0:0:0:0:
64,192,81319,128,2,81672:0:0:0:50:
192,192,81319,1,0,0:0:0:0:
320,192,81672,128,2,81849:0:0:0:50:
448,192,81672,1,0,0:0:0:0:
64,192,81849,1,0,0:0:0:0:
192,192,81937,1,0,0:0:0:0:
320,192,82025,1,2,0:0:0:50:
448,192,82025,128,0,82378:0:0:0:0:
64,192,82378,1,2,0:0:0:50:
192,192,82378,128,0,82555:0:0:0:0:
448,192,82555,1,0,0:0:0:0:
320,192,82643,1,0,0:0:0:0:
64,192,82731,128,2,82907:0:0:0:50:
192,192,82731,1,0,0:0:0:0:
320,192,82907,128,0,83084:0:0:0:0:
64,192,83084,128,2,83260:0:0:0:50:
192,192,83084,1,0,0:0:0:0:
448,192,83260,1,0,0:0:0:0:
192,192,83437,1,8,0:0:0:50:
320,192,83437,128,2,83790:0:0:0:50:
64,192,83790,128,4,83966:0:0:0:50:
192,192,83790,128,2,83966:0:0:0:50:
448,192,83966,1,0,0:0:0:0:
320,192,84055,1,0,0:0:0:0:
64,192,84143,1,2,0:0:0:50:
192,192,84143,128,0,84496:0:0:0:0:
320,192,84496,128,2,84672:0:0:0:50:
448,192,84496,128,4,84672:0:0:0:50:
64,192,84672,1,0,0:0:0:0:
192,192,84760,1,0,0:0:0:0:
320,192,84849,128,2,85202:0:0:0:50:
448,192,84849,1,0,0:0:0:0:
64,192,85202,1,2,0:0:0:50:
448,192,85202,1,4,0:0:0:50:
64,192,85378,1,8,0:0:0:50:
320,192,85378,1,0,0:0:0:0:
192,192,85466,1,8,0:0:0:50:
320,192,85555,1,8,0:0:0:50:
448,192,85555,1,2,0:0:0:50:
192,192,85731,1,8,0:0:0:50:
320,192,85907,1,8,0:0:0:50:
448,192,85907,1,0,0:0:0:50:Tom2.wav
64,192,86084,1,8,0:0:0:50:
192,192,86084,1,0,0:0:0:50:Tom2.wav
320,192,86260,128,2,86613:0:0:0:50:
448,192,86260,128,4,86613:0:0:0:50:
