osu file format v14

[General]
AudioFilename: CG901B.mp3
AudioLeadIn: 0
PreviewTime: -1
Countdown: 0
SampleSet: None
StackLeniency: 0.7
Mode: 3
LetterboxInBreaks: 0
SpecialStyle: 0
WidescreenStoryboard: 0

[Editor]
DistanceSpacing: 0.8
BeatDivisor: 4
GridSize: 32
TimelineZoom: 1.7

[Metadata]
Title:CG901B
TitleUnicode:CG901B
Artist:Sisato with Na+
ArtistUnicode:美里 with Na+
Creator:[Crz]Rachel
Version:Impossible
Source:
Tags:
BeatmapID:1889340
BeatmapSetID:905211

[Difficulty]
HPDrainRate:8
CircleSize:4
OverallDifficulty:8
ApproachRate:5
SliderMultiplier:1.4
SliderTickRate:1

[Events]
//Background and Video events
0,0,"bg.jpg",0,0
//Break Periods
//Storyboard Layer 0 (Background)
//Storyboard Layer 1 (Fail)
//Storyboard Layer 2 (Pass)
//Storyboard Layer 3 (Foreground)
//Storyboard Sound Samples

[TimingPoints]
-17,444.11545,4,2,0,0,1,0

[HitObjects]
64,192,1759,5,0,0:0:0:0:
192,192,1759,1,0,0:0:0:0:
320,192,1759,1,0,0:0:0:0:
448,192,1759,1,0,0:0:0:0:
192,192,1870,1,0,0:0:0:0:
64,192,1870,1,0,0:0:0:0:
64,192,1981,1,0,0:0:0:0:
320,192,1981,1,0,0:0:0:0:
448,192,1981,1,0,0:0:0:0:
192,192,1982,1,0,0:0:0:0:
192,192,2092,1,0,0:0:0:0:
320,192,2092,1,0,0:0:0:0:
64,192,2204,1,0,0:0:0:0:
192,192,2204,1,0,0:0:0:0:
320,192,2204,1,0,0:0:0:0:
448,192,2204,1,0,0:0:0:0:
320,192,2314,1,0,0:0:0:0:
448,192,2314,1,0,0:0:0:0:
448,192,2425,1,0,0:0:0:0:
192,192,2425,1,0,0:0:0:0:
64,192,2425,1,0,0:0:0:0:
320,192,2426,1,0,0:0:0:0:
64,192,2536,1,0,0:0:0:0:
192,192,2536,1,0,0:0:0:0:
448,192,2536,1,0,0:0:0:0:
64,192,2647,1,0,0:0:0:0:
192,192,2648,1,0,0:0:0:0:
320,192,2648,1,0,0:0:0:0:
448,192,2648,1,0,0:0:0:0:
320,192,2758,1,0,0:0:0:0:
448,192,2758,1,0,0:0:0:0:
64,192,2869,1,0,0:0:0:0:
192,192,2869,1,0,0:0:0:0:
320,192,2869,1,0,0:0:0:0:
448,192,2980,1,0,0:0:0:0:
192,192,2981,1,0,0:0:0:0:
320,192,2981,1,0,0:0:0:0:
192,192,3091,1,0,0:0:0:0:
320,192,3091,1,0,0:0:0:0:
64,192,3092,1,0,0:0:0:0:
448,192,3092,1,0,0:0:0:0:
448,192,3202,1,0,0:0:0:0:
320,192,3202,1,0,0:0:0:0:
192,192,3313,1,0,0:0:0:0:
448,192,3313,1,0,0:0:0:0:
64,192,3314,1,0,0:0:0:0:
448,192,3424,1,0,0:0:0:0:
320,192,3424,1,0,0:0:0:0:
192,192,3424,1,0,0:0:0:0:
64,192,3535,1,0,0:0:0:0:
448,192,3535,1,0,0:0:0:0:
320,192,3535,1,0,0:0:0:0:
192,192,3536,1,0,0:0:0:0:
192,192,3646,1,0,0:0:0:0:
64,192,3646,1,0,0:0:0:0:
448,192,3757,1,0,0:0:0:0:
320,192,3757,1,0,0:0:0:0:
64,192,3869,1,0,0:0:0:0:
448,192,3869,1,0,0:0:0:0:
320,192,3869,1,0,0:0:0:0:
192,192,3869,1,0,0:0:0:0:
320,192,3980,1,0,0:0:0:0:
448,192,3980,1,0,0:0:0:0:
192,192,3980,1,0,0:0:0:0:
64,192,3980,1,0,0:0:0:0:
320,192,4091,1,0,0:0:0:0:
192,192,4091,1,0,0:0:0:0:
64,192,4202,1,0,0:0:0:0:
448,192,4202,1,0,0:0:0:0:
320,192,4202,1,0,0:0:0:0:
192,192,4202,1,0,0:0:0:0:
320,192,4313,1,0,0:0:0:0:
448,192,4313,1,0,0:0:0:0:
64,192,4424,1,0,0:0:0:0:
192,192,4424,1,0,0:0:0:0:
320,192,4424,1,0,0:0:0:0:
448,192,4424,1,0,0:0:0:0:
64,192,4535,1,0,0:0:0:0:
192,192,4535,1,0,0:0:0:0:
192,192,4646,1,0,0:0:0:0:
320,192,4646,1,0,0:0:0:0:
448,192,4646,1,0,0:0:0:0:
64,192,4646,1,0,0:0:0:0:
320,192,4757,1,0,0:0:0:0:
64,192,4757,1,0,0:0:0:0:
64,192,4868,1,0,0:0:0:0:
192,192,4868,1,0,0:0:0:0:
448,192,4868,1,0,0:0:0:0:
320,192,4868,1,0,0:0:0:0:
448,192,4979,1,0,0:0:0:0:
192,192,4979,1,0,0:0:0:0:
64,192,5090,1,0,0:0:0:0:
192,192,5090,1,0,0:0:0:0:
320,192,5090,1,0,0:0:0:0:
448,192,5090,1,0,0:0:0:0:
320,192,5201,1,0,0:0:0:0:
448,192,5201,1,0,0:0:0:0:
192,192,5201,1,0,0:0:0:0:
64,192,5201,1,0,0:0:0:0:
64,192,5312,1,0,0:0:0:0:
320,192,5312,1,0,0:0:0:0:
448,192,5312,1,0,0:0:0:0:
192,192,5312,1,0,0:0:0:0:
64,192,5423,1,0,0:0:0:0:
192,192,5423,1,0,0:0:0:0:
192,192,5534,1,0,0:0:0:0:
448,192,5534,1,0,0:0:0:0:
320,192,5534,1,0,0:0:0:0:
64,192,5534,1,0,0:0:0:0:
320,192,5645,1,0,0:0:0:0:
448,192,5645,1,0,0:0:0:0:
192,192,5756,1,0,0:0:0:0:
320,192,5756,1,0,0:0:0:0:
448,192,5756,1,0,0:0:0:0:
64,192,5757,1,0,0:0:0:0:
192,192,5867,1,0,0:0:0:0:
320,192,5868,1,0,0:0:0:0:
192,192,5978,1,0,0:0:0:0:
448,192,5978,1,0,0:0:0:0:
64,192,5979,1,0,0:0:0:0:
320,192,6089,1,0,0:0:0:0:
64,192,6089,1,0,0:0:0:0:
448,192,6200,1,0,0:0:0:0:
192,192,6200,1,0,0:0:0:0:
64,192,6201,1,0,0:0:0:0:
320,192,6201,1,0,0:0:0:0:
448,192,6311,1,0,0:0:0:0:
320,192,6311,1,0,0:0:0:0:
320,192,6422,1,0,0:0:0:0:
192,192,6422,1,0,0:0:0:0:
448,192,6422,1,0,0:0:0:0:
64,192,6422,1,0,0:0:0:0:
192,192,6533,1,0,0:0:0:0:
320,192,6533,1,0,0:0:0:0:
320,192,6644,1,0,0:0:0:0:
448,192,6644,1,0,0:0:0:0:
64,192,6644,1,0,0:0:0:0:
192,192,6645,1,0,0:0:0:0:
64,192,6755,1,0,0:0:0:0:
192,192,6755,1,0,0:0:0:0:
64,192,6867,1,0,0:0:0:0:
192,192,6867,1,0,0:0:0:0:
320,192,6867,1,0,0:0:0:0:
448,192,6867,1,0,0:0:0:0:
320,192,6977,1,0,0:0:0:0:
192,192,6977,1,0,0:0:0:0:
448,192,6977,1,0,0:0:0:0:
64,192,7088,1,0,0:0:0:0:
192,192,7088,1,0,0:0:0:0:
320,192,7089,1,0,0:0:0:0:
448,192,7089,1,0,0:0:0:0:
64,192,7199,1,0,0:0:0:0:
448,192,7199,1,0,0:0:0:0:
192,192,7310,1,0,0:0:0:0:
64,192,7311,1,0,0:0:0:0:
320,192,7311,1,0,0:0:0:0:
320,192,7421,1,0,0:0:0:0:
448,192,7421,1,0,0:0:0:0:
192,192,7422,1,0,0:0:0:0:
64,192,7532,1,0,0:0:0:0:
192,192,7532,1,0,0:0:0:0:
448,192,7643,1,0,0:0:0:0:
64,192,7644,1,0,0:0:0:0:
320,192,7644,1,0,0:0:0:0:
64,192,7755,1,0,0:0:0:0:
192,192,7755,1,0,0:0:0:0:
448,192,7755,1,0,0:0:0:0:
192,192,7866,1,0,0:0:0:0:
320,192,7866,1,0,0:0:0:0:
64,192,7977,1,0,0:0:0:0:
320,192,7977,1,0,0:0:0:0:
448,192,7977,1,0,0:0:0:0:
64,192,8088,1,0,0:0:0:0:
192,192,8088,1,0,0:0:0:0:
448,192,8088,1,0,0:0:0:0:
192,192,8199,1,0,0:0:0:0:
448,192,8199,1,0,0:0:0:0:
320,192,8199,1,0,0:0:0:0:
64,192,8310,1,0,0:0:0:0:
192,192,8310,1,0,0:0:0:0:
320,192,8310,1,0,0:0:0:0:
448,192,8310,1,0,0:0:0:0:
64,192,8421,1,0,0:0:0:0:
320,192,8421,1,0,0:0:0:0:
448,192,8421,1,0,0:0:0:0:
192,192,8532,1,0,0:0:0:0:
64,192,8532,1,0,0:0:0:0:
448,192,8532,1,0,0:0:0:0:
64,192,8643,1,0,0:0:0:0:
192,192,8643,1,0,0:0:0:0:
320,192,8643,1,0,0:0:0:0:
448,192,8643,1,0,0:0:0:0:
320,192,8754,1,0,0:0:0:0:
448,192,8754,1,0,0:0:0:0:
64,192,8754,1,0,0:0:0:0:
64,192,8865,1,0,0:0:0:0:
192,192,8865,1,0,0:0:0:0:
320,192,8865,1,0,0:0:0:0:
448,192,8865,1,0,0:0:0:0:
320,192,8976,1,0,0:0:0:0:
192,192,9087,1,0,0:0:0:0:
448,192,9087,1,0,0:0:0:0:
64,192,9198,1,0,0:0:0:0:
64,192,9309,1,0,0:0:0:0:
192,192,9309,1,0,0:0:0:0:
320,192,9309,1,0,0:0:0:0:
448,192,9309,1,0,0:0:0:0:
320,192,9420,1,0,0:0:0:0:
64,192,9420,1,0,0:0:0:0:
192,192,9531,1,0,0:0:0:0:
320,192,9531,1,0,0:0:0:0:
448,192,9531,1,0,0:0:0:0:
448,192,9642,1,0,0:0:0:0:
64,192,9643,1,0,0:0:0:0:
192,192,9643,1,0,0:0:0:0:
448,192,9753,1,0,0:0:0:0:
64,192,9754,1,0,0:0:0:0:
320,192,9754,1,0,0:0:0:0:
192,192,9865,1,0,0:0:0:0:
64,192,9975,1,0,0:0:0:0:
448,192,9976,1,0,0:0:0:0:
320,192,10087,1,0,0:0:0:0:
64,192,10198,1,0,0:0:0:0:
192,192,10198,1,0,0:0:0:0:
448,192,10198,1,0,0:0:0:0:
192,192,10309,1,0,0:0:0:0:
64,192,10420,1,0,0:0:0:0:
448,192,10420,1,0,0:0:0:0:
320,192,10531,1,0,0:0:0:0:
64,192,10642,1,0,0:0:0:0:
192,192,10642,1,0,0:0:0:0:
448,192,10642,1,0,0:0:0:0:
64,192,10753,1,0,0:0:0:0:
192,192,10864,1,0,0:0:0:0:
320,192,10864,1,0,0:0:0:0:
448,192,10975,1,0,0:0:0:0:
64,192,11086,1,0,0:0:0:0:
192,192,11086,1,0,0:0:0:0:
320,192,11086,1,0,0:0:0:0:
448,192,11086,1,0,0:0:0:0:
448,192,11197,1,0,0:0:0:0:
64,192,11308,1,0,0:0:0:0:
192,192,11308,1,0,0:0:0:0:
320,192,11308,1,0,0:0:0:0:
448,192,11418,1,0,0:0:0:0:
192,192,11419,1,0,0:0:0:0:
320,192,11419,1,0,0:0:0:0:
64,192,11530,1,0,0:0:0:0:
448,192,11530,1,0,0:0:0:0:
192,192,11530,1,0,0:0:0:0:
320,192,11641,1,0,0:0:0:0:
64,192,11752,1,0,0:0:0:0:
192,192,11752,1,0,0:0:0:0:
320,192,11863,1,0,0:0:0:0:
64,192,11974,1,0,0:0:0:0:
320,192,11974,1,0,0:0:0:0:
448,192,11974,1,0,0:0:0:0:
192,192,12085,1,0,0:0:0:0:
64,192,12196,1,0,0:0:0:0:
448,192,12196,1,0,0:0:0:0:
320,192,12307,1,0,0:0:0:0:
64,192,12418,1,0,0:0:0:0:
192,192,12418,1,0,0:0:0:0:
448,192,12418,1,0,0:0:0:0:
320,192,12418,1,0,0:0:0:0:
64,192,12529,1,0,0:0:0:0:
192,192,12640,1,0,0:0:0:0:
448,192,12640,1,0,0:0:0:0:
320,192,12751,1,0,0:0:0:0:
64,192,12862,1,0,0:0:0:0:
192,192,12862,1,0,0:0:0:0:
320,192,12862,1,0,0:0:0:0:
448,192,12862,1,0,0:0:0:0:
192,192,12973,1,0,0:0:0:0:
64,192,13084,1,0,0:0:0:0:
448,192,13084,1,0,0:0:0:0:
320,192,13084,1,0,0:0:0:0:
320,192,13195,1,0,0:0:0:0:
192,192,13195,1,0,0:0:0:0:
320,192,13306,1,0,0:0:0:0:
192,192,13306,1,0,0:0:0:0:
448,192,13306,1,0,0:0:0:0:
64,192,13306,1,0,0:0:0:0:
192,192,13417,1,0,0:0:0:0:
64,192,13528,1,0,0:0:0:0:
448,192,13529,1,0,0:0:0:0:
320,192,13639,1,0,0:0:0:0:
64,192,13751,1,0,0:0:0:0:
320,192,13751,1,0,0:0:0:0:
448,192,13751,1,0,0:0:0:0:
192,192,13862,1,0,0:0:0:0:
64,192,13973,1,0,0:0:0:0:
320,192,13973,1,0,0:0:0:0:
448,192,14084,1,0,0:0:0:0:
320,192,14194,1,0,0:0:0:0:
64,192,14195,1,0,0:0:0:0:
192,192,14195,1,0,0:0:0:0:
448,192,14195,1,0,0:0:0:0:
320,192,14306,1,0,0:0:0:0:
64,192,14417,1,0,0:0:0:0:
192,192,14417,1,0,0:0:0:0:
448,192,14528,1,0,0:0:0:0:
64,192,14639,1,0,0:0:0:0:
192,192,14639,1,0,0:0:0:0:
320,192,14639,1,0,0:0:0:0:
448,192,14639,1,0,0:0:0:0:
192,192,14750,1,0,0:0:0:0:
64,192,14861,1,0,0:0:0:0:
320,192,14861,1,0,0:0:0:0:
320,192,14971,1,0,0:0:0:0:
192,192,14971,1,0,0:0:0:0:
448,192,14972,1,0,0:0:0:0:
448,192,15082,1,0,0:0:0:0:
64,192,15083,1,0,0:0:0:0:
192,192,15083,1,0,0:0:0:0:
320,192,15193,1,0,0:0:0:0:
448,192,15304,1,0,0:0:0:0:
192,192,15305,1,0,0:0:0:0:
64,192,15416,1,0,0:0:0:0:
64,192,15527,1,0,0:0:0:0:
192,192,15527,1,0,0:0:0:0:
448,192,15527,1,0,0:0:0:0:
320,192,15638,1,0,0:0:0:0:
64,192,15749,1,0,0:0:0:0:
192,192,15749,1,0,0:0:0:0:
448,192,15860,1,0,0:0:0:0:
192,192,15971,1,0,0:0:0:0:
320,192,15971,1,0,0:0:0:0:
448,192,15971,1,0,0:0:0:0:
64,192,15971,1,0,0:0:0:0:
320,192,16082,1,0,0:0:0:0:
64,192,16193,1,0,0:0:0:0:
192,192,16193,1,0,0:0:0:0:
192,192,16304,1,0,0:0:0:0:
64,192,16415,1,0,0:0:0:0:
192,192,16415,1,0,0:0:0:0:
320,192,16415,1,0,0:0:0:0:
448,192,16415,1,0,0:0:0:0:
320,192,16526,1,0,0:0:0:0:
64,192,16637,1,0,0:0:0:0:
192,192,16637,1,0,0:0:0:0:
448,192,16637,1,0,0:0:0:0:
320,192,16748,1,0,0:0:0:0:
192,192,16748,1,0,0:0:0:0:
64,192,16748,1,0,0:0:0:0:
64,192,16859,1,0,0:0:0:0:
320,192,16859,1,0,0:0:0:0:
448,192,16859,1,0,0:0:0:0:
192,192,16970,1,0,0:0:0:0:
64,192,17081,1,0,0:0:0:0:
448,192,17081,1,0,0:0:0:0:
320,192,17192,1,0,0:0:0:0:
64,192,17304,1,0,0:0:0:0:
192,192,17304,1,0,0:0:0:0:
448,192,17304,1,0,0:0:0:0:
192,192,17415,1,0,0:0:0:0:
64,192,17526,1,0,0:0:0:0:
320,192,17526,1,0,0:0:0:0:
448,192,17636,1,0,0:0:0:0:
320,192,17747,1,0,0:0:0:0:
64,192,17748,1,0,0:0:0:0:
192,192,17748,1,0,0:0:0:0:
448,192,17748,1,0,0:0:0:0:
320,192,17859,1,0,0:0:0:0:
64,192,17970,1,0,0:0:0:0:
192,192,17970,1,0,0:0:0:0:
192,192,18081,1,0,0:0:0:0:
64,192,18192,1,0,0:0:0:0:
192,192,18192,1,0,0:0:0:0:
320,192,18192,1,0,0:0:0:0:
448,192,18192,1,0,0:0:0:0:
64,192,18303,1,0,0:0:0:0:
192,192,18414,1,0,0:0:0:0:
320,192,18414,1,0,0:0:0:0:
448,192,18414,1,0,0:0:0:0:
448,192,18524,1,0,0:0:0:0:
320,192,18524,1,0,0:0:0:0:
64,192,18524,1,0,0:0:0:0:
192,192,18635,1,0,0:0:0:0:
64,192,18635,1,0,0:0:0:0:
448,192,18635,1,0,0:0:0:0:
192,192,18747,1,0,0:0:0:0:
64,192,18857,1,0,0:0:0:0:
320,192,18858,1,0,0:0:0:0:
448,192,18968,1,0,0:0:0:0:
192,192,19079,1,0,0:0:0:0:
320,192,19080,1,0,0:0:0:0:
448,192,19080,1,0,0:0:0:0:
192,192,19190,1,0,0:0:0:0:
64,192,19302,1,0,0:0:0:0:
320,192,19302,1,0,0:0:0:0:
320,192,19413,1,0,0:0:0:0:
64,192,19524,1,0,0:0:0:0:
192,192,19524,1,0,0:0:0:0:
448,192,19524,1,0,0:0:0:0:
320,192,19635,1,0,0:0:0:0:
64,192,19746,1,0,0:0:0:0:
192,192,19746,1,0,0:0:0:0:
320,192,19857,1,0,0:0:0:0:
64,192,19968,1,0,0:0:0:0:
192,192,19968,1,0,0:0:0:0:
320,192,19968,1,0,0:0:0:0:
448,192,19968,1,0,0:0:0:0:
64,192,20079,1,0,0:0:0:0:
192,192,20190,1,0,0:0:0:0:
320,192,20190,1,0,0:0:0:0:
448,192,20190,1,0,0:0:0:0:
192,192,20301,1,0,0:0:0:0:
448,192,20301,1,0,0:0:0:0:
64,192,20301,1,0,0:0:0:0:
64,192,20412,1,0,0:0:0:0:
448,192,20412,1,0,0:0:0:0:
192,192,20412,1,0,0:0:0:0:
320,192,20523,1,0,0:0:0:0:
192,192,20634,1,0,0:0:0:0:
64,192,20634,1,0,0:0:0:0:
448,192,20745,1,0,0:0:0:0:
64,192,20856,1,0,0:0:0:0:
192,192,20856,1,0,0:0:0:0:
320,192,20856,1,0,0:0:0:0:
320,192,20967,1,0,0:0:0:0:
192,192,21078,1,0,0:0:0:0:
448,192,21078,1,0,0:0:0:0:
192,192,21190,1,0,0:0:0:0:
192,192,21300,1,0,0:0:0:0:
64,192,21301,1,0,0:0:0:0:
320,192,21301,1,0,0:0:0:0:
448,192,21301,1,0,0:0:0:0:
448,192,21411,1,0,0:0:0:0:
192,192,21523,1,0,0:0:0:0:
320,192,21523,1,0,0:0:0:0:
64,192,21634,1,0,0:0:0:0:
64,192,21745,1,0,0:0:0:0:
192,192,21745,1,0,0:0:0:0:
320,192,21745,1,0,0:0:0:0:
448,192,21745,1,0,0:0:0:0:
192,192,21856,1,0,0:0:0:0:
320,192,21967,1,0,0:0:0:0:
448,192,21967,1,0,0:0:0:0:
64,192,22077,1,0,0:0:0:0:
64,192,22189,1,0,0:0:0:0:
192,192,22189,1,0,0:0:0:0:
320,192,22189,1,0,0:0:0:0:
448,192,22189,1,0,0:0:0:0:
64,192,22300,1,0,0:0:0:0:
320,192,22300,1,0,0:0:0:0:
192,192,22411,1,0,0:0:0:0:
320,192,22411,1,0,0:0:0:0:
448,192,22411,1,0,0:0:0:0:
64,192,22522,1,0,0:0:0:0:
192,192,22522,1,0,0:0:0:0:
320,192,22522,1,0,0:0:0:0:
448,192,22522,1,0,0:0:0:0:
64,192,22633,1,0,0:0:0:0:
192,192,22633,1,0,0:0:0:0:
448,192,22633,1,0,0:0:0:0:
64,192,22744,1,0,0:0:0:0:
320,192,22744,1,0,0:0:0:0:
64,192,22855,1,0,0:0:0:0:
192,192,22855,1,0,0:0:0:0:
320,192,22855,1,0,0:0:0:0:
448,192,22855,1,0,0:0:0:0:
192,192,22966,1,0,0:0:0:0:
320,192,22966,1,0,0:0:0:0:
64,192,23077,1,0,0:0:0:0:
320,192,23077,1,0,0:0:0:0:
448,192,23077,1,0,0:0:0:0:
192,192,23077,1,0,0:0:0:0:
448,192,23188,1,0,0:0:0:0:
448,192,23299,1,0,0:0:0:0:
448,192,23410,1,0,0:0:0:0:
64,192,23521,1,0,0:0:0:0:
448,192,23521,1,0,0:0:0:0:
192,192,23521,1,0,0:0:0:0:
448,192,23632,1,0,0:0:0:0:
448,192,23743,1,0,0:0:0:0:
64,192,23854,1,0,0:0:0:0:
448,192,23854,1,0,0:0:0:0:
320,192,23965,1,0,0:0:0:0:
448,192,23965,1,0,0:0:0:0:
448,192,24076,1,0,0:0:0:0:
192,192,24187,1,0,0:0:0:0:
448,192,24187,1,0,0:0:0:0:
448,192,24298,1,0,0:0:0:0:
448,192,24409,1,0,0:0:0:0:
64,192,24409,1,0,0:0:0:0:
320,192,24409,1,0,0:0:0:0:
448,192,24520,1,0,0:0:0:0:
448,192,24631,1,0,0:0:0:0:
448,192,24742,1,0,0:0:0:0:
64,192,24853,1,0,0:0:0:0:
192,192,24853,1,0,0:0:0:0:
448,192,24853,1,0,0:0:0:0:
448,192,24964,1,0,0:0:0:0:
448,192,25075,1,0,0:0:0:0:
448,192,25186,1,0,0:0:0:0:
320,192,25187,1,0,0:0:0:0:
448,192,25297,1,0,0:0:0:0:
448,192,25408,1,0,0:0:0:0:
448,192,25519,1,0,0:0:0:0:
192,192,25520,1,0,0:0:0:0:
448,192,25630,1,0,0:0:0:0:
448,192,25741,1,0,0:0:0:0:
64,192,25742,1,0,0:0:0:0:
448,192,25852,1,0,0:0:0:0:
320,192,25853,1,0,0:0:0:0:
448,192,25963,1,0,0:0:0:0:
192,192,25963,1,0,0:0:0:0:
448,192,26074,1,0,0:0:0:0:
192,192,26185,1,0,0:0:0:0:
64,192,26185,1,0,0:0:0:0:
448,192,26186,1,0,0:0:0:0:
448,192,26296,1,0,0:0:0:0:
448,192,26407,1,0,0:0:0:0:
448,192,26518,1,0,0:0:0:0:
64,192,26630,1,0,0:0:0:0:
320,192,26630,1,0,0:0:0:0:
448,192,26630,1,0,0:0:0:0:
64,192,26740,1,0,0:0:0:0:
64,192,26851,1,0,0:0:0:0:
64,192,26963,1,0,0:0:0:0:
320,192,27074,1,0,0:0:0:0:
448,192,27074,1,0,0:0:0:0:
64,192,27074,1,0,0:0:0:0:
64,192,27185,1,0,0:0:0:0:
64,192,27296,1,0,0:0:0:0:
192,192,27407,1,0,0:0:0:0:
448,192,27407,1,0,0:0:0:0:
64,192,27407,1,0,0:0:0:0:
320,192,27518,1,0,0:0:0:0:
64,192,27518,1,0,0:0:0:0:
64,192,27629,1,0,0:0:0:0:
320,192,27740,1,0,0:0:0:0:
448,192,27740,1,0,0:0:0:0:
64,192,27740,1,0,0:0:0:0:
64,192,27851,1,0,0:0:0:0:
448,192,27962,1,0,0:0:0:0:
64,192,27962,1,0,0:0:0:0:
192,192,27962,1,0,0:0:0:0:
64,192,28073,1,0,0:0:0:0:
64,192,28184,1,0,0:0:0:0:
64,192,28295,1,0,0:0:0:0:
320,192,28406,1,0,0:0:0:0:
64,192,28406,1,0,0:0:0:0:
64,192,28517,1,0,0:0:0:0:
64,192,28628,1,0,0:0:0:0:
64,192,28739,1,0,0:0:0:0:
448,192,28850,1,0,0:0:0:0:
64,192,28850,1,0,0:0:0:0:
320,192,28850,1,0,0:0:0:0:
64,192,28961,1,0,0:0:0:0:
64,192,29072,1,0,0:0:0:0:
64,192,29183,1,0,0:0:0:0:
192,192,29294,1,0,0:0:0:0:
64,192,29295,1,0,0:0:0:0:
64,192,29405,1,0,0:0:0:0:
320,192,29516,1,0,0:0:0:0:
64,192,29517,1,0,0:0:0:0:
448,192,29517,1,0,0:0:0:0:
64,192,29627,1,0,0:0:0:0:
64,192,29738,1,0,0:0:0:0:
192,192,29738,1,0,0:0:0:0:
448,192,29739,1,0,0:0:0:0:
64,192,29849,1,0,0:0:0:0:
64,192,29960,1,0,0:0:0:0:
448,192,29960,1,0,0:0:0:0:
64,192,30071,1,0,0:0:0:0:
448,192,30071,1,0,0:0:0:0:
320,192,30182,1,0,0:0:0:0:
64,192,30183,1,0,0:0:0:0:
192,192,30183,1,0,0:0:0:0:
320,192,30293,1,0,0:0:0:0:
320,192,30404,1,0,0:0:0:0:
320,192,30516,1,0,0:0:0:0:
320,192,30626,1,0,0:0:0:0:
64,192,30627,1,0,0:0:0:0:
448,192,30627,1,0,0:0:0:0:
320,192,30737,1,0,0:0:0:0:
192,192,30849,1,0,0:0:0:0:
320,192,30849,1,0,0:0:0:0:
320,192,30960,1,0,0:0:0:0:
448,192,30960,1,0,0:0:0:0:
64,192,31071,1,0,0:0:0:0:
320,192,31071,1,0,0:0:0:0:
192,192,31182,1,0,0:0:0:0:
320,192,31182,1,0,0:0:0:0:
64,192,31293,1,0,0:0:0:0:
448,192,31293,1,0,0:0:0:0:
320,192,31293,1,0,0:0:0:0:
320,192,31404,1,0,0:0:0:0:
448,192,31515,1,0,0:0:0:0:
320,192,31515,1,0,0:0:0:0:
320,192,31626,1,0,0:0:0:0:
192,192,31737,1,0,0:0:0:0:
320,192,31737,1,0,0:0:0:0:
320,192,31848,1,0,0:0:0:0:
64,192,31959,1,0,0:0:0:0:
320,192,31959,1,0,0:0:0:0:
448,192,31959,1,0,0:0:0:0:
320,192,32070,1,0,0:0:0:0:
320,192,32181,1,0,0:0:0:0:
320,192,32292,1,0,0:0:0:0:
192,192,32403,1,0,0:0:0:0:
320,192,32403,1,0,0:0:0:0:
320,192,32514,1,0,0:0:0:0:
64,192,32625,1,0,0:0:0:0:
320,192,32625,1,0,0:0:0:0:
320,192,32736,1,0,0:0:0:0:
320,192,32848,1,0,0:0:0:0:
320,192,32958,1,0,0:0:0:0:
192,192,32959,1,0,0:0:0:0:
320,192,33070,1,0,0:0:0:0:
320,192,33180,1,0,0:0:0:0:
320,192,33291,1,0,0:0:0:0:
448,192,33292,1,0,0:0:0:0:
320,192,33402,1,0,0:0:0:0:
320,192,33513,1,0,0:0:0:0:
64,192,33513,1,0,0:0:0:0:
320,192,33624,1,0,0:0:0:0:
64,192,33624,1,0,0:0:0:0:
192,192,33735,1,0,0:0:0:0:
448,192,33735,1,0,0:0:0:0:
64,192,33736,1,0,0:0:0:0:
320,192,33736,1,0,0:0:0:0:
192,192,33846,1,0,0:0:0:0:
192,192,33957,1,0,0:0:0:0:
192,192,34068,1,0,0:0:0:0:
192,192,34179,1,0,0:0:0:0:
320,192,34179,1,0,0:0:0:0:
448,192,34180,1,0,0:0:0:0:
192,192,34290,1,0,0:0:0:0:
192,192,34401,1,0,0:0:0:0:
192,192,34513,1,0,0:0:0:0:
448,192,34513,1,0,0:0:0:0:
320,192,34624,1,0,0:0:0:0:
192,192,34624,1,0,0:0:0:0:
192,192,34735,1,0,0:0:0:0:
320,192,34846,1,0,0:0:0:0:
448,192,34846,1,0,0:0:0:0:
192,192,34846,1,0,0:0:0:0:
192,192,34957,1,0,0:0:0:0:
448,192,35068,1,0,0:0:0:0:
192,192,35068,1,0,0:0:0:0:
64,192,35068,1,0,0:0:0:0:
192,192,35179,1,0,0:0:0:0:
448,192,35290,1,0,0:0:0:0:
192,192,35290,1,0,0:0:0:0:
448,192,35401,1,0,0:0:0:0:
192,192,35401,1,0,0:0:0:0:
64,192,35512,1,0,0:0:0:0:
320,192,35512,1,0,0:0:0:0:
448,192,35512,1,0,0:0:0:0:
64,192,35623,1,0,0:0:0:0:
192,192,35623,1,0,0:0:0:0:
320,192,35623,1,0,0:0:0:0:
192,192,35734,1,0,0:0:0:0:
64,192,35734,1,0,0:0:0:0:
448,192,35734,1,0,0:0:0:0:
192,192,35845,1,0,0:0:0:0:
64,192,35845,1,0,0:0:0:0:
320,192,35845,1,0,0:0:0:0:
320,192,35956,1,0,0:0:0:0:
192,192,35956,1,0,0:0:0:0:
448,192,35956,1,0,0:0:0:0:
64,192,35956,1,0,0:0:0:0:
320,192,36067,1,0,0:0:0:0:
64,192,36067,1,0,0:0:0:0:
448,192,36067,1,0,0:0:0:0:
320,192,36178,1,0,0:0:0:0:
192,192,36178,1,0,0:0:0:0:
64,192,36178,1,0,0:0:0:0:
192,192,36289,1,0,0:0:0:0:
320,192,36289,1,0,0:0:0:0:
448,192,36289,1,0,0:0:0:0:
64,192,36400,1,0,0:0:0:0:
320,192,36400,1,0,0:0:0:0:
448,192,36400,1,0,0:0:0:0:
192,192,36400,1,0,0:0:0:0:
192,192,36511,1,0,0:0:0:0:
64,192,36511,1,0,0:0:0:0:
448,192,36511,1,0,0:0:0:0:
192,192,36622,1,0,0:0:0:0:
448,192,36622,1,0,0:0:0:0:
320,192,36623,1,0,0:0:0:0:
64,192,36733,1,0,0:0:0:0:
448,192,36733,1,0,0:0:0:0:
192,192,36734,1,0,0:0:0:0:
192,192,36844,1,0,0:0:0:0:
64,192,36845,1,0,0:0:0:0:
320,192,36845,1,0,0:0:0:0:
448,192,36845,1,0,0:0:0:0:
320,192,36955,1,0,0:0:0:0:
448,192,36955,1,0,0:0:0:0:
192,192,36956,1,0,0:0:0:0:
192,192,37066,1,0,0:0:0:0:
64,192,37067,1,0,0:0:0:0:
448,192,37067,1,0,0:0:0:0:
64,192,37177,1,0,0:0:0:0:
448,192,37177,1,0,0:0:0:0:
320,192,37178,1,0,0:0:0:0:
320,192,37288,1,0,0:0:0:0:
64,192,37289,1,0,0:0:0:0:
192,192,37289,1,0,0:0:0:0:
448,192,37289,1,0,0:0:0:0:
64,192,37399,1,0,0:0:0:0:
64,192,37510,1,0,0:0:0:0:
192,192,37511,1,0,0:0:0:0:
64,192,37621,1,0,0:0:0:0:
64,192,37732,1,0,0:0:0:0:
448,192,37732,1,0,0:0:0:0:
64,192,37843,1,0,0:0:0:0:
64,192,37954,1,0,0:0:0:0:
192,192,37955,1,0,0:0:0:0:
64,192,38065,1,0,0:0:0:0:
64,192,38176,1,0,0:0:0:0:
320,192,38177,1,0,0:0:0:0:
64,192,38287,1,0,0:0:0:0:
64,192,38398,1,0,0:0:0:0:
192,192,38399,1,0,0:0:0:0:
64,192,38510,1,0,0:0:0:0:
64,192,38621,1,0,0:0:0:0:
448,192,38621,1,0,0:0:0:0:
64,192,38732,1,0,0:0:0:0:
192,192,38843,1,0,0:0:0:0:
64,192,38843,1,0,0:0:0:0:
64,192,38954,1,0,0:0:0:0:
320,192,39065,1,0,0:0:0:0:
448,192,39065,1,0,0:0:0:0:
64,192,39065,1,0,0:0:0:0:
448,192,39176,1,0,0:0:0:0:
320,192,39287,1,0,0:0:0:0:
448,192,39287,1,0,0:0:0:0:
448,192,39398,1,0,0:0:0:0:
448,192,39509,1,0,0:0:0:0:
192,192,39509,1,0,0:0:0:0:
448,192,39620,1,0,0:0:0:0:
320,192,39731,1,0,0:0:0:0:
448,192,39731,1,0,0:0:0:0:
448,192,39842,1,0,0:0:0:0:
448,192,39953,1,0,0:0:0:0:
64,192,39953,1,0,0:0:0:0:
448,192,40064,1,0,0:0:0:0:
320,192,40175,1,0,0:0:0:0:
448,192,40175,1,0,0:0:0:0:
448,192,40286,1,0,0:0:0:0:
192,192,40397,1,0,0:0:0:0:
448,192,40397,1,0,0:0:0:0:
448,192,40508,1,0,0:0:0:0:
448,192,40619,1,0,0:0:0:0:
320,192,40619,1,0,0:0:0:0:
448,192,40730,1,0,0:0:0:0:
64,192,40841,1,0,0:0:0:0:
192,192,40841,1,0,0:0:0:0:
448,192,40842,1,0,0:0:0:0:
192,192,40952,1,0,0:0:0:0:
64,192,41063,1,0,0:0:0:0:
192,192,41064,1,0,0:0:0:0:
192,192,41174,1,0,0:0:0:0:
192,192,41285,1,0,0:0:0:0:
448,192,41285,1,0,0:0:0:0:
192,192,41396,1,0,0:0:0:0:
64,192,41507,1,0,0:0:0:0:
192,192,41508,1,0,0:0:0:0:
192,192,41618,1,0,0:0:0:0:
448,192,41729,1,0,0:0:0:0:
192,192,41729,1,0,0:0:0:0:
320,192,41730,1,0,0:0:0:0:
320,192,41840,1,0,0:0:0:0:
320,192,41951,1,0,0:0:0:0:
448,192,41951,1,0,0:0:0:0:
320,192,42062,1,0,0:0:0:0:
320,192,42173,1,0,0:0:0:0:
64,192,42173,1,0,0:0:0:0:
320,192,42284,1,0,0:0:0:0:
320,192,42396,1,0,0:0:0:0:
448,192,42396,1,0,0:0:0:0:
320,192,42507,1,0,0:0:0:0:
320,192,42618,1,0,0:0:0:0:
64,192,42618,1,0,0:0:0:0:
192,192,42618,1,0,0:0:0:0:
64,192,42729,1,0,0:0:0:0:
192,192,42840,1,0,0:0:0:0:
64,192,42840,1,0,0:0:0:0:
64,192,42951,1,0,0:0:0:0:
64,192,43062,1,0,0:0:0:0:
448,192,43062,1,0,0:0:0:0:
64,192,43173,1,0,0:0:0:0:
192,192,43284,1,0,0:0:0:0:
64,192,43284,1,0,0:0:0:0:
64,192,43395,1,0,0:0:0:0:
320,192,43506,1,0,0:0:0:0:
64,192,43506,1,0,0:0:0:0:
64,192,43617,1,0,0:0:0:0:
192,192,43728,1,0,0:0:0:0:
64,192,43728,1,0,0:0:0:0:
64,192,43839,1,0,0:0:0:0:
64,192,43950,1,0,0:0:0:0:
448,192,43950,1,0,0:0:0:0:
320,192,43950,1,0,0:0:0:0:
64,192,44061,1,0,0:0:0:0:
192,192,44172,1,0,0:0:0:0:
64,192,44172,1,0,0:0:0:0:
64,192,44283,1,0,0:0:0:0:
448,192,44394,1,0,0:0:0:0:
64,192,44394,1,0,0:0:0:0:
320,192,44395,1,0,0:0:0:0:
320,192,44505,1,0,0:0:0:0:
320,192,44616,1,0,0:0:0:0:
192,192,44617,1,0,0:0:0:0:
320,192,44727,1,0,0:0:0:0:
320,192,44838,1,0,0:0:0:0:
448,192,44838,1,0,0:0:0:0:
320,192,44949,1,0,0:0:0:0:
320,192,45060,1,0,0:0:0:0:
64,192,45060,1,0,0:0:0:0:
320,192,45171,1,0,0:0:0:0:
320,192,45282,1,0,0:0:0:0:
448,192,45283,1,0,0:0:0:0:
320,192,45393,1,0,0:0:0:0:
320,192,45504,1,0,0:0:0:0:
192,192,45505,1,0,0:0:0:0:
320,192,45615,1,0,0:0:0:0:
320,192,45726,1,0,0:0:0:0:
448,192,45726,1,0,0:0:0:0:
320,192,45837,1,0,0:0:0:0:
320,192,45948,1,0,0:0:0:0:
64,192,45948,1,0,0:0:0:0:
320,192,46059,1,0,0:0:0:0:
320,192,46171,1,0,0:0:0:0:
192,192,46171,1,0,0:0:0:0:
448,192,46171,1,0,0:0:0:0:
192,192,46282,1,0,0:0:0:0:
192,192,46393,1,0,0:0:0:0:
64,192,46393,1,0,0:0:0:0:
192,192,46504,1,0,0:0:0:0:
192,192,46615,1,0,0:0:0:0:
320,192,46615,1,0,0:0:0:0:
192,192,46726,1,0,0:0:0:0:
192,192,46837,1,0,0:0:0:0:
64,192,46837,1,0,0:0:0:0:
192,192,46948,1,0,0:0:0:0:
448,192,47059,1,0,0:0:0:0:
192,192,47059,1,0,0:0:0:0:
192,192,47170,1,0,0:0:0:0:
192,192,47281,1,0,0:0:0:0:
64,192,47281,1,0,0:0:0:0:
192,192,47392,1,0,0:0:0:0:
192,192,47503,1,0,0:0:0:0:
320,192,47503,1,0,0:0:0:0:
192,192,47614,1,0,0:0:0:0:
192,192,47725,1,0,0:0:0:0:
64,192,47725,1,0,0:0:0:0:
192,192,47836,1,0,0:0:0:0:
448,192,47947,1,0,0:0:0:0:
320,192,47947,1,0,0:0:0:0:
192,192,47947,1,0,0:0:0:0:
448,192,48058,1,0,0:0:0:0:
448,192,48169,1,0,0:0:0:0:
64,192,48169,1,0,0:0:0:0:
448,192,48280,1,0,0:0:0:0:
448,192,48391,1,0,0:0:0:0:
320,192,48391,1,0,0:0:0:0:
448,192,48502,1,0,0:0:0:0:
448,192,48613,1,0,0:0:0:0:
192,192,48614,1,0,0:0:0:0:
448,192,48724,1,0,0:0:0:0:
448,192,48835,1,0,0:0:0:0:
320,192,48836,1,0,0:0:0:0:
448,192,48946,1,0,0:0:0:0:
448,192,49057,1,0,0:0:0:0:
64,192,49057,1,0,0:0:0:0:
448,192,49168,1,0,0:0:0:0:
448,192,49279,1,0,0:0:0:0:
320,192,49279,1,0,0:0:0:0:
192,192,49279,1,0,0:0:0:0:
64,192,49279,1,0,0:0:0:0:
320,192,49501,1,0,0:0:0:0:
64,192,49501,1,0,0:0:0:0:
192,192,49502,1,0,0:0:0:0:
448,192,49502,1,0,0:0:0:0:
192,192,49612,1,0,0:0:0:0:
64,192,49612,1,0,0:0:0:0:
320,192,49612,1,0,0:0:0:0:
448,192,49613,1,0,0:0:0:0:
64,192,49724,1,0,0:0:0:0:
192,192,49724,1,0,0:0:0:0:
320,192,49724,1,0,0:0:0:0:
448,192,49724,1,0,0:0:0:0:
192,192,49945,1,0,0:0:0:0:
64,192,49946,1,0,0:0:0:0:
192,192,50057,1,0,0:0:0:0:
320,192,50057,1,0,0:0:0:0:
448,192,50057,1,0,0:0:0:0:
320,192,50168,1,0,0:0:0:0:
448,192,50168,1,0,0:0:0:0:
64,192,50168,1,0,0:0:0:0:
192,192,50390,1,0,0:0:0:0:
320,192,50390,1,0,0:0:0:0:
64,192,50390,1,0,0:0:0:0:
448,192,50390,1,0,0:0:0:0:
64,192,50612,1,0,0:0:0:0:
192,192,50612,1,0,0:0:0:0:
320,192,50612,1,0,0:0:0:0:
448,192,50612,1,0,0:0:0:0:
320,192,50723,1,0,0:0:0:0:
448,192,50723,1,0,0:0:0:0:
64,192,50834,1,0,0:0:0:0:
192,192,50834,1,0,0:0:0:0:
320,192,50834,1,0,0:0:0:0:
448,192,50834,1,0,0:0:0:0:
192,192,50945,1,0,0:0:0:0:
320,192,50945,1,0,0:0:0:0:
448,192,50945,1,0,0:0:0:0:
64,192,51056,1,0,0:0:0:0:
192,192,51056,1,0,0:0:0:0:
320,192,51056,1,0,0:0:0:0:
448,192,51056,1,0,0:0:0:0:
192,192,51167,1,0,0:0:0:0:
64,192,51167,1,0,0:0:0:0:
64,192,51278,1,0,0:0:0:0:
192,192,51278,1,0,0:0:0:0:
320,192,51278,1,0,0:0:0:0:
448,192,51278,1,0,0:0:0:0:
192,192,51389,1,0,0:0:0:0:
320,192,51389,1,0,0:0:0:0:
64,192,51389,1,0,0:0:0:0:
64,192,51500,1,0,0:0:0:0:
192,192,51500,1,0,0:0:0:0:
320,192,51500,1,0,0:0:0:0:
448,192,51500,1,0,0:0:0:0:
320,192,51611,1,0,0:0:0:0:
192,192,51611,1,0,0:0:0:0:
448,192,51722,1,0,0:0:0:0:
64,192,51722,1,0,0:0:0:0:
320,192,51833,1,0,0:0:0:0:
64,192,51833,1,0,0:0:0:0:
448,192,51944,1,0,0:0:0:0:
64,192,51945,1,0,0:0:0:0:
192,192,51945,1,0,0:0:0:0:
320,192,51945,1,0,0:0:0:0:
192,192,52055,1,0,0:0:0:0:
448,192,52056,1,0,0:0:0:0:
64,192,52167,1,0,0:0:0:0:
320,192,52167,1,0,0:0:0:0:
192,192,52277,1,0,0:0:0:0:
448,192,52278,1,0,0:0:0:0:
320,192,52388,1,0,0:0:0:0:
64,192,52389,1,0,0:0:0:0:
192,192,52389,1,0,0:0:0:0:
64,192,52499,1,0,0:0:0:0:
448,192,52500,1,0,0:0:0:0:
320,192,52610,1,0,0:0:0:0:
192,192,52611,1,0,0:0:0:0:
64,192,52721,1,0,0:0:0:0:
320,192,52722,1,0,0:0:0:0:
320,192,52832,1,0,0:0:0:0:
64,192,52833,1,0,0:0:0:0:
192,192,52833,1,0,0:0:0:0:
448,192,52833,1,0,0:0:0:0:
448,192,52943,1,0,0:0:0:0:
192,192,52944,1,0,0:0:0:0:
192,192,53054,1,0,0:0:0:0:
320,192,53055,1,0,0:0:0:0:
64,192,53165,1,0,0:0:0:0:
448,192,53166,1,0,0:0:0:0:
64,192,53277,1,0,0:0:0:0:
192,192,53277,1,0,0:0:0:0:
320,192,53277,1,0,0:0:0:0:
192,192,53387,1,0,0:0:0:0:
448,192,53388,1,0,0:0:0:0:
320,192,53498,1,0,0:0:0:0:
192,192,53499,1,0,0:0:0:0:
64,192,53609,1,0,0:0:0:0:
448,192,53610,1,0,0:0:0:0:
320,192,53720,1,0,0:0:0:0:
64,192,53721,1,0,0:0:0:0:
192,192,53721,1,0,0:0:0:0:
448,192,53721,1,0,0:0:0:0:
192,192,53831,1,0,0:0:0:0:
448,192,53831,1,0,0:0:0:0:
64,192,53943,1,0,0:0:0:0:
320,192,53943,1,0,0:0:0:0:
192,192,54054,1,0,0:0:0:0:
320,192,54054,1,0,0:0:0:0:
64,192,54165,1,0,0:0:0:0:
448,192,54165,1,0,0:0:0:0:
320,192,54165,1,0,0:0:0:0:
192,192,54276,1,0,0:0:0:0:
448,192,54276,1,0,0:0:0:0:
448,192,54387,1,0,0:0:0:0:
320,192,54387,1,0,0:0:0:0:
192,192,54498,1,0,0:0:0:0:
64,192,54498,1,0,0:0:0:0:
64,192,54609,1,0,0:0:0:0:
192,192,54609,1,0,0:0:0:0:
320,192,54609,1,0,0:0:0:0:
448,192,54609,1,0,0:0:0:0:
448,192,54720,1,0,0:0:0:0:
64,192,54720,1,0,0:0:0:0:
192,192,54831,1,0,0:0:0:0:
320,192,54831,1,0,0:0:0:0:
320,192,54942,1,0,0:0:0:0:
448,192,54942,1,0,0:0:0:0:
64,192,55053,1,0,0:0:0:0:
192,192,55053,1,0,0:0:0:0:
448,192,55053,1,0,0:0:0:0:
448,192,55164,1,0,0:0:0:0:
192,192,55164,1,0,0:0:0:0:
64,192,55275,1,0,0:0:0:0:
320,192,55275,1,0,0:0:0:0:
192,192,55386,1,0,0:0:0:0:
320,192,55386,1,0,0:0:0:0:
64,192,55497,1,0,0:0:0:0:
192,192,55497,1,0,0:0:0:0:
448,192,55497,1,0,0:0:0:0:
320,192,55497,1,0,0:0:0:0:
320,192,55608,1,0,0:0:0:0:
64,192,55719,1,0,0:0:0:0:
192,192,55719,1,0,0:0:0:0:
448,192,55719,1,0,0:0:0:0:
320,192,55831,1,0,0:0:0:0:
320,192,55941,1,0,0:0:0:0:
448,192,55941,1,0,0:0:0:0:
64,192,55942,1,0,0:0:0:0:
192,192,55942,1,0,0:0:0:0:
64,192,56052,1,0,0:0:0:0:
448,192,56053,1,0,0:0:0:0:
192,192,56163,1,0,0:0:0:0:
320,192,56164,1,0,0:0:0:0:
448,192,56274,1,0,0:0:0:0:
192,192,56275,1,0,0:0:0:0:
192,192,56385,1,0,0:0:0:0:
64,192,56386,1,0,0:0:0:0:
320,192,56386,1,0,0:0:0:0:
448,192,56386,1,0,0:0:0:0:
64,192,56496,1,0,0:0:0:0:
448,192,56497,1,0,0:0:0:0:
64,192,56608,1,0,0:0:0:0:
320,192,56608,1,0,0:0:0:0:
320,192,56718,1,0,0:0:0:0:
192,192,56719,1,0,0:0:0:0:
192,192,56829,1,0,0:0:0:0:
64,192,56830,1,0,0:0:0:0:
320,192,56830,1,0,0:0:0:0:
448,192,56830,1,0,0:0:0:0:
64,192,56940,1,0,0:0:0:0:
448,192,56941,1,0,0:0:0:0:
320,192,57051,1,0,0:0:0:0:
192,192,57052,1,0,0:0:0:0:
320,192,57162,1,0,0:0:0:0:
448,192,57163,1,0,0:0:0:0:
448,192,57273,1,0,0:0:0:0:
64,192,57274,1,0,0:0:0:0:
192,192,57274,1,0,0:0:0:0:
320,192,57274,1,0,0:0:0:0:
64,192,57384,1,0,0:0:0:0:
192,192,57384,1,0,0:0:0:0:
320,192,57495,1,0,0:0:0:0:
448,192,57496,1,0,0:0:0:0:
320,192,57606,1,0,0:0:0:0:
192,192,57607,1,0,0:0:0:0:
64,192,57718,1,0,0:0:0:0:
320,192,57718,1,0,0:0:0:0:
448,192,57718,1,0,0:0:0:0:
192,192,57718,1,0,0:0:0:0:
320,192,57829,1,0,0:0:0:0:
64,192,57829,1,0,0:0:0:0:
64,192,57940,1,0,0:0:0:0:
192,192,57940,1,0,0:0:0:0:
320,192,58051,1,0,0:0:0:0:
448,192,58051,1,0,0:0:0:0:
64,192,58162,1,0,0:0:0:0:
192,192,58162,1,0,0:0:0:0:
320,192,58162,1,0,0:0:0:0:
448,192,58162,1,0,0:0:0:0:
192,192,58273,1,0,0:0:0:0:
64,192,58384,1,0,0:0:0:0:
320,192,58384,1,0,0:0:0:0:
448,192,58384,1,0,0:0:0:0:
192,192,58495,1,0,0:0:0:0:
64,192,58606,1,0,0:0:0:0:
320,192,58606,1,0,0:0:0:0:
448,192,58606,1,0,0:0:0:0:
192,192,58717,1,0,0:0:0:0:
320,192,58717,1,0,0:0:0:0:
448,192,58828,1,0,0:0:0:0:
64,192,58828,1,0,0:0:0:0:
192,192,58939,1,0,0:0:0:0:
448,192,58939,1,0,0:0:0:0:
64,192,59050,1,0,0:0:0:0:
192,192,59050,1,0,0:0:0:0:
448,192,59050,1,0,0:0:0:0:
320,192,59050,1,0,0:0:0:0:
320,192,59161,1,0,0:0:0:0:
64,192,59272,1,0,0:0:0:0:
192,192,59272,1,0,0:0:0:0:
448,192,59272,1,0,0:0:0:0:
320,192,59383,1,0,0:0:0:0:
64,192,59494,1,0,0:0:0:0:
448,192,59494,1,0,0:0:0:0:
192,192,59494,1,0,0:0:0:0:
192,192,59605,1,0,0:0:0:0:
448,192,59605,1,0,0:0:0:0:
64,192,59716,1,0,0:0:0:0:
320,192,59717,1,0,0:0:0:0:
320,192,59827,1,0,0:0:0:0:
192,192,59828,1,0,0:0:0:0:
448,192,59938,1,0,0:0:0:0:
64,192,59939,1,0,0:0:0:0:
192,192,59939,1,0,0:0:0:0:
320,192,59939,1,0,0:0:0:0:
64,192,60049,1,0,0:0:0:0:
448,192,60050,1,0,0:0:0:0:
192,192,60161,1,0,0:0:0:0:
320,192,60161,1,0,0:0:0:0:
448,192,60271,1,0,0:0:0:0:
192,192,60272,1,0,0:0:0:0:
64,192,60383,1,0,0:0:0:0:
320,192,60383,1,0,0:0:0:0:
448,192,60383,1,0,0:0:0:0:
320,192,60493,1,0,0:0:0:0:
192,192,60494,1,0,0:0:0:0:
320,192,60604,1,0,0:0:0:0:
448,192,60605,1,0,0:0:0:0:
64,192,60715,1,0,0:0:0:0:
192,192,60716,1,0,0:0:0:0:
320,192,60826,1,0,0:0:0:0:
64,192,60827,1,0,0:0:0:0:
192,192,60827,1,0,0:0:0:0:
448,192,60827,1,0,0:0:0:0:
192,192,60938,1,0,0:0:0:0:
64,192,61049,1,0,0:0:0:0:
320,192,61049,1,0,0:0:0:0:
448,192,61049,1,0,0:0:0:0:
192,192,61160,1,0,0:0:0:0:
64,192,61271,1,0,0:0:0:0:
320,192,61271,1,0,0:0:0:0:
448,192,61381,1,0,0:0:0:0:
192,192,61382,1,0,0:0:0:0:
64,192,61492,1,0,0:0:0:0:
448,192,61493,1,0,0:0:0:0:
320,192,61604,1,0,0:0:0:0:
192,192,61604,1,0,0:0:0:0:
64,192,61715,1,0,0:0:0:0:
192,192,61715,1,0,0:0:0:0:
448,192,61715,1,0,0:0:0:0:
320,192,61715,1,0,0:0:0:0:
192,192,61826,1,0,0:0:0:0:
64,192,61826,1,0,0:0:0:0:
320,192,61937,1,0,0:0:0:0:
448,192,61937,1,0,0:0:0:0:
192,192,62048,1,0,0:0:0:0:
448,192,62048,1,0,0:0:0:0:
64,192,62159,1,0,0:0:0:0:
192,192,62159,1,0,0:0:0:0:
320,192,62159,1,0,0:0:0:0:
448,192,62159,1,0,0:0:0:0:
320,192,62270,1,0,0:0:0:0:
64,192,62270,1,0,0:0:0:0:
192,192,62381,1,0,0:0:0:0:
320,192,62381,1,0,0:0:0:0:
192,192,62492,1,0,0:0:0:0:
448,192,62492,1,0,0:0:0:0:
64,192,62603,1,0,0:0:0:0:
192,192,62603,1,0,0:0:0:0:
448,192,62603,1,0,0:0:0:0:
320,192,62603,1,0,0:0:0:0:
192,192,62714,1,0,0:0:0:0:
64,192,62825,1,0,0:0:0:0:
320,192,62825,1,0,0:0:0:0:
448,192,62825,1,0,0:0:0:0:
320,192,62936,1,0,0:0:0:0:
64,192,63047,1,0,0:0:0:0:
192,192,63047,1,0,0:0:0:0:
448,192,63158,1,0,0:0:0:0:
320,192,63158,1,0,0:0:0:0:
320,192,63269,1,0,0:0:0:0:
64,192,63269,1,0,0:0:0:0:
192,192,63380,1,0,0:0:0:0:
448,192,63380,1,0,0:0:0:0:
320,192,63491,1,0,0:0:0:0:
64,192,63492,1,0,0:0:0:0:
192,192,63492,1,0,0:0:0:0:
448,192,63492,1,0,0:0:0:0:
64,192,63602,1,0,0:0:0:0:
320,192,63603,1,0,0:0:0:0:
320,192,63713,1,0,0:0:0:0:
192,192,63714,1,0,0:0:0:0:
448,192,63824,1,0,0:0:0:0:
192,192,63824,1,0,0:0:0:0:
192,192,63935,1,0,0:0:0:0:
64,192,63936,1,0,0:0:0:0:
320,192,63936,1,0,0:0:0:0:
448,192,63936,1,0,0:0:0:0:
320,192,64046,1,0,0:0:0:0:
448,192,64046,1,0,0:0:0:0:
192,192,64047,1,0,0:0:0:0:
192,192,64157,1,0,0:0:0:0:
320,192,64157,1,0,0:0:0:0:
64,192,64158,1,0,0:0:0:0:
320,192,64268,1,0,0:0:0:0:
64,192,64268,1,0,0:0:0:0:
448,192,64269,1,0,0:0:0:0:
192,192,64379,1,0,0:0:0:0:
64,192,64379,1,0,0:0:0:0:
448,192,64379,1,0,0:0:0:0:
320,192,64380,1,0,0:0:0:0:
320,192,64490,1,0,0:0:0:0:
448,192,64490,1,0,0:0:0:0:
192,192,64491,1,0,0:0:0:0:
64,192,64602,1,0,0:0:0:0:
192,192,64602,1,0,0:0:0:0:
448,192,64602,1,0,0:0:0:0:
64,192,64712,1,0,0:0:0:0:
320,192,64712,1,0,0:0:0:0:
192,192,64713,1,0,0:0:0:0:
192,192,64823,1,0,0:0:0:0:
448,192,64823,1,0,0:0:0:0:
64,192,64824,1,0,0:0:0:0:
320,192,64824,1,0,0:0:0:0:
64,192,64934,1,0,0:0:0:0:
320,192,64934,1,0,0:0:0:0:
448,192,64934,1,0,0:0:0:0:
64,192,65046,1,0,0:0:0:0:
192,192,65046,1,0,0:0:0:0:
320,192,65046,1,0,0:0:0:0:
448,192,65046,1,0,0:0:0:0:
64,192,65157,1,0,0:0:0:0:
320,192,65157,1,0,0:0:0:0:
448,192,65157,1,0,0:0:0:0:
320,192,65267,1,0,0:0:0:0:
448,192,65267,1,0,0:0:0:0:
192,192,65268,1,0,0:0:0:0:
64,192,65379,1,0,0:0:0:0:
192,192,65379,1,0,0:0:0:0:
320,192,65379,1,0,0:0:0:0:
448,192,65379,1,0,0:0:0:0:
64,192,65490,1,0,0:0:0:0:
192,192,65490,1,0,0:0:0:0:
320,192,65490,1,0,0:0:0:0:
448,192,65490,1,0,0:0:0:0:
320,192,65601,1,0,0:0:0:0:
192,192,65601,1,0,0:0:0:0:
64,192,65601,1,0,0:0:0:0:
448,192,65601,1,0,0:0:0:0:
64,192,65712,1,0,0:0:0:0:
192,192,65712,1,0,0:0:0:0:
320,192,65712,1,0,0:0:0:0:
448,192,65712,1,0,0:0:0:0:
64,192,65823,1,0,0:0:0:0:
192,192,65823,1,0,0:0:0:0:
320,192,65934,1,0,0:0:0:0:
192,192,65934,1,0,0:0:0:0:
64,192,65934,1,0,0:0:0:0:
448,192,65934,1,0,0:0:0:0:
320,192,66045,1,0,0:0:0:0:
448,192,66045,1,0,0:0:0:0:
192,192,66045,1,0,0:0:0:0:
64,192,66156,1,0,0:0:0:0:
192,192,66156,1,0,0:0:0:0:
320,192,66156,1,0,0:0:0:0:
448,192,66156,1,0,0:0:0:0:
320,192,66267,1,0,0:0:0:0:
448,192,66267,1,0,0:0:0:0:
64,192,66378,1,0,0:0:0:0:
192,192,66378,1,0,0:0:0:0:
448,192,66378,1,0,0:0:0:0:
320,192,66378,1,0,0:0:0:0:
64,192,66489,1,0,0:0:0:0:
192,192,66489,1,0,0:0:0:0:
448,192,66489,1,0,0:0:0:0:
64,192,66600,1,0,0:0:0:0:
192,192,66600,1,0,0:0:0:0:
320,192,66600,1,0,0:0:0:0:
448,192,66600,1,0,0:0:0:0:
320,192,66711,1,0,0:0:0:0:
448,192,66711,1,0,0:0:0:0:
192,192,66822,1,0,0:0:0:0:
64,192,66822,1,0,0:0:0:0:
320,192,66822,1,0,0:0:0:0:
320,192,66933,1,0,0:0:0:0:
448,192,66933,1,0,0:0:0:0:
64,192,66933,1,0,0:0:0:0:
192,192,66933,1,0,0:0:0:0:
64,192,67044,1,0,0:0:0:0:
192,192,67044,1,0,0:0:0:0:
320,192,67044,1,0,0:0:0:0:
448,192,67044,1,0,0:0:0:0:
64,192,67155,1,0,0:0:0:0:
192,192,67155,1,0,0:0:0:0:
320,192,67266,1,0,0:0:0:0:
192,192,67266,1,0,0:0:0:0:
448,192,67266,1,0,0:0:0:0:
64,192,67377,1,0,0:0:0:0:
320,192,67377,1,0,0:0:0:0:
448,192,67377,1,0,0:0:0:0:
64,192,67489,1,0,0:0:0:0:
192,192,67489,1,0,0:0:0:0:
320,192,67489,1,0,0:0:0:0:
448,192,67489,1,0,0:0:0:0:
192,192,67599,1,0,0:0:0:0:
320,192,67599,1,0,0:0:0:0:
448,192,67710,1,0,0:0:0:0:
64,192,67710,1,0,0:0:0:0:
192,192,67711,1,0,0:0:0:0:
64,192,67821,1,0,0:0:0:0:
192,192,67821,1,0,0:0:0:0:
448,192,67821,1,0,0:0:0:0:
320,192,67821,1,0,0:0:0:0:
64,192,67933,1,0,0:0:0:0:
192,192,67933,1,0,0:0:0:0:
320,192,67933,1,0,0:0:0:0:
448,192,67933,1,0,0:0:0:0:
448,192,68043,1,0,0:0:0:0:
320,192,68043,1,0,0:0:0:0:
64,192,68043,1,0,0:0:0:0:
320,192,68154,1,0,0:0:0:0:
192,192,68154,1,0,0:0:0:0:
64,192,68154,1,0,0:0:0:0:
448,192,68155,1,0,0:0:0:0:
192,192,68265,1,0,0:0:0:0:
64,192,68265,1,0,0:0:0:0:
448,192,68265,1,0,0:0:0:0:
64,192,68377,1,0,0:0:0:0:
192,192,68377,1,0,0:0:0:0:
320,192,68377,1,0,0:0:0:0:
448,192,68377,1,0,0:0:0:0:
320,192,68487,1,0,0:0:0:0:
448,192,68487,1,0,0:0:0:0:
64,192,68598,1,0,0:0:0:0:
192,192,68598,1,0,0:0:0:0:
320,192,68598,1,0,0:0:0:0:
448,192,68709,1,0,0:0:0:0:
192,192,68710,1,0,0:0:0:0:
64,192,68821,1,0,0:0:0:0:
192,192,68821,1,0,0:0:0:0:
320,192,68821,1,0,0:0:0:0:
448,192,68821,1,0,0:0:0:0:
448,192,68931,1,0,0:0:0:0:
320,192,68931,1,0,0:0:0:0:
64,192,69042,1,0,0:0:0:0:
192,192,69043,1,0,0:0:0:0:
320,192,69043,1,0,0:0:0:0:
192,192,69153,1,0,0:0:0:0:
64,192,69153,1,0,0:0:0:0:
448,192,69153,1,0,0:0:0:0:
64,192,69265,1,0,0:0:0:0:
192,192,69265,1,0,0:0:0:0:
320,192,69265,1,0,0:0:0:0:
448,192,69265,1,0,0:0:0:0:
320,192,69376,1,0,0:0:0:0:
448,192,69376,1,0,0:0:0:0:
320,192,69487,1,0,0:0:0:0:
64,192,69487,1,0,0:0:0:0:
192,192,69487,1,0,0:0:0:0:
448,192,69487,1,0,0:0:0:0:
192,192,69598,1,0,0:0:0:0:
64,192,69598,1,0,0:0:0:0:
320,192,69598,1,0,0:0:0:0:
64,192,69709,1,0,0:0:0:0:
192,192,69709,1,0,0:0:0:0:
320,192,69709,1,0,0:0:0:0:
448,192,69709,1,0,0:0:0:0:
192,192,69820,1,0,0:0:0:0:
448,192,69820,1,0,0:0:0:0:
64,192,69931,1,0,0:0:0:0:
192,192,69931,1,0,0:0:0:0:
320,192,69931,1,0,0:0:0:0:
448,192,69931,1,0,0:0:0:0:
320,192,70042,1,0,0:0:0:0:
64,192,70042,1,0,0:0:0:0:
64,192,70153,1,0,0:0:0:0:
192,192,70153,1,0,0:0:0:0:
320,192,70153,1,0,0:0:0:0:
448,192,70153,1,0,0:0:0:0:
64,192,70264,1,0,0:0:0:0:
448,192,70264,1,0,0:0:0:0:
64,192,70375,1,0,0:0:0:0:
192,192,70375,1,0,0:0:0:0:
320,192,70375,1,0,0:0:0:0:
448,192,70375,1,0,0:0:0:0:
192,192,70486,1,0,0:0:0:0:
448,192,70486,1,0,0:0:0:0:
320,192,70486,1,0,0:0:0:0:
64,192,70486,1,0,0:0:0:0:
64,192,70597,1,0,0:0:0:0:
192,192,70597,1,0,0:0:0:0:
320,192,70597,1,0,0:0:0:0:
448,192,70597,1,0,0:0:0:0:
64,192,70708,1,0,0:0:0:0:
320,192,70708,1,0,0:0:0:0:
192,192,70819,1,0,0:0:0:0:
320,192,70819,1,0,0:0:0:0:
448,192,70819,1,0,0:0:0:0:
64,192,70819,1,0,0:0:0:0:
192,192,70930,1,0,0:0:0:0:
448,192,70930,1,0,0:0:0:0:
64,192,71041,1,0,0:0:0:0:
192,192,71041,1,0,0:0:0:0:
320,192,71041,1,0,0:0:0:0:
448,192,71041,1,0,0:0:0:0:
64,192,71152,1,0,0:0:0:0:
192,192,71152,1,0,0:0:0:0:
64,192,71263,1,0,0:0:0:0:
320,192,71263,1,0,0:0:0:0:
448,192,71264,1,0,0:0:0:0:
64,192,71374,1,0,0:0:0:0:
320,192,71374,1,0,0:0:0:0:
448,192,71374,1,0,0:0:0:0:
192,192,71375,1,0,0:0:0:0:
64,192,71486,1,0,0:0:0:0:
192,192,71486,1,0,0:0:0:0:
320,192,71486,1,0,0:0:0:0:
448,192,71486,1,0,0:0:0:0:
192,192,71596,1,0,0:0:0:0:
64,192,71596,1,0,0:0:0:0:
448,192,71597,1,0,0:0:0:0:
320,192,71707,1,0,0:0:0:0:
64,192,71707,1,0,0:0:0:0:
448,192,71707,1,0,0:0:0:0:
192,192,71708,1,0,0:0:0:0:
320,192,71818,1,0,0:0:0:0:
192,192,71818,1,0,0:0:0:0:
448,192,71818,1,0,0:0:0:0:
64,192,71930,1,0,0:0:0:0:
192,192,71930,1,0,0:0:0:0:
320,192,71930,1,0,0:0:0:0:
448,192,71930,1,0,0:0:0:0:
64,192,72040,1,0,0:0:0:0:
192,192,72040,1,0,0:0:0:0:
64,192,72151,1,0,0:0:0:0:
320,192,72151,1,0,0:0:0:0:
448,192,72151,1,0,0:0:0:0:
192,192,72262,1,0,0:0:0:0:
448,192,72263,1,0,0:0:0:0:
64,192,72374,1,0,0:0:0:0:
192,192,72374,1,0,0:0:0:0:
320,192,72374,1,0,0:0:0:0:
448,192,72374,1,0,0:0:0:0:
64,192,72484,1,0,0:0:0:0:
192,192,72484,1,0,0:0:0:0:
192,192,72596,1,0,0:0:0:0:
320,192,72596,1,0,0:0:0:0:
448,192,72596,1,0,0:0:0:0:
320,192,72706,1,0,0:0:0:0:
448,192,72706,1,0,0:0:0:0:
64,192,72706,1,0,0:0:0:0:
64,192,72818,1,0,0:0:0:0:
192,192,72818,1,0,0:0:0:0:
320,192,72818,1,0,0:0:0:0:
448,192,72818,1,0,0:0:0:0:
64,192,72928,1,0,0:0:0:0:
320,192,72928,1,0,0:0:0:0:
64,192,73039,1,0,0:0:0:0:
192,192,73039,1,0,0:0:0:0:
448,192,73039,1,0,0:0:0:0:
320,192,73040,1,0,0:0:0:0:
192,192,73151,1,0,0:0:0:0:
448,192,73151,1,0,0:0:0:0:
64,192,73262,1,0,0:0:0:0:
192,192,73262,1,0,0:0:0:0:
320,192,73262,1,0,0:0:0:0:
448,192,73262,1,0,0:0:0:0:
320,192,73373,1,0,0:0:0:0:
64,192,73373,1,0,0:0:0:0:
192,192,73373,1,0,0:0:0:0:
64,192,73484,1,0,0:0:0:0:
192,192,73484,1,0,0:0:0:0:
320,192,73484,1,0,0:0:0:0:
448,192,73484,1,0,0:0:0:0:
192,192,73595,1,0,0:0:0:0:
448,192,73595,1,0,0:0:0:0:
64,192,73706,1,0,0:0:0:0:
192,192,73706,1,0,0:0:0:0:
320,192,73706,1,0,0:0:0:0:
448,192,73706,1,0,0:0:0:0:
64,192,73817,1,0,0:0:0:0:
448,192,73817,1,0,0:0:0:0:
320,192,73817,1,0,0:0:0:0:
64,192,73928,1,0,0:0:0:0:
192,192,73928,1,0,0:0:0:0:
320,192,73928,1,0,0:0:0:0:
448,192,73928,1,0,0:0:0:0:
448,192,74039,1,0,0:0:0:0:
320,192,74039,1,0,0:0:0:0:
64,192,74039,1,0,0:0:0:0:
192,192,74039,1,0,0:0:0:0:
64,192,74150,1,0,0:0:0:0:
192,192,74150,1,0,0:0:0:0:
320,192,74150,1,0,0:0:0:0:
448,192,74150,1,0,0:0:0:0:
64,192,74261,1,0,0:0:0:0:
192,192,74261,1,0,0:0:0:0:
192,192,74372,1,0,0:0:0:0:
64,192,74372,1,0,0:0:0:0:
320,192,74372,1,0,0:0:0:0:
448,192,74372,1,0,0:0:0:0:
192,192,74483,1,0,0:0:0:0:
320,192,74483,1,0,0:0:0:0:
64,192,74594,1,0,0:0:0:0:
192,192,74594,1,0,0:0:0:0:
320,192,74594,1,0,0:0:0:0:
448,192,74594,1,0,0:0:0:0:
448,192,74705,1,0,0:0:0:0:
64,192,74705,1,0,0:0:0:0:
192,192,74816,1,0,0:0:0:0:
320,192,74816,1,0,0:0:0:0:
448,192,74816,1,0,0:0:0:0:
320,192,74927,1,0,0:0:0:0:
64,192,74927,1,0,0:0:0:0:
192,192,74927,1,0,0:0:0:0:
448,192,74927,1,0,0:0:0:0:
64,192,75039,1,0,0:0:0:0:
192,192,75039,1,0,0:0:0:0:
320,192,75039,1,0,0:0:0:0:
448,192,75039,1,0,0:0:0:0:
64,192,75149,1,0,0:0:0:0:
448,192,75149,1,0,0:0:0:0:
192,192,75150,1,0,0:0:0:0:
320,192,75260,1,0,0:0:0:0:
192,192,75260,1,0,0:0:0:0:
64,192,75260,1,0,0:0:0:0:
448,192,75261,1,0,0:0:0:0:
192,192,75371,1,0,0:0:0:0:
320,192,75371,1,0,0:0:0:0:
448,192,75371,1,0,0:0:0:0:
64,192,75483,1,0,0:0:0:0:
192,192,75483,1,0,0:0:0:0:
320,192,75483,1,0,0:0:0:0:
448,192,75483,1,0,0:0:0:0:
64,192,75593,1,0,0:0:0:0:
192,192,75593,1,0,0:0:0:0:
192,192,75704,1,0,0:0:0:0:
320,192,75704,1,0,0:0:0:0:
448,192,75704,1,0,0:0:0:0:
64,192,75815,1,0,0:0:0:0:
320,192,75815,1,0,0:0:0:0:
64,192,75927,1,0,0:0:0:0:
192,192,75927,1,0,0:0:0:0:
320,192,75927,1,0,0:0:0:0:
448,192,75927,1,0,0:0:0:0:
320,192,76037,1,0,0:0:0:0:
448,192,76037,1,0,0:0:0:0:
320,192,76148,1,0,0:0:0:0:
448,192,76148,1,0,0:0:0:0:
64,192,76149,1,0,0:0:0:0:
192,192,76149,1,0,0:0:0:0:
448,192,76259,1,0,0:0:0:0:
192,192,76259,1,0,0:0:0:0:
64,192,76259,1,0,0:0:0:0:
64,192,76371,1,0,0:0:0:0:
192,192,76371,1,0,0:0:0:0:
320,192,76371,1,0,0:0:0:0:
448,192,76371,1,0,0:0:0:0:
64,192,76481,1,0,0:0:0:0:
320,192,76481,1,0,0:0:0:0:
192,192,76592,1,0,0:0:0:0:
320,192,76592,1,0,0:0:0:0:
448,192,76592,1,0,0:0:0:0:
448,192,76703,1,0,0:0:0:0:
192,192,76703,1,0,0:0:0:0:
64,192,76815,1,0,0:0:0:0:
192,192,76815,1,0,0:0:0:0:
320,192,76815,1,0,0:0:0:0:
448,192,76815,1,0,0:0:0:0:
320,192,76926,1,0,0:0:0:0:
64,192,76926,1,0,0:0:0:0:
192,192,77037,1,0,0:0:0:0:
64,192,77037,1,0,0:0:0:0:
320,192,77037,1,0,0:0:0:0:
448,192,77037,1,0,0:0:0:0:
192,192,77148,1,0,0:0:0:0:
448,192,77148,1,0,0:0:0:0:
64,192,77259,1,0,0:0:0:0:
192,192,77259,1,0,0:0:0:0:
320,192,77259,1,0,0:0:0:0:
448,192,77259,1,0,0:0:0:0:
64,192,77370,1,0,0:0:0:0:
448,192,77370,1,0,0:0:0:0:
192,192,77481,1,0,0:0:0:0:
320,192,77481,1,0,0:0:0:0:
64,192,77481,1,0,0:0:0:0:
192,192,77592,1,0,0:0:0:0:
320,192,77592,1,0,0:0:0:0:
64,192,77592,1,0,0:0:0:0:
448,192,77592,1,0,0:0:0:0:
64,192,77703,1,0,0:0:0:0:
192,192,77703,1,0,0:0:0:0:
320,192,77703,1,0,0:0:0:0:
448,192,77703,1,0,0:0:0:0:
320,192,77814,1,0,0:0:0:0:
448,192,77814,1,0,0:0:0:0:
192,192,77925,1,0,0:0:0:0:
320,192,77925,1,0,0:0:0:0:
64,192,77925,1,0,0:0:0:0:
448,192,77925,1,0,0:0:0:0:
192,192,78036,1,0,0:0:0:0:
64,192,78036,1,0,0:0:0:0:
64,192,78147,1,0,0:0:0:0:
192,192,78147,1,0,0:0:0:0:
320,192,78147,1,0,0:0:0:0:
448,192,78147,1,0,0:0:0:0:
192,192,78258,1,0,0:0:0:0:
320,192,78258,1,0,0:0:0:0:
448,192,78258,1,0,0:0:0:0:
320,192,78369,1,0,0:0:0:0:
64,192,78369,1,0,0:0:0:0:
192,192,78369,1,0,0:0:0:0:
448,192,78369,1,0,0:0:0:0:
192,192,78480,1,0,0:0:0:0:
64,192,78480,1,0,0:0:0:0:
320,192,78480,1,0,0:0:0:0:
448,192,78480,1,0,0:0:0:0:
64,192,78591,1,0,0:0:0:0:
192,192,78591,1,0,0:0:0:0:
320,192,78591,1,0,0:0:0:0:
448,192,78591,1,0,0:0:0:0:
320,192,78702,1,0,0:0:0:0:
64,192,78702,1,0,0:0:0:0:
320,192,78813,1,0,0:0:0:0:
64,192,78813,1,0,0:0:0:0:
192,192,78813,1,0,0:0:0:0:
448,192,78813,1,0,0:0:0:0:
192,192,78924,1,0,0:0:0:0:
320,192,78924,1,0,0:0:0:0:
448,192,78924,1,0,0:0:0:0:
64,192,79036,1,0,0:0:0:0:
192,192,79036,1,0,0:0:0:0:
320,192,79036,1,0,0:0:0:0:
448,192,79036,1,0,0:0:0:0:
64,192,79146,1,0,0:0:0:0:
192,192,79146,1,0,0:0:0:0:
192,192,79257,1,0,0:0:0:0:
320,192,79257,1,0,0:0:0:0:
448,192,79257,1,0,0:0:0:0:
320,192,79368,1,0,0:0:0:0:
64,192,79368,1,0,0:0:0:0:
192,192,79368,1,0,0:0:0:0:
64,192,79480,1,0,0:0:0:0:
192,192,79480,1,0,0:0:0:0:
320,192,79480,1,0,0:0:0:0:
448,192,79480,1,0,0:0:0:0:
192,192,79590,1,0,0:0:0:0:
320,192,79590,1,0,0:0:0:0:
448,192,79590,1,0,0:0:0:0:
64,192,79701,1,0,0:0:0:0:
192,192,79702,1,0,0:0:0:0:
448,192,79702,1,0,0:0:0:0:
320,192,79812,1,0,0:0:0:0:
64,192,79812,1,0,0:0:0:0:
448,192,79812,1,0,0:0:0:0:
64,192,79924,1,0,0:0:0:0:
192,192,79924,1,0,0:0:0:0:
320,192,79924,1,0,0:0:0:0:
448,192,79924,1,0,0:0:0:0:
192,192,80034,1,0,0:0:0:0:
64,192,80035,1,0,0:0:0:0:
64,192,80145,1,0,0:0:0:0:
320,192,80145,1,0,0:0:0:0:
192,192,80146,1,0,0:0:0:0:
448,192,80146,1,0,0:0:0:0:
192,192,80256,1,0,0:0:0:0:
320,192,80257,1,0,0:0:0:0:
64,192,80368,1,0,0:0:0:0:
192,192,80368,1,0,0:0:0:0:
320,192,80368,1,0,0:0:0:0:
448,192,80368,1,0,0:0:0:0:
448,192,80478,1,0,0:0:0:0:
64,192,80479,1,0,0:0:0:0:
320,192,80589,1,0,0:0:0:0:
64,192,80589,1,0,0:0:0:0:
192,192,80590,1,0,0:0:0:0:
448,192,80590,1,0,0:0:0:0:
192,192,80700,1,0,0:0:0:0:
320,192,80700,1,0,0:0:0:0:
64,192,80812,1,0,0:0:0:0:
320,192,80812,1,0,0:0:0:0:
448,192,80812,1,0,0:0:0:0:
192,192,80812,1,0,0:0:0:0:
192,192,80923,1,0,0:0:0:0:
320,192,80923,1,0,0:0:0:0:
64,192,80923,1,0,0:0:0:0:
448,192,80923,1,0,0:0:0:0:
192,192,81034,1,0,0:0:0:0:
448,192,81034,1,0,0:0:0:0:
64,192,81034,1,0,0:0:0:0:
320,192,81034,1,0,0:0:0:0:
320,192,81145,1,0,0:0:0:0:
448,192,81145,1,0,0:0:0:0:
64,192,81145,1,0,0:0:0:0:
64,192,81256,1,0,0:0:0:0:
192,192,81256,1,0,0:0:0:0:
320,192,81256,1,0,0:0:0:0:
192,192,81367,1,0,0:0:0:0:
448,192,81367,1,0,0:0:0:0:
192,192,81478,1,0,0:0:0:0:
320,192,81478,1,0,0:0:0:0:
448,192,81478,1,0,0:0:0:0:
320,192,81589,1,0,0:0:0:0:
64,192,81589,1,0,0:0:0:0:
64,192,81700,1,0,0:0:0:0:
192,192,81700,1,0,0:0:0:0:
448,192,81700,1,0,0:0:0:0:
320,192,81700,1,0,0:0:0:0:
64,192,81811,1,0,0:0:0:0:
448,192,81811,1,0,0:0:0:0:
192,192,81922,1,0,0:0:0:0:
320,192,81922,1,0,0:0:0:0:
448,192,81922,1,0,0:0:0:0:
64,192,82033,1,0,0:0:0:0:
448,192,82033,1,0,0:0:0:0:
192,192,82033,1,0,0:0:0:0:
64,192,82144,1,0,0:0:0:0:
192,192,82144,1,0,0:0:0:0:
320,192,82144,1,0,0:0:0:0:
192,192,82255,1,0,0:0:0:0:
448,192,82255,1,0,0:0:0:0:
320,192,82366,1,0,0:0:0:0:
448,192,82366,1,0,0:0:0:0:
64,192,82366,1,0,0:0:0:0:
192,192,82366,1,0,0:0:0:0:
192,192,82477,1,0,0:0:0:0:
320,192,82477,1,0,0:0:0:0:
64,192,82477,1,0,0:0:0:0:
64,192,82588,1,0,0:0:0:0:
192,192,82588,1,0,0:0:0:0:
448,192,82588,1,0,0:0:0:0:
320,192,82588,1,0,0:0:0:0:
192,192,82700,1,0,0:0:0:0:
448,192,82700,1,0,0:0:0:0:
192,192,82810,1,0,0:0:0:0:
64,192,82811,1,0,0:0:0:0:
320,192,82811,1,0,0:0:0:0:
64,192,82921,1,0,0:0:0:0:
320,192,82921,1,0,0:0:0:0:
320,192,83032,1,0,0:0:0:0:
192,192,83032,1,0,0:0:0:0:
64,192,83033,1,0,0:0:0:0:
448,192,83033,1,0,0:0:0:0:
448,192,83143,1,0,0:0:0:0:
320,192,83144,1,0,0:0:0:0:
64,192,83254,1,0,0:0:0:0:
192,192,83254,1,0,0:0:0:0:
448,192,83255,1,0,0:0:0:0:
64,192,83365,1,0,0:0:0:0:
320,192,83365,1,0,0:0:0:0:
192,192,83476,1,0,0:0:0:0:
64,192,83477,1,0,0:0:0:0:
320,192,83477,1,0,0:0:0:0:
448,192,83477,1,0,0:0:0:0:
448,192,83587,1,0,0:0:0:0:
320,192,83588,1,0,0:0:0:0:
64,192,83698,1,0,0:0:0:0:
320,192,83698,1,0,0:0:0:0:
192,192,83699,1,0,0:0:0:0:
448,192,83699,1,0,0:0:0:0:
64,192,83809,1,0,0:0:0:0:
320,192,83810,1,0,0:0:0:0:
64,192,83921,1,0,0:0:0:0:
192,192,83921,1,0,0:0:0:0:
320,192,83921,1,0,0:0:0:0:
448,192,83921,1,0,0:0:0:0:
320,192,84031,1,0,0:0:0:0:
192,192,84032,1,0,0:0:0:0:
64,192,84142,1,0,0:0:0:0:
192,192,84142,1,0,0:0:0:0:
320,192,84143,1,0,0:0:0:0:
448,192,84143,1,0,0:0:0:0:
448,192,84253,1,0,0:0:0:0:
192,192,84254,1,0,0:0:0:0:
320,192,84364,1,0,0:0:0:0:
64,192,84365,1,0,0:0:0:0:
192,192,84365,1,0,0:0:0:0:
448,192,84365,1,0,0:0:0:0:
64,192,84475,1,0,0:0:0:0:
320,192,84476,1,0,0:0:0:0:
320,192,84586,1,0,0:0:0:0:
192,192,84586,1,0,0:0:0:0:
448,192,84587,1,0,0:0:0:0:
320,192,84698,1,0,0:0:0:0:
448,192,84698,1,0,0:0:0:0:
64,192,84698,1,0,0:0:0:0:
192,192,84698,1,0,0:0:0:0:
64,192,84809,1,0,0:0:0:0:
192,192,84809,1,0,0:0:0:0:
320,192,84809,1,0,0:0:0:0:
64,192,84920,1,0,0:0:0:0:
448,192,84920,1,0,0:0:0:0:
192,192,85031,1,0,0:0:0:0:
320,192,85031,1,0,0:0:0:0:
448,192,85031,1,0,0:0:0:0:
320,192,85142,1,0,0:0:0:0:
64,192,85142,1,0,0:0:0:0:
192,192,85142,1,0,0:0:0:0:
64,192,85253,1,0,0:0:0:0:
192,192,85253,1,0,0:0:0:0:
448,192,85253,1,0,0:0:0:0:
320,192,85253,1,0,0:0:0:0:
320,192,85364,1,0,0:0:0:0:
448,192,85364,1,0,0:0:0:0:
320,192,85475,1,0,0:0:0:0:
64,192,85475,1,0,0:0:0:0:
192,192,85475,1,0,0:0:0:0:
192,192,85586,1,0,0:0:0:0:
64,192,85586,1,0,0:0:0:0:
320,192,85586,1,0,0:0:0:0:
448,192,85586,1,0,0:0:0:0:
64,192,85697,1,0,0:0:0:0:
192,192,85697,1,0,0:0:0:0:
448,192,85697,1,0,0:0:0:0:
192,192,85808,1,0,0:0:0:0:
320,192,85808,1,0,0:0:0:0:
64,192,85808,1,0,0:0:0:0:
320,192,85919,1,0,0:0:0:0:
448,192,85919,1,0,0:0:0:0:
64,192,85919,1,0,0:0:0:0:
192,192,85919,1,0,0:0:0:0:
192,192,86030,1,0,0:0:0:0:
448,192,86030,1,0,0:0:0:0:
320,192,86030,1,0,0:0:0:0:
64,192,86141,1,0,0:0:0:0:
192,192,86141,1,0,0:0:0:0:
448,192,86141,1,0,0:0:0:0:
320,192,86141,1,0,0:0:0:0:
64,192,86252,1,0,0:0:0:0:
192,192,86252,1,0,0:0:0:0:
64,192,86363,1,0,0:0:0:0:
320,192,86363,1,0,0:0:0:0:
448,192,86363,1,0,0:0:0:0:
192,192,86474,1,0,0:0:0:0:
448,192,86474,1,0,0:0:0:0:
192,192,86585,1,0,0:0:0:0:
64,192,86586,1,0,0:0:0:0:
320,192,86586,1,0,0:0:0:0:
448,192,86586,1,0,0:0:0:0:
64,192,86696,1,0,0:0:0:0:
320,192,86697,1,0,0:0:0:0:
64,192,86808,1,0,0:0:0:0:
192,192,86808,1,0,0:0:0:0:
320,192,86808,1,0,0:0:0:0:
448,192,86808,1,0,0:0:0:0:
320,192,86918,1,0,0:0:0:0:
192,192,86919,1,0,0:0:0:0:
64,192,87030,1,0,0:0:0:0:
192,192,87030,1,0,0:0:0:0:
320,192,87030,1,0,0:0:0:0:
448,192,87030,1,0,0:0:0:0:
192,192,87140,1,0,0:0:0:0:
64,192,87141,1,0,0:0:0:0:
64,192,87251,1,0,0:0:0:0:
320,192,87251,1,0,0:0:0:0:
192,192,87252,1,0,0:0:0:0:
448,192,87252,1,0,0:0:0:0:
448,192,87362,1,0,0:0:0:0:
64,192,87362,1,0,0:0:0:0:
320,192,87363,1,0,0:0:0:0:
64,192,87474,1,0,0:0:0:0:
192,192,87474,1,0,0:0:0:0:
320,192,87474,1,0,0:0:0:0:
448,192,87474,1,0,0:0:0:0:
448,192,87584,1,0,0:0:0:0:
192,192,87584,1,0,0:0:0:0:
64,192,87695,1,0,0:0:0:0:
448,192,87695,1,0,0:0:0:0:
192,192,87696,1,0,0:0:0:0:
320,192,87696,1,0,0:0:0:0:
64,192,87806,1,0,0:0:0:0:
320,192,87807,1,0,0:0:0:0:
320,192,87917,1,0,0:0:0:0:
64,192,87918,1,0,0:0:0:0:
192,192,87918,1,0,0:0:0:0:
448,192,87918,1,0,0:0:0:0:
192,192,88029,1,0,0:0:0:0:
320,192,88029,1,0,0:0:0:0:
64,192,88139,1,0,0:0:0:0:
320,192,88139,1,0,0:0:0:0:
192,192,88140,1,0,0:0:0:0:
448,192,88140,1,0,0:0:0:0:
192,192,88250,1,0,0:0:0:0:
64,192,88250,1,0,0:0:0:0:
320,192,88251,1,0,0:0:0:0:
448,192,88251,1,0,0:0:0:0:
448,192,88361,1,0,0:0:0:0:
64,192,88362,1,0,0:0:0:0:
192,192,88362,1,0,0:0:0:0:
320,192,88362,1,0,0:0:0:0:
64,192,88473,1,0,0:0:0:0:
448,192,88473,1,0,0:0:0:0:
192,192,88584,1,0,0:0:0:0:
320,192,88584,1,0,0:0:0:0:
448,192,88584,1,0,0:0:0:0:
64,192,88584,1,0,0:0:0:0:
320,192,88695,1,0,0:0:0:0:
64,192,88695,1,0,0:0:0:0:
64,192,88806,1,0,0:0:0:0:
192,192,88806,1,0,0:0:0:0:
448,192,88806,1,0,0:0:0:0:
320,192,88806,1,0,0:0:0:0:
64,192,88917,1,0,0:0:0:0:
192,192,88917,1,0,0:0:0:0:
320,192,88917,1,0,0:0:0:0:
320,192,89028,1,0,0:0:0:0:
448,192,89028,1,0,0:0:0:0:
192,192,89028,1,0,0:0:0:0:
192,192,89139,1,0,0:0:0:0:
320,192,89139,1,0,0:0:0:0:
448,192,89139,1,0,0:0:0:0:
64,192,89139,1,0,0:0:0:0:
64,192,89250,1,0,0:0:0:0:
192,192,89250,1,0,0:0:0:0:
448,192,89250,1,0,0:0:0:0:
320,192,89250,1,0,0:0:0:0:
64,192,89361,1,0,0:0:0:0:
320,192,89361,1,0,0:0:0:0:
448,192,89361,1,0,0:0:0:0:
192,192,89472,1,0,0:0:0:0:
448,192,89472,1,0,0:0:0:0:
64,192,89472,1,0,0:0:0:0:
320,192,89472,1,0,0:0:0:0:
192,192,89583,1,0,0:0:0:0:
320,192,89583,1,0,0:0:0:0:
64,192,89583,1,0,0:0:0:0:
64,192,89694,1,0,0:0:0:0:
320,192,89694,1,0,0:0:0:0:
448,192,89694,1,0,0:0:0:0:
192,192,89694,1,0,0:0:0:0:
192,192,89805,1,0,0:0:0:0:
448,192,89805,1,0,0:0:0:0:
64,192,89916,1,0,0:0:0:0:
320,192,89916,1,0,0:0:0:0:
448,192,89916,1,0,0:0:0:0:
192,192,90027,1,0,0:0:0:0:
320,192,90027,1,0,0:0:0:0:
64,192,90138,1,0,0:0:0:0:
320,192,90138,1,0,0:0:0:0:
448,192,90138,1,0,0:0:0:0:
192,192,90138,1,0,0:0:0:0:
320,192,90249,1,0,0:0:0:0:
448,192,90249,1,0,0:0:0:0:
64,192,90249,1,0,0:0:0:0:
64,192,90360,1,0,0:0:0:0:
320,192,90360,1,0,0:0:0:0:
448,192,90360,1,0,0:0:0:0:
192,192,90360,1,0,0:0:0:0:
320,192,90471,1,0,0:0:0:0:
448,192,90471,1,0,0:0:0:0:
192,192,90472,1,0,0:0:0:0:
448,192,90582,1,0,0:0:0:0:
64,192,90583,1,0,0:0:0:0:
192,192,90583,1,0,0:0:0:0:
320,192,90583,1,0,0:0:0:0:
64,192,90693,1,0,0:0:0:0:
448,192,90694,1,0,0:0:0:0:
192,192,90804,1,0,0:0:0:0:
64,192,90805,1,0,0:0:0:0:
320,192,90805,1,0,0:0:0:0:
448,192,90915,1,0,0:0:0:0:
192,192,90916,1,0,0:0:0:0:
64,192,91027,1,0,0:0:0:0:
192,192,91027,1,0,0:0:0:0:
320,192,91027,1,0,0:0:0:0:
448,192,91027,1,0,0:0:0:0:
64,192,91137,1,0,0:0:0:0:
192,192,91137,1,0,0:0:0:0:
320,192,91138,1,0,0:0:0:0:
448,192,91248,1,0,0:0:0:0:
320,192,91248,1,0,0:0:0:0:
64,192,91249,1,0,0:0:0:0:
192,192,91249,1,0,0:0:0:0:
320,192,91359,1,0,0:0:0:0:
64,192,91359,1,0,0:0:0:0:
448,192,91360,1,0,0:0:0:0:
192,192,91470,1,0,0:0:0:0:
64,192,91471,1,0,0:0:0:0:
320,192,91471,1,0,0:0:0:0:
448,192,91471,1,0,0:0:0:0:
64,192,91581,1,0,0:0:0:0:
192,192,91582,1,0,0:0:0:0:
320,192,91692,1,0,0:0:0:0:
192,192,91692,1,0,0:0:0:0:
448,192,91693,1,0,0:0:0:0:
448,192,91803,1,0,0:0:0:0:
64,192,91803,1,0,0:0:0:0:
192,192,91804,1,0,0:0:0:0:
320,192,91804,1,0,0:0:0:0:
448,192,91914,1,0,0:0:0:0:
64,192,91915,1,0,0:0:0:0:
192,192,91915,1,0,0:0:0:0:
320,192,91915,1,0,0:0:0:0:
192,192,92025,1,0,0:0:0:0:
448,192,92026,1,0,0:0:0:0:
448,192,92136,1,0,0:0:0:0:
64,192,92137,1,0,0:0:0:0:
192,192,92137,1,0,0:0:0:0:
320,192,92137,1,0,0:0:0:0:
64,192,92247,1,0,0:0:0:0:
320,192,92248,1,0,0:0:0:0:
64,192,92359,1,0,0:0:0:0:
192,192,92359,1,0,0:0:0:0:
448,192,92359,1,0,0:0:0:0:
320,192,92359,1,0,0:0:0:0:
64,192,92470,1,0,0:0:0:0:
192,192,92470,1,0,0:0:0:0:
192,192,92581,1,0,0:0:0:0:
320,192,92581,1,0,0:0:0:0:
448,192,92581,1,0,0:0:0:0:
64,192,92692,1,0,0:0:0:0:
192,192,92692,1,0,0:0:0:0:
320,192,92692,1,0,0:0:0:0:
448,192,92692,1,0,0:0:0:0:
64,192,92803,1,0,0:0:0:0:
192,192,92803,1,0,0:0:0:0:
320,192,92803,1,0,0:0:0:0:
448,192,92803,1,0,0:0:0:0:
64,192,92914,1,0,0:0:0:0:
192,192,92914,1,0,0:0:0:0:
192,192,93025,1,0,0:0:0:0:
320,192,93025,1,0,0:0:0:0:
64,192,93025,1,0,0:0:0:0:
448,192,93025,1,0,0:0:0:0:
320,192,93136,1,0,0:0:0:0:
448,192,93136,1,0,0:0:0:0:
64,192,93247,1,0,0:0:0:0:
192,192,93247,1,0,0:0:0:0:
448,192,93247,1,0,0:0:0:0:
320,192,93247,1,0,0:0:0:0:
192,192,93358,1,0,0:0:0:0:
320,192,93358,1,0,0:0:0:0:
64,192,93358,1,0,0:0:0:0:
192,192,93469,1,0,0:0:0:0:
448,192,93469,1,0,0:0:0:0:
64,192,93469,1,0,0:0:0:0:
320,192,93469,1,0,0:0:0:0:
320,192,93580,1,0,0:0:0:0:
448,192,93580,1,0,0:0:0:0:
64,192,93580,1,0,0:0:0:0:
64,192,93691,1,0,0:0:0:0:
192,192,93691,1,0,0:0:0:0:
320,192,93691,1,0,0:0:0:0:
448,192,93691,1,0,0:0:0:0:
448,192,93802,1,0,0:0:0:0:
192,192,93802,1,0,0:0:0:0:
320,192,93802,1,0,0:0:0:0:
64,192,93913,1,0,0:0:0:0:
192,192,93913,1,0,0:0:0:0:
320,192,93913,1,0,0:0:0:0:
448,192,93913,1,0,0:0:0:0:
192,192,94024,1,0,0:0:0:0:
448,192,94024,1,0,0:0:0:0:
64,192,94024,1,0,0:0:0:0:
64,192,94135,1,0,0:0:0:0:
320,192,94135,1,0,0:0:0:0:
448,192,94135,1,0,0:0:0:0:
192,192,94135,1,0,0:0:0:0:
320,192,94246,1,0,0:0:0:0:
64,192,94357,1,0,0:0:0:0:
448,192,94357,1,0,0:0:0:0:
192,192,94468,1,0,0:0:0:0:
64,192,94579,1,0,0:0:0:0:
320,192,94580,1,0,0:0:0:0:
448,192,94690,1,0,0:0:0:0:
192,192,94801,1,0,0:0:0:0:
64,192,94801,1,0,0:0:0:0:
320,192,94912,1,0,0:0:0:0:
192,192,95023,1,0,0:0:0:0:
448,192,95023,1,0,0:0:0:0:
64,192,95024,1,0,0:0:0:0:
320,192,95134,1,0,0:0:0:0:
64,192,95245,1,0,0:0:0:0:
192,192,95245,1,0,0:0:0:0:
448,192,95356,1,0,0:0:0:0:
320,192,95467,1,0,0:0:0:0:
192,192,95467,1,0,0:0:0:0:
64,192,95578,1,0,0:0:0:0:
320,192,95689,1,0,0:0:0:0:
448,192,95690,1,0,0:0:0:0:
192,192,95800,1,0,0:0:0:0:
320,192,95911,1,0,0:0:0:0:
64,192,95912,1,0,0:0:0:0:
448,192,96022,1,0,0:0:0:0:
64,192,96133,1,0,0:0:0:0:
192,192,96134,1,0,0:0:0:0:
320,192,96245,1,0,0:0:0:0:
64,192,96356,1,0,0:0:0:0:
448,192,96356,1,0,0:0:0:0:
192,192,96467,1,0,0:0:0:0:
320,192,96578,1,0,0:0:0:0:
448,192,96578,1,0,0:0:0:0:
64,192,96578,1,0,0:0:0:0:
192,192,96689,1,0,0:0:0:0:
64,192,96800,1,0,0:0:0:0:
448,192,96800,1,0,0:0:0:0:
320,192,96911,1,0,0:0:0:0:
192,192,97022,1,0,0:0:0:0:
448,192,97022,1,0,0:0:0:0:
64,192,97133,1,0,0:0:0:0:
320,192,97244,1,0,0:0:0:0:
448,192,97244,1,0,0:0:0:0:
192,192,97355,1,0,0:0:0:0:
64,192,97466,1,0,0:0:0:0:
320,192,97466,1,0,0:0:0:0:
448,192,97577,1,0,0:0:0:0:
192,192,97688,1,0,0:0:0:0:
64,192,97688,1,0,0:0:0:0:
320,192,97799,1,0,0:0:0:0:
192,192,97910,1,0,0:0:0:0:
448,192,97910,1,0,0:0:0:0:
64,192,98021,1,0,0:0:0:0:
320,192,98132,1,0,0:0:0:0:
448,192,98132,1,0,0:0:0:0:
192,192,98243,1,0,0:0:0:0:
448,192,98354,1,0,0:0:0:0:
320,192,98355,1,0,0:0:0:0:
64,192,98465,1,0,0:0:0:0:
192,192,98576,1,0,0:0:0:0:
320,192,98576,1,0,0:0:0:0:
448,192,98687,1,0,0:0:0:0:
64,192,98798,1,0,0:0:0:0:
192,192,98798,1,0,0:0:0:0:
320,192,98909,1,0,0:0:0:0:
448,192,99020,1,0,0:0:0:0:
192,192,99020,1,0,0:0:0:0:
64,192,99131,1,0,0:0:0:0:
448,192,99242,1,0,0:0:0:0:
320,192,99243,1,0,0:0:0:0:
192,192,99353,1,0,0:0:0:0:
320,192,99464,1,0,0:0:0:0:
64,192,99465,1,0,0:0:0:0:
448,192,99465,1,0,0:0:0:0:
192,192,99575,1,0,0:0:0:0:
448,192,99686,1,0,0:0:0:0:
64,192,99686,1,0,0:0:0:0:
320,192,99797,1,0,0:0:0:0:
192,192,99908,1,0,0:0:0:0:
448,192,99908,1,0,0:0:0:0:
64,192,100020,1,0,0:0:0:0:
448,192,100131,1,0,0:0:0:0:
320,192,100131,1,0,0:0:0:0:
192,192,100242,1,0,0:0:0:0:
64,192,100353,1,0,0:0:0:0:
320,192,100353,1,0,0:0:0:0:
448,192,100464,1,0,0:0:0:0:
192,192,100575,1,0,0:0:0:0:
64,192,100575,1,0,0:0:0:0:
320,192,100686,1,0,0:0:0:0:
64,192,100797,1,0,0:0:0:0:
192,192,100797,1,0,0:0:0:0:
448,192,100797,1,0,0:0:0:0:
320,192,100908,1,0,0:0:0:0:
64,192,101019,1,0,0:0:0:0:
192,192,101019,1,0,0:0:0:0:
448,192,101130,1,0,0:0:0:0:
64,192,101241,1,0,0:0:0:0:
192,192,101241,1,0,0:0:0:0:
320,192,101241,1,0,0:0:0:0:
448,192,101241,1,0,0:0:0:0:
64,192,101352,1,0,0:0:0:0:
320,192,101463,1,0,0:0:0:0:
192,192,101463,1,0,0:0:0:0:
448,192,101574,1,0,0:0:0:0:
64,192,101685,1,0,0:0:0:0:
192,192,101685,1,0,0:0:0:0:
320,192,101796,1,0,0:0:0:0:
448,192,101907,1,0,0:0:0:0:
64,192,101907,1,0,0:0:0:0:
192,192,102018,1,0,0:0:0:0:
320,192,102129,1,0,0:0:0:0:
64,192,102130,1,0,0:0:0:0:
448,192,102240,1,0,0:0:0:0:
192,192,102351,1,0,0:0:0:0:
320,192,102351,1,0,0:0:0:0:
64,192,102462,1,0,0:0:0:0:
192,192,102573,1,0,0:0:0:0:
320,192,102573,1,0,0:0:0:0:
448,192,102684,1,0,0:0:0:0:
64,192,102795,1,0,0:0:0:0:
320,192,102796,1,0,0:0:0:0:
192,192,102906,1,0,0:0:0:0:
64,192,103018,1,0,0:0:0:0:
448,192,103018,1,0,0:0:0:0:
320,192,103128,1,0,0:0:0:0:
192,192,103239,1,0,0:0:0:0:
448,192,103239,1,0,0:0:0:0:
64,192,103350,1,0,0:0:0:0:
192,192,103461,1,0,0:0:0:0:
320,192,103462,1,0,0:0:0:0:
448,192,103572,1,0,0:0:0:0:
64,192,103683,1,0,0:0:0:0:
320,192,103684,1,0,0:0:0:0:
192,192,103794,1,0,0:0:0:0:
448,192,103906,1,0,0:0:0:0:
320,192,103906,1,0,0:0:0:0:
64,192,104017,1,0,0:0:0:0:
192,192,104128,1,0,0:0:0:0:
320,192,104128,1,0,0:0:0:0:
448,192,104239,1,0,0:0:0:0:
64,192,104350,1,0,0:0:0:0:
192,192,104350,1,0,0:0:0:0:
320,192,104461,1,0,0:0:0:0:
192,192,104572,1,0,0:0:0:0:
448,192,104572,1,0,0:0:0:0:
64,192,104683,1,0,0:0:0:0:
320,192,104794,1,0,0:0:0:0:
448,192,104794,1,0,0:0:0:0:
192,192,104905,1,0,0:0:0:0:
64,192,105016,1,0,0:0:0:0:
448,192,105016,1,0,0:0:0:0:
320,192,105127,1,0,0:0:0:0:
64,192,105238,1,0,0:0:0:0:
192,192,105238,1,0,0:0:0:0:
448,192,105349,1,0,0:0:0:0:
320,192,105460,1,0,0:0:0:0:
64,192,105460,1,0,0:0:0:0:
192,192,105571,1,0,0:0:0:0:
448,192,105682,1,0,0:0:0:0:
64,192,105682,1,0,0:0:0:0:
320,192,105793,1,0,0:0:0:0:
192,192,105904,1,0,0:0:0:0:
448,192,105904,1,0,0:0:0:0:
64,192,106015,1,0,0:0:0:0:
320,192,106126,1,0,0:0:0:0:
448,192,106126,1,0,0:0:0:0:
192,192,106237,1,0,0:0:0:0:
64,192,106348,1,0,0:0:0:0:
320,192,106348,1,0,0:0:0:0:
192,192,106459,1,0,0:0:0:0:
64,192,106571,1,0,0:0:0:0:
320,192,106571,1,0,0:0:0:0:
448,192,106571,1,0,0:0:0:0:
192,192,106681,1,0,0:0:0:0:
64,192,106792,1,0,0:0:0:0:
320,192,106792,1,0,0:0:0:0:
192,192,106793,1,0,0:0:0:0:
192,192,106903,1,0,0:0:0:0:
64,192,106904,1,0,0:0:0:0:
448,192,106904,1,0,0:0:0:0:
64,192,107015,1,0,0:0:0:0:
320,192,107015,1,0,0:0:0:0:
64,192,107125,1,0,0:0:0:0:
192,192,107126,1,0,0:0:0:0:
320,192,107126,1,0,0:0:0:0:
320,192,107236,1,0,0:0:0:0:
192,192,107237,1,0,0:0:0:0:
448,192,107237,1,0,0:0:0:0:
64,192,107348,1,0,0:0:0:0:
320,192,107348,1,0,0:0:0:0:
64,192,107459,1,0,0:0:0:0:
192,192,107459,1,0,0:0:0:0:
448,192,107459,1,0,0:0:0:0:
64,192,107569,1,0,0:0:0:0:
192,192,107570,1,0,0:0:0:0:
320,192,107570,1,0,0:0:0:0:
320,192,107680,1,0,0:0:0:0:
192,192,107681,1,0,0:0:0:0:
448,192,107681,1,0,0:0:0:0:
64,192,107792,1,0,0:0:0:0:
320,192,107792,1,0,0:0:0:0:
448,192,107792,1,0,0:0:0:0:
64,192,107903,1,0,0:0:0:0:
192,192,107903,1,0,0:0:0:0:
448,192,107903,1,0,0:0:0:0:
320,192,107903,1,0,0:0:0:0:
192,192,108014,1,0,0:0:0:0:
448,192,108014,1,0,0:0:0:0:
64,192,108014,1,0,0:0:0:0:
64,192,108125,1,0,0:0:0:0:
192,192,108125,1,0,0:0:0:0:
320,192,108125,1,0,0:0:0:0:
448,192,108125,1,0,0:0:0:0:
192,192,108236,1,0,0:0:0:0:
320,192,108236,1,0,0:0:0:0:
448,192,108236,1,0,0:0:0:0:
64,192,108347,1,0,0:0:0:0:
192,192,108347,1,0,0:0:0:0:
320,192,108347,1,0,0:0:0:0:
448,192,108347,1,0,0:0:0:0:
64,192,108458,1,0,0:0:0:0:
320,192,108458,1,0,0:0:0:0:
192,192,108458,1,0,0:0:0:0:
192,192,108569,1,0,0:0:0:0:
448,192,108569,1,0,0:0:0:0:
64,192,108569,1,0,0:0:0:0:
320,192,108569,1,0,0:0:0:0:
448,192,108680,1,0,0:0:0:0:
320,192,108680,1,0,0:0:0:0:
64,192,108680,1,0,0:0:0:0:
64,192,108791,1,0,0:0:0:0:
320,192,108791,1,0,0:0:0:0:
448,192,108791,1,0,0:0:0:0:
192,192,108791,1,0,0:0:0:0:
192,192,108902,1,0,0:0:0:0:
448,192,108902,1,0,0:0:0:0:
64,192,108902,1,0,0:0:0:0:
64,192,109013,1,0,0:0:0:0:
320,192,109013,1,0,0:0:0:0:
192,192,109013,1,0,0:0:0:0:
448,192,109013,1,0,0:0:0:0:
192,192,109124,1,0,0:0:0:0:
320,192,109124,1,0,0:0:0:0:
64,192,109124,1,0,0:0:0:0:
64,192,109235,1,0,0:0:0:0:
192,192,109235,1,0,0:0:0:0:
448,192,109235,1,0,0:0:0:0:
320,192,109235,1,0,0:0:0:0:
64,192,109346,1,0,0:0:0:0:
320,192,109346,1,0,0:0:0:0:
448,192,109346,1,0,0:0:0:0:
192,192,109457,1,0,0:0:0:0:
448,192,109457,1,0,0:0:0:0:
320,192,109457,1,0,0:0:0:0:
64,192,109457,1,0,0:0:0:0:
192,192,109568,1,0,0:0:0:0:
320,192,109568,1,0,0:0:0:0:
448,192,109568,1,0,0:0:0:0:
192,192,109679,1,0,0:0:0:0:
64,192,109680,1,0,0:0:0:0:
320,192,109680,1,0,0:0:0:0:
448,192,109680,1,0,0:0:0:0:
64,192,109790,1,0,0:0:0:0:
192,192,109791,1,0,0:0:0:0:
448,192,109791,1,0,0:0:0:0:
192,192,109901,1,0,0:0:0:0:
448,192,109901,1,0,0:0:0:0:
64,192,109902,1,0,0:0:0:0:
320,192,109902,1,0,0:0:0:0:
448,192,110012,1,0,0:0:0:0:
320,192,110012,1,0,0:0:0:0:
192,192,110013,1,0,0:0:0:0:
192,192,110123,1,0,0:0:0:0:
448,192,110123,1,0,0:0:0:0:
64,192,110124,1,0,0:0:0:0:
320,192,110124,1,0,0:0:0:0:
320,192,110234,1,0,0:0:0:0:
64,192,110234,1,0,0:0:0:0:
192,192,110234,1,0,0:0:0:0:
320,192,110345,1,0,0:0:0:0:
448,192,110345,1,0,0:0:0:0:
64,192,110345,1,0,0:0:0:0:
192,192,110346,1,0,0:0:0:0:
192,192,110456,1,0,0:0:0:0:
64,192,110456,1,0,0:0:0:0:
448,192,110457,1,0,0:0:0:0:
448,192,110567,1,0,0:0:0:0:
64,192,110568,1,0,0:0:0:0:
192,192,110568,1,0,0:0:0:0:
320,192,110568,1,0,0:0:0:0:
320,192,110678,1,0,0:0:0:0:
192,192,110678,1,0,0:0:0:0:
448,192,110679,1,0,0:0:0:0:
192,192,110789,1,0,0:0:0:0:
448,192,110789,1,0,0:0:0:0:
64,192,110790,1,0,0:0:0:0:
320,192,110790,1,0,0:0:0:0:
64,192,110900,1,0,0:0:0:0:
448,192,110900,1,0,0:0:0:0:
192,192,110901,1,0,0:0:0:0:
64,192,111011,1,0,0:0:0:0:
192,192,111012,1,0,0:0:0:0:
320,192,111012,1,0,0:0:0:0:
448,192,111012,1,0,0:0:0:0:
320,192,111122,1,0,0:0:0:0:
448,192,111122,1,0,0:0:0:0:
64,192,111123,1,0,0:0:0:0:
448,192,111233,1,0,0:0:0:0:
192,192,111233,1,0,0:0:0:0:
64,192,111233,1,0,0:0:0:0:
320,192,111234,1,0,0:0:0:0:
320,192,111344,1,0,0:0:0:0:
64,192,111344,1,0,0:0:0:0:
192,192,111345,1,0,0:0:0:0:
448,192,111455,1,0,0:0:0:0:
64,192,111456,1,0,0:0:0:0:
192,192,111456,1,0,0:0:0:0:
320,192,111456,1,0,0:0:0:0:
448,192,111567,1,0,0:0:0:0:
192,192,111567,1,0,0:0:0:0:
320,192,111567,1,0,0:0:0:0:
64,192,111678,1,0,0:0:0:0:
192,192,111678,1,0,0:0:0:0:
320,192,111678,1,0,0:0:0:0:
448,192,111678,1,0,0:0:0:0:
448,192,111789,1,0,0:0:0:0:
64,192,111789,1,0,0:0:0:0:
192,192,111789,1,0,0:0:0:0:
192,192,111900,1,0,0:0:0:0:
320,192,111900,1,0,0:0:0:0:
448,192,111900,1,0,0:0:0:0:
64,192,111900,1,0,0:0:0:0:
64,192,112011,1,0,0:0:0:0:
320,192,112011,1,0,0:0:0:0:
448,192,112011,1,0,0:0:0:0:
320,192,112122,1,0,0:0:0:0:
192,192,112122,1,0,0:0:0:0:
64,192,112122,1,0,0:0:0:0:
448,192,112122,1,0,0:0:0:0:
64,192,112233,1,0,0:0:0:0:
192,192,112233,1,0,0:0:0:0:
320,192,112233,1,0,0:0:0:0:
192,192,112344,1,0,0:0:0:0:
320,192,112344,1,0,0:0:0:0:
448,192,112344,1,0,0:0:0:0:
64,192,112344,1,0,0:0:0:0:
192,192,112455,1,0,0:0:0:0:
320,192,112455,1,0,0:0:0:0:
448,192,112455,1,0,0:0:0:0:
64,192,112566,1,0,0:0:0:0:
320,192,112566,1,0,0:0:0:0:
448,192,112566,1,0,0:0:0:0:
192,192,112566,1,0,0:0:0:0:
448,192,112677,1,0,0:0:0:0:
320,192,112677,1,0,0:0:0:0:
64,192,112677,1,0,0:0:0:0:
64,192,112788,1,0,0:0:0:0:
192,192,112788,1,0,0:0:0:0:
448,192,112788,1,0,0:0:0:0:
320,192,112788,1,0,0:0:0:0:
192,192,112899,1,0,0:0:0:0:
64,192,112899,1,0,0:0:0:0:
448,192,112899,1,0,0:0:0:0:
64,192,113010,1,0,0:0:0:0:
192,192,113010,1,0,0:0:0:0:
320,192,113010,1,0,0:0:0:0:
448,192,113010,1,0,0:0:0:0:
320,192,113121,1,0,0:0:0:0:
448,192,113121,1,0,0:0:0:0:
192,192,113121,1,0,0:0:0:0:
64,192,113232,1,0,0:0:0:0:
192,192,113232,1,0,0:0:0:0:
320,192,113232,1,0,0:0:0:0:
448,192,113232,1,0,0:0:0:0:
320,192,113343,1,0,0:0:0:0:
64,192,113343,1,0,0:0:0:0:
192,192,113343,1,0,0:0:0:0:
64,192,113454,1,0,0:0:0:0:
192,192,113454,1,0,0:0:0:0:
448,192,113454,1,0,0:0:0:0:
320,192,113454,1,0,0:0:0:0:
448,192,113565,1,0,0:0:0:0:
64,192,113565,1,0,0:0:0:0:
320,192,113566,1,0,0:0:0:0:
320,192,113676,1,0,0:0:0:0:
64,192,113677,1,0,0:0:0:0:
192,192,113677,1,0,0:0:0:0:
448,192,113677,1,0,0:0:0:0:
192,192,113787,1,0,0:0:0:0:
448,192,113787,1,0,0:0:0:0:
64,192,113788,1,0,0:0:0:0:
64,192,113898,1,0,0:0:0:0:
192,192,113898,1,0,0:0:0:0:
448,192,113898,1,0,0:0:0:0:
320,192,113899,1,0,0:0:0:0:
320,192,114009,1,0,0:0:0:0:
64,192,114010,1,0,0:0:0:0:
448,192,114010,1,0,0:0:0:0:
448,192,114120,1,0,0:0:0:0:
64,192,114121,1,0,0:0:0:0:
192,192,114121,1,0,0:0:0:0:
320,192,114121,1,0,0:0:0:0:
192,192,114231,1,0,0:0:0:0:
64,192,114231,1,0,0:0:0:0:
448,192,114232,1,0,0:0:0:0:
320,192,114342,1,0,0:0:0:0:
64,192,114343,1,0,0:0:0:0:
192,192,114343,1,0,0:0:0:0:
448,192,114343,1,0,0:0:0:0:
192,192,114453,1,0,0:0:0:0:
64,192,114453,1,0,0:0:0:0:
320,192,114454,1,0,0:0:0:0:
320,192,114564,1,0,0:0:0:0:
64,192,114565,1,0,0:0:0:0:
192,192,114565,1,0,0:0:0:0:
448,192,114565,1,0,0:0:0:0:
448,192,114675,1,0,0:0:0:0:
192,192,114675,1,0,0:0:0:0:
320,192,114676,1,0,0:0:0:0:
192,192,114786,1,0,0:0:0:0:
320,192,114786,1,0,0:0:0:0:
448,192,114786,1,0,0:0:0:0:
64,192,114787,1,0,0:0:0:0:
64,192,114897,1,0,0:0:0:0:
448,192,114897,1,0,0:0:0:0:
320,192,114898,1,0,0:0:0:0:
64,192,115009,1,0,0:0:0:0:
192,192,115009,1,0,0:0:0:0:
320,192,115009,1,0,0:0:0:0:
448,192,115009,1,0,0:0:0:0:
320,192,115119,1,0,0:0:0:0:
192,192,115119,1,0,0:0:0:0:
64,192,115120,1,0,0:0:0:0:
64,192,115230,1,0,0:0:0:0:
192,192,115231,1,0,0:0:0:0:
320,192,115231,1,0,0:0:0:0:
448,192,115231,1,0,0:0:0:0:
192,192,115341,1,0,0:0:0:0:
320,192,115341,1,0,0:0:0:0:
448,192,115342,1,0,0:0:0:0:
64,192,115453,1,0,0:0:0:0:
192,192,115453,1,0,0:0:0:0:
320,192,115453,1,0,0:0:0:0:
448,192,115453,1,0,0:0:0:0:
192,192,115564,1,0,0:0:0:0:
64,192,115564,1,0,0:0:0:0:
448,192,115564,1,0,0:0:0:0:
320,192,115675,1,0,0:0:0:0:
448,192,115675,1,0,0:0:0:0:
192,192,115675,1,0,0:0:0:0:
64,192,115675,1,0,0:0:0:0:
192,192,115786,1,0,0:0:0:0:
320,192,115786,1,0,0:0:0:0:
64,192,115786,1,0,0:0:0:0:
64,192,115897,1,0,0:0:0:0:
192,192,115897,1,0,0:0:0:0:
320,192,115897,1,0,0:0:0:0:
448,192,115897,1,0,0:0:0:0:
192,192,116008,1,0,0:0:0:0:
448,192,116008,1,0,0:0:0:0:
64,192,116008,1,0,0:0:0:0:
320,192,116119,1,0,0:0:0:0:
448,192,116119,1,0,0:0:0:0:
64,192,116119,1,0,0:0:0:0:
192,192,116119,1,0,0:0:0:0:
192,192,116230,1,0,0:0:0:0:
320,192,116230,1,0,0:0:0:0:
448,192,116230,1,0,0:0:0:0:
64,192,116341,1,0,0:0:0:0:
320,192,116341,1,0,0:0:0:0:
448,192,116341,1,0,0:0:0:0:
192,192,116341,1,0,0:0:0:0:
192,192,116452,1,0,0:0:0:0:
64,192,116452,1,0,0:0:0:0:
448,192,116452,1,0,0:0:0:0:
320,192,116563,1,0,0:0:0:0:
64,192,116563,1,0,0:0:0:0:
192,192,116563,1,0,0:0:0:0:
448,192,116563,1,0,0:0:0:0:
192,192,116674,1,0,0:0:0:0:
448,192,116674,1,0,0:0:0:0:
320,192,116674,1,0,0:0:0:0:
64,192,116785,1,0,0:0:0:0:
192,192,116785,1,0,0:0:0:0:
320,192,116785,1,0,0:0:0:0:
448,192,116785,1,0,0:0:0:0:
64,192,116896,1,0,0:0:0:0:
320,192,116896,1,0,0:0:0:0:
448,192,116896,1,0,0:0:0:0:
192,192,117007,1,0,0:0:0:0:
320,192,117007,1,0,0:0:0:0:
448,192,117007,1,0,0:0:0:0:
64,192,117007,1,0,0:0:0:0:
448,192,117118,1,0,0:0:0:0:
192,192,117118,1,0,0:0:0:0:
64,192,117118,1,0,0:0:0:0:
64,192,117229,1,0,0:0:0:0:
192,192,117229,1,0,0:0:0:0:
448,192,117229,1,0,0:0:0:0:
320,192,117229,1,0,0:0:0:0:
192,192,117340,1,0,0:0:0:0:
64,192,117340,1,0,0:0:0:0:
320,192,117341,1,0,0:0:0:0:
448,192,117451,1,0,0:0:0:0:
320,192,117451,1,0,0:0:0:0:
64,192,117451,1,0,0:0:0:0:
192,192,117452,1,0,0:0:0:0:
448,192,117562,1,0,0:0:0:0:
64,192,117563,1,0,0:0:0:0:
320,192,117563,1,0,0:0:0:0:
320,192,117673,1,0,0:0:0:0:
64,192,117674,1,0,0:0:0:0:
192,192,117674,1,0,0:0:0:0:
448,192,117674,1,0,0:0:0:0:
192,192,117784,1,0,0:0:0:0:
448,192,117784,1,0,0:0:0:0:
320,192,117785,1,0,0:0:0:0:
448,192,117895,1,0,0:0:0:0:
64,192,117896,1,0,0:0:0:0:
192,192,117896,1,0,0:0:0:0:
320,192,117896,1,0,0:0:0:0:
192,192,118006,1,0,0:0:0:0:
64,192,118006,1,0,0:0:0:0:
448,192,118007,1,0,0:0:0:0:
448,192,118117,1,0,0:0:0:0:
64,192,118118,1,0,0:0:0:0:
192,192,118118,1,0,0:0:0:0:
320,192,118118,1,0,0:0:0:0:
192,192,118228,1,0,0:0:0:0:
448,192,118228,1,0,0:0:0:0:
320,192,118229,1,0,0:0:0:0:
448,192,118339,1,0,0:0:0:0:
320,192,118339,1,0,0:0:0:0:
64,192,118339,1,0,0:0:0:0:
192,192,118340,1,0,0:0:0:0:
64,192,118450,1,0,0:0:0:0:
192,192,118450,1,0,0:0:0:0:
448,192,118451,1,0,0:0:0:0:
448,192,118561,1,0,0:0:0:0:
64,192,118562,1,0,0:0:0:0:
192,192,118562,1,0,0:0:0:0:
320,192,118562,1,0,0:0:0:0:
320,192,118672,1,0,0:0:0:0:
192,192,118672,1,0,0:0:0:0:
448,192,118673,1,0,0:0:0:0:
64,192,118783,1,0,0:0:0:0:
448,192,118783,1,0,0:0:0:0:
192,192,118784,1,0,0:0:0:0:
320,192,118784,1,0,0:0:0:0:
64,192,118894,1,0,0:0:0:0:
192,192,118894,1,0,0:0:0:0:
448,192,118895,1,0,0:0:0:0:
320,192,119005,1,0,0:0:0:0:
64,192,119006,1,0,0:0:0:0:
192,192,119006,1,0,0:0:0:0:
448,192,119006,1,0,0:0:0:0:
448,192,119116,1,0,0:0:0:0:
192,192,119116,1,0,0:0:0:0:
320,192,119117,1,0,0:0:0:0:
320,192,119227,1,0,0:0:0:0:
192,192,119227,1,0,0:0:0:0:
64,192,119227,1,0,0:0:0:0:
448,192,119228,1,0,0:0:0:0:
320,192,119339,1,0,0:0:0:0:
192,192,119339,1,0,0:0:0:0:
64,192,119339,1,0,0:0:0:0:
64,192,119450,1,0,0:0:0:0:
192,192,119450,1,0,0:0:0:0:
448,192,119450,1,0,0:0:0:0:
320,192,119450,1,0,0:0:0:0:
192,192,119561,1,0,0:0:0:0:
448,192,119561,1,0,0:0:0:0:
64,192,119561,1,0,0:0:0:0:
64,192,119672,1,0,0:0:0:0:
320,192,119672,1,0,0:0:0:0:
448,192,119672,1,0,0:0:0:0:
192,192,119672,1,0,0:0:0:0:
320,192,119783,1,0,0:0:0:0:
64,192,119783,1,0,0:0:0:0:
448,192,119783,1,0,0:0:0:0:
64,192,119894,1,0,0:0:0:0:
192,192,119894,1,0,0:0:0:0:
448,192,119894,1,0,0:0:0:0:
320,192,119894,1,0,0:0:0:0:
192,192,120005,1,0,0:0:0:0:
320,192,120005,1,0,0:0:0:0:
448,192,120005,1,0,0:0:0:0:
320,192,120116,1,0,0:0:0:0:
64,192,120116,1,0,0:0:0:0:
192,192,120116,1,0,0:0:0:0:
448,192,120116,1,0,0:0:0:0:
64,192,120227,1,0,0:0:0:0:
448,192,120227,1,0,0:0:0:0:
320,192,120227,1,0,0:0:0:0:
64,192,120338,1,0,0:0:0:0:
192,192,120338,1,0,0:0:0:0:
320,192,120338,1,0,0:0:0:0:
448,192,120338,1,0,0:0:0:0:
448,192,120449,1,0,0:0:0:0:
192,192,120449,1,0,0:0:0:0:
64,192,120449,1,0,0:0:0:0:
64,192,120560,1,0,0:0:0:0:
192,192,120560,1,0,0:0:0:0:
448,192,120560,1,0,0:0:0:0:
320,192,120560,1,0,0:0:0:0:
320,192,120671,1,0,0:0:0:0:
192,192,120671,1,0,0:0:0:0:
64,192,120671,1,0,0:0:0:0:
64,192,120782,1,0,0:0:0:0:
192,192,120782,1,0,0:0:0:0:
320,192,120782,1,0,0:0:0:0:
448,192,120782,1,0,0:0:0:0:
320,192,120893,1,0,0:0:0:0:
448,192,120893,1,0,0:0:0:0:
64,192,120893,1,0,0:0:0:0:
192,192,121004,1,0,0:0:0:0:
448,192,121004,1,0,0:0:0:0:
320,192,121004,1,0,0:0:0:0:
64,192,121004,1,0,0:0:0:0:
64,192,121115,1,0,0:0:0:0:
192,192,121115,1,0,0:0:0:0:
320,192,121115,1,0,0:0:0:0:
320,192,121226,1,0,0:0:0:0:
64,192,121227,1,0,0:0:0:0:
192,192,121227,1,0,0:0:0:0:
448,192,121227,1,0,0:0:0:0:
192,192,121337,1,0,0:0:0:0:
448,192,121337,1,0,0:0:0:0:
320,192,121338,1,0,0:0:0:0:
448,192,121448,1,0,0:0:0:0:
64,192,121449,1,0,0:0:0:0:
192,192,121449,1,0,0:0:0:0:
320,192,121449,1,0,0:0:0:0:
64,192,121559,1,0,0:0:0:0:
192,192,121560,1,0,0:0:0:0:
448,192,121560,1,0,0:0:0:0:
192,192,121670,1,0,0:0:0:0:
64,192,121671,1,0,0:0:0:0:
320,192,121671,1,0,0:0:0:0:
448,192,121671,1,0,0:0:0:0:
448,192,121781,1,0,0:0:0:0:
192,192,121782,1,0,0:0:0:0:
320,192,121782,1,0,0:0:0:0:
320,192,121892,1,0,0:0:0:0:
64,192,121893,1,0,0:0:0:0:
192,192,121893,1,0,0:0:0:0:
448,192,121893,1,0,0:0:0:0:
64,192,122003,1,0,0:0:0:0:
192,192,122004,1,0,0:0:0:0:
320,192,122004,1,0,0:0:0:0:
64,192,122115,1,0,0:0:0:0:
192,192,122115,1,0,0:0:0:0:
320,192,122115,1,0,0:0:0:0:
448,192,122115,1,0,0:0:0:0:
448,192,122225,1,0,0:0:0:0:
192,192,122226,1,0,0:0:0:0:
320,192,122226,1,0,0:0:0:0:
320,192,122336,1,0,0:0:0:0:
64,192,122337,1,0,0:0:0:0:
192,192,122337,1,0,0:0:0:0:
448,192,122337,1,0,0:0:0:0:
448,192,122447,1,0,0:0:0:0:
64,192,122448,1,0,0:0:0:0:
192,192,122448,1,0,0:0:0:0:
320,192,122448,1,0,0:0:0:0:
64,192,122558,128,0,126111:0:0:0:0:
192,192,122558,128,0,126111:0:0:0:0:
320,192,122558,128,0,126111:0:0:0:0:
448,192,122558,128,0,126111:0:0:0:0:
