osu file format v14

[General]
AudioFilename: audio.mp3
AudioLeadIn: 0
PreviewTime: 57664
Countdown: 0
SampleSet: Normal
StackLeniency: 0.7
Mode: 1
LetterboxInBreaks: 0
WidescreenStoryboard: 0

[Editor]
DistanceSpacing: 0.5
BeatDivisor: 4
GridSize: 32
TimelineZoom: 1.5

[Metadata]
Title:Believe in Stars
TitleUnicode:Believe in Stars
Artist:Sirius
ArtistUnicode:Sirius
Creator:Aloda
Version:Oni
Source:バトルガールハイスクール
Tags:Battle Girl Highschool Asahina Kokomi Narumi Haruka Himukai Yuri Kusunoki Asuha Wakaba Subaru
BeatmapID:999023
BeatmapSetID:466845

[Difficulty]
HPDrainRate:6
CircleSize:2
OverallDifficulty:6
ApproachRate:7
SliderMultiplier:1.4
SliderTickRate:1

[Events]
//Background and Video events
0,0,"thisissiriusbusinessahahaha.jpg",0,100
//Break Periods
//Storyboard Layer 0 (Background)
//Storyboard Layer 1 (Fail)
//Storyboard Layer 2 (Pass)
//Storyboard Layer 3 (Foreground)
//Storyboard Sound Samples

[TimingPoints]
1522,342.857142857143,4,1,0,100,1,0
1522,-111.111111111111,4,1,0,50,0,0
12489,-100,4,1,0,70,0,0
57407,-80,4,1,0,100,0,0
57750,-90.9090909090909,4,1,0,90,0,1
82436,-90.9090909090909,4,1,0,90,0,0

[HitObjects]
256,192,1522,5,0,0:0:0:0:
256,192,2207,1,0,0:0:0:0:
256,192,2893,1,8,0:0:0:0:
256,192,3579,1,0,0:0:0:0:
256,192,4264,1,0,0:0:0:0:
256,192,4950,1,8,0:0:0:0:
256,192,5636,1,8,0:0:0:0:
256,192,6322,1,0,0:0:0:0:
256,192,7007,1,0,0:0:0:0:
256,192,7350,1,0,0:0:0:0:
256,192,7693,1,0,0:0:0:0:
256,192,7864,1,8,0:0:0:0:
256,192,8036,1,8,0:0:0:0:
256,192,8207,1,0,0:0:0:0:
256,192,8379,1,8,0:0:0:0:
256,192,8550,1,0,0:0:0:0:
256,192,8722,1,8,0:0:0:0:
256,192,8893,1,8,0:0:0:0:
256,192,9064,1,0,0:0:0:0:
256,192,9322,1,0,0:0:0:0:
256,192,9579,1,0,0:0:0:0:
256,192,9750,1,8,0:0:0:0:
256,192,10264,1,8,0:0:0:0:
256,192,10350,1,8,0:0:0:0:
256,192,10436,1,0,0:0:0:0:
256,192,11122,1,0,0:0:0:0:
256,192,11807,1,8,0:0:0:0:
256,192,12493,1,4,0:0:0:0:
256,192,12836,1,8,0:0:0:0:
256,192,13179,1,0,0:0:0:0:
256,192,13350,1,0,0:0:0:0:
256,192,13522,1,8,0:0:0:0:
256,192,13693,1,8,0:0:0:0:
256,192,13779,1,8,0:0:0:0:
256,192,13864,1,0,0:0:0:0:
256,192,14036,1,0,0:0:0:0:
256,192,14207,1,8,0:0:0:0:
256,192,14379,1,8,0:0:0:0:
256,192,14550,1,0,0:0:0:0:
256,192,14636,1,0,0:0:0:0:
256,192,14722,1,8,0:0:0:0:
256,192,14893,1,0,0:0:0:0:
256,192,15064,1,8,0:0:0:0:
256,192,15236,1,0,0:0:0:0:
256,192,15579,1,0,0:0:0:0:
256,192,15750,1,0,0:0:0:0:
256,192,15836,1,8,0:0:0:0:
256,192,15922,1,8,0:0:0:0:
256,192,16093,1,0,0:0:0:0:
256,192,16264,1,8,0:0:0:0:
256,192,16436,1,0,0:0:0:0:
256,192,16607,1,8,0:0:0:0:
256,192,16693,1,8,0:0:0:0:
256,192,16779,1,0,0:0:0:0:
256,192,16950,1,0,0:0:0:0:
256,192,17122,1,8,0:0:0:0:
256,192,17293,1,0,0:0:0:0:
256,192,17379,1,0,0:0:0:0:
256,192,17464,1,8,0:0:0:0:
256,192,17636,1,8,0:0:0:0:
256,192,17807,1,0,0:0:0:0:
256,192,17979,1,0,0:0:0:0:
256,192,18322,1,0,0:0:0:0:
256,192,18493,1,8,0:0:0:0:
256,192,18664,1,8,0:0:0:0:
256,192,18750,1,0,0:0:0:0:
256,192,18836,1,8,0:0:0:0:
256,192,19007,1,0,0:0:0:0:
256,192,19179,1,8,0:0:0:0:
256,192,19350,1,0,0:0:0:0:
256,192,19436,1,0,0:0:0:0:
256,192,19522,1,8,0:0:0:0:
256,192,19693,1,0,0:0:0:0:
256,192,19864,1,0,0:0:0:0:
256,192,20036,1,8,0:0:0:0:
256,192,20122,1,0,0:0:0:0:
256,192,20207,1,0,0:0:0:0:
256,192,20379,1,8,0:0:0:0:
256,192,20550,1,0,0:0:0:0:
256,192,20636,1,0,0:0:0:0:
256,192,20722,1,8,0:0:0:0:
256,192,21064,1,8,0:0:0:0:
256,192,21236,1,0,0:0:0:0:
256,192,21322,1,0,0:0:0:0:
256,192,21407,1,8,0:0:0:0:
256,192,21579,1,8,0:0:0:0:
256,192,21750,1,8,0:0:0:0:
256,192,21922,1,0,0:0:0:0:
256,192,22264,1,0,0:0:0:0:
256,192,22350,1,0,0:0:0:0:
256,192,22436,1,8,0:0:0:0:
256,192,22607,1,8,0:0:0:0:
256,192,22779,5,4,0:0:0:0:
256,192,22950,1,4,0:0:0:0:
96,192,23464,5,0,0:0:0:0:
96,192,23807,1,8,0:0:0:0:
96,192,23979,1,0,0:0:0:0:
96,192,24150,1,8,0:0:0:0:
96,192,24493,1,8,0:0:0:0:
96,192,24664,1,0,0:0:0:0:
96,192,25007,1,0,0:0:0:0:
96,192,25179,1,8,0:0:0:0:
96,192,25350,1,0,0:0:0:0:
96,192,25522,1,0,0:0:0:0:
96,192,25693,1,0,0:0:0:0:
96,192,25779,1,0,0:0:0:0:
96,192,25864,1,8,0:0:0:0:
96,192,26207,1,0,0:0:0:0:
96,192,26379,1,8,0:0:0:0:
96,192,26464,1,0,0:0:0:0:
96,192,26550,1,8,0:0:0:0:
96,192,26722,1,0,0:0:0:0:
96,192,26893,1,8,0:0:0:0:
96,192,26979,1,8,0:0:0:0:
96,192,27064,1,0,0:0:0:0:
96,192,27236,1,0,0:0:0:0:
96,192,27407,1,8,0:0:0:0:
96,192,27579,1,8,0:0:0:0:
96,192,27664,1,8,0:0:0:0:
96,192,27750,1,0,0:0:0:0:
96,192,27922,1,0,0:0:0:0:
96,192,28093,1,8,0:0:0:0:
96,192,28264,1,0,0:0:0:0:
96,192,28436,1,0,0:0:0:0:
96,192,28607,1,8,0:0:0:0:
96,192,28950,1,0,0:0:0:0:
96,192,29293,1,0,0:0:0:0:
96,192,29465,1,0,0:0:0:0:
96,192,29636,1,8,0:0:0:0:
96,192,29979,1,8,0:0:0:0:
96,192,30150,1,0,0:0:0:0:
96,192,30493,1,8,0:0:0:0:
96,192,30664,1,0,0:0:0:0:
96,192,30836,1,0,0:0:0:0:
96,192,30922,1,0,0:0:0:0:
96,192,31008,1,8,0:0:0:0:
96,192,31179,1,0,0:0:0:0:
96,192,31350,1,8,0:0:0:0:
96,192,31693,1,8,0:0:0:0:
96,192,31865,1,0,0:0:0:0:
96,192,31950,1,0,0:0:0:0:
96,192,32036,1,8,0:0:0:0:
96,192,32208,1,0,0:0:0:0:
96,192,32379,1,8,0:0:0:0:
96,192,32465,1,8,0:0:0:0:
96,192,32550,1,0,0:0:0:0:
96,192,32722,1,0,0:0:0:0:
96,192,32893,1,8,0:0:0:0:
96,192,33064,1,0,0:0:0:0:
96,192,33150,1,0,0:0:0:0:
96,192,33236,1,8,0:0:0:0:
96,192,33408,1,0,0:0:0:0:
96,192,33579,1,8,0:0:0:0:
96,192,33750,1,8,0:0:0:0:
96,192,33864,1,0,0:0:0:0:
96,192,33979,1,0,0:0:0:0:
96,192,34093,1,8,0:0:0:0:
128,192,34207,1,0,0:0:0:0:
128,192,34322,1,0,0:0:0:0:
96,192,34436,1,12,0:0:0:0:
96,192,34779,1,12,0:0:0:0:
256,192,35036,1,0,0:0:0:0:
256,192,35122,1,0,0:0:0:0:
96,160,35293,1,4,0:0:0:0:
96,160,35636,1,4,0:0:0:0:
224,192,36150,1,0,0:0:0:0:
96,192,36493,1,12,0:0:0:0:
96,192,36836,1,12,0:0:0:0:
160,192,37179,1,8,0:0:0:0:
160,192,37350,1,4,0:0:0:0:
160,192,37692,1,4,0:0:0:0:
160,192,37864,1,8,0:0:0:0:
160,192,37979,1,8,0:0:0:0:
160,192,38093,1,8,0:0:0:0:
160,192,38207,1,0,0:0:0:0:
160,192,38550,1,12,0:0:0:0:
160,192,38893,1,12,0:0:0:0:
160,192,39150,1,8,0:0:0:0:
160,192,39236,1,0,0:0:0:0:
160,192,39407,1,0,0:0:0:0:
26,198,39579,1,0,0:0:0:0:
32,192,39750,1,8,0:0:0:0:
32,192,39922,1,0,0:0:0:0:
17,201,40093,1,8,0:0:0:0:
26,198,40264,1,0,0:0:0:0:
26,198,40436,1,0,0:0:0:0:
26,198,40607,1,8,0:0:0:0:
160,192,40950,1,8,0:0:0:0:
192,192,41122,1,8,0:0:0:0:
160,192,41464,1,4,0:0:0:0:
128,192,41807,1,4,0:0:0:0:
256,192,42493,1,4,0:0:0:0:
96,192,42836,1,8,0:0:0:0:
96,192,43007,1,0,0:0:0:0:
64,224,43350,1,0,0:0:0:0:
64,224,43522,1,0,0:0:0:0:
64,224,43693,1,8,0:0:0:0:
64,192,43864,1,0,0:0:0:0:
64,224,44207,1,0,0:0:0:0:
64,224,44379,1,8,0:0:0:0:
64,192,44722,1,0,0:0:0:0:
64,224,45064,1,0,0:0:0:0:
64,224,45236,1,8,0:0:0:0:
64,224,45579,1,0,0:0:0:0:
64,224,45750,1,8,0:0:0:0:
64,224,46093,1,0,0:0:0:0:
64,224,46264,1,0,0:0:0:0:
64,224,46436,1,8,0:0:0:0:
96,224,46607,1,0,0:0:0:0:
64,224,46950,1,0,0:0:0:0:
64,224,47122,1,8,0:0:0:0:
64,224,47464,1,0,0:0:0:0:
64,224,47636,1,0,0:0:0:0:
64,224,47722,1,0,0:0:0:0:
64,224,47807,1,8,0:0:0:0:
64,224,47893,1,0,0:0:0:0:
64,224,47979,1,0,0:0:0:0:
64,224,48064,1,0,0:0:0:0:
64,224,48150,1,8,0:0:0:0:
64,224,48322,1,0,0:0:0:0:
64,224,48493,1,0,0:0:0:0:
64,224,48579,1,0,0:0:0:0:
64,224,48664,1,8,0:0:0:0:
64,224,48836,1,0,0:0:0:0:
64,224,49007,1,8,0:0:0:0:
64,224,49179,1,8,0:0:0:0:
64,224,49264,1,0,0:0:0:0:
64,224,49350,1,8,0:0:0:0:
64,224,49522,1,0,0:0:0:0:
64,224,49693,1,8,0:0:0:0:
64,224,49864,1,8,0:0:0:0:
64,224,49950,1,8,0:0:0:0:
64,224,50036,1,0,0:0:0:0:
64,224,50207,1,8,0:0:0:0:
64,224,50379,1,8,0:0:0:0:
64,224,50550,1,8,0:0:0:0:
64,224,50636,1,8,0:0:0:0:
64,224,50722,1,8,0:0:0:0:
96,192,50893,1,0,0:0:0:0:
128,192,51064,1,8,0:0:0:0:
128,192,51236,1,8,0:0:0:0:
128,192,51322,1,8,0:0:0:0:
128,192,51407,1,0,0:0:0:0:
128,192,51493,1,8,0:0:0:0:
128,192,51579,1,0,0:0:0:0:
128,192,51750,1,8,0:0:0:0:
128,192,51922,1,8,0:0:0:0:
128,192,52007,1,8,0:0:0:0:
128,192,52093,1,0,0:0:0:0:
128,192,52179,1,0,0:0:0:0:
128,192,52264,1,0,0:0:0:0:
128,192,52436,1,8,0:0:0:0:
128,192,52607,1,0,0:0:0:0:
128,192,52693,1,0,0:0:0:0:
128,192,52779,1,8,0:0:0:0:
128,192,52864,1,8,0:0:0:0:
128,192,52950,1,0,0:0:0:0:
128,192,53122,1,8,0:0:0:0:
128,224,53293,1,8,0:0:0:0:
128,224,53379,1,8,0:0:0:0:
128,224,53464,1,0,0:0:0:0:
128,192,53636,1,12,0:0:0:0:
128,192,53807,1,0,0:0:0:0:
128,192,53979,1,12,0:0:0:0:
128,192,54150,1,0,0:0:0:0:
128,192,54322,1,12,0:0:0:0:
128,224,54493,1,0,0:0:0:0:
128,224,54664,1,12,0:0:0:0:
128,224,54836,1,8,0:0:0:0:
128,192,55007,1,0,0:0:0:0:
128,224,55179,1,0,0:0:0:0:
128,224,55264,1,0,0:0:0:0:
128,224,55350,1,8,0:0:0:0:
128,224,55436,1,8,0:0:0:0:
128,224,55522,1,8,0:0:0:0:
128,224,55607,1,8,0:0:0:0:
128,224,55693,1,0,0:0:0:0:
128,224,55779,1,8,0:0:0:0:
128,224,55864,1,8,0:0:0:0:
128,224,55950,1,8,0:0:0:0:
128,224,56036,1,0,0:0:0:0:
128,224,56122,1,8,0:0:0:0:
128,224,56207,1,8,0:0:0:0:
128,224,56293,1,8,0:0:0:0:
128,224,56379,1,0,0:0:0:0:
256,192,57407,1,4,0:0:0:0:
96,192,57750,1,0,0:0:0:0:
96,192,57922,1,0,0:0:0:0:
96,192,58007,1,0,0:0:0:0:
96,192,58093,1,0,0:0:0:0:
96,192,58264,1,8,0:0:0:0:
96,192,58436,1,0,0:0:0:0:
96,192,58607,1,0,0:0:0:0:
96,192,58693,1,0,0:0:0:0:
96,192,58779,1,0,0:0:0:0:
96,192,58950,1,8,0:0:0:0:
96,192,59122,1,0,0:0:0:0:
96,192,59293,1,8,0:0:0:0:
96,192,59379,1,8,0:0:0:0:
96,192,59464,1,0,0:0:0:0:
96,192,59550,1,0,0:0:0:0:
96,192,59636,1,8,0:0:0:0:
96,192,59807,1,0,0:0:0:0:
96,192,59979,1,8,0:0:0:0:
96,192,60064,1,8,0:0:0:0:
96,192,60150,1,0,0:0:0:0:
96,192,60322,1,0,0:0:0:0:
96,192,60493,1,8,0:0:0:0:
96,192,60664,1,0,0:0:0:0:
96,192,60750,1,0,0:0:0:0:
96,192,60836,1,8,0:0:0:0:
96,192,60922,1,8,0:0:0:0:
96,192,61007,1,0,0:0:0:0:
96,192,61179,1,8,0:0:0:0:
96,192,61350,1,0,0:0:0:0:
96,192,61522,1,8,0:0:0:0:
96,192,61693,1,0,0:0:0:0:
96,192,61865,1,8,0:0:0:0:
96,192,61951,1,8,0:0:0:0:
96,192,62036,1,0,0:0:0:0:
96,192,62122,1,8,0:0:0:0:
96,192,62208,1,0,0:0:0:0:
96,192,62379,1,0,0:0:0:0:
96,192,62550,1,8,0:0:0:0:
96,192,62636,1,8,0:0:0:0:
96,192,62722,1,0,0:0:0:0:
96,192,62807,1,0,0:0:0:0:
96,192,62893,1,8,0:0:0:0:
96,192,63236,1,0,0:0:0:0:
96,192,63579,1,0,0:0:0:0:
96,192,63750,1,0,0:0:0:0:
96,192,63836,1,0,0:0:0:0:
96,192,63922,1,8,0:0:0:0:
96,192,64093,1,0,0:0:0:0:
96,192,64264,1,8,0:0:0:0:
96,192,64436,1,0,0:0:0:0:
96,192,64607,1,0,0:0:0:0:
96,192,64779,1,0,0:0:0:0:
96,192,64864,1,0,0:0:0:0:
96,192,64950,1,8,0:0:0:0:
96,192,65122,1,0,0:0:0:0:
96,192,65207,1,8,0:0:0:0:
96,192,65293,1,8,0:0:0:0:
96,192,65464,1,0,0:0:0:0:
96,192,65636,1,8,0:0:0:0:
96,192,65979,1,0,0:0:0:0:
96,192,66150,1,8,0:0:0:0:
96,192,66236,1,8,0:0:0:0:
96,192,66322,1,0,0:0:0:0:
96,192,66493,1,0,0:0:0:0:
96,192,66664,1,8,0:0:0:0:
96,192,66836,1,0,0:0:0:0:
96,192,66922,1,8,0:0:0:0:
96,192,67007,1,8,0:0:0:0:
96,192,67179,1,8,0:0:0:0:
96,192,67350,1,0,0:0:0:0:
96,192,67522,1,0,0:0:0:0:
96,192,67693,1,8,0:0:0:0:
96,192,67864,1,8,0:0:0:0:
96,192,68036,1,0,0:0:0:0:
160,192,68207,1,0,0:0:0:0:
160,192,68293,1,0,0:0:0:0:
160,192,68379,1,8,0:0:0:0:
160,192,68464,1,8,0:0:0:0:
160,192,68550,1,8,0:0:0:0:
160,192,68636,1,8,0:0:0:0:
96,192,68722,1,0,0:0:0:0:
96,192,68894,1,0,0:0:0:0:
96,192,68979,1,0,0:0:0:0:
96,192,69065,1,8,0:0:0:0:
96,192,69236,1,8,0:0:0:0:
96,192,69408,1,0,0:0:0:0:
96,192,69579,1,0,0:0:0:0:
96,192,69665,1,0,0:0:0:0:
96,192,69750,1,8,0:0:0:0:
96,192,69922,1,0,0:0:0:0:
96,192,70093,1,8,0:0:0:0:
96,192,70265,1,8,0:0:0:0:
96,192,70351,1,8,0:0:0:0:
96,192,70436,1,0,0:0:0:0:
96,192,70522,1,0,0:0:0:0:
96,192,70608,1,8,0:0:0:0:
96,192,70779,1,8,0:0:0:0:
96,192,70950,1,0,0:0:0:0:
96,192,71036,1,0,0:0:0:0:
96,192,71122,1,8,0:0:0:0:
96,192,71294,1,0,0:0:0:0:
96,192,71465,1,8,0:0:0:0:
96,192,71636,1,0,0:0:0:0:
96,192,71722,1,0,0:0:0:0:
96,192,71808,1,8,0:0:0:0:
96,192,71894,1,8,0:0:0:0:
96,192,71979,1,0,0:0:0:0:
96,192,72151,1,0,0:0:0:0:
96,192,72322,1,8,0:0:0:0:
96,192,72494,1,8,0:0:0:0:
96,192,72664,1,0,0:0:0:0:
96,192,72837,1,8,0:0:0:0:
96,192,72923,1,8,0:0:0:0:
96,192,73008,1,0,0:0:0:0:
96,192,73093,1,0,0:0:0:0:
96,192,73180,1,0,0:0:0:0:
96,192,73351,1,8,0:0:0:0:
96,192,73522,1,8,0:0:0:0:
96,192,73608,1,0,0:0:0:0:
96,192,73694,1,0,0:0:0:0:
96,192,73779,1,0,0:0:0:0:
96,192,73865,1,8,0:0:0:0:
96,192,74036,1,0,0:0:0:0:
96,192,74207,1,8,0:0:0:0:
96,192,74550,1,0,0:0:0:0:
96,192,74722,1,0,0:0:0:0:
96,192,74893,1,0,0:0:0:0:
96,192,74979,1,0,0:0:0:0:
96,192,75064,1,8,0:0:0:0:
96,192,75150,1,8,0:0:0:0:
96,192,75236,1,0,0:0:0:0:
96,192,75407,1,0,0:0:0:0:
96,192,75579,1,8,0:0:0:0:
96,192,75922,1,0,0:0:0:0:
96,192,76093,1,0,0:0:0:0:
96,192,76264,1,8,0:0:0:0:
96,192,76350,1,8,0:0:0:0:
96,192,76436,1,0,0:0:0:0:
96,192,76522,1,0,0:0:0:0:
96,192,76607,1,8,0:0:0:0:
96,192,76779,1,0,0:0:0:0:
96,192,76950,1,12,0:0:0:0:
96,192,77122,1,0,0:0:0:0:
96,192,77293,1,12,0:0:0:0:
96,192,77464,1,0,0:0:0:0:
96,192,77636,1,12,0:0:0:0:
96,192,77807,1,0,0:0:0:0:
96,192,77979,1,12,0:0:0:0:
128,192,78150,1,0,0:0:0:0:
128,192,78322,1,0,0:0:0:0:
128,192,78493,1,8,0:0:0:0:
128,192,78579,1,8,0:0:0:0:
128,192,78664,1,8,0:0:0:0:
128,192,78836,1,0,0:0:0:0:
128,192,79007,1,0,0:0:0:0:
128,192,79093,1,8,0:0:0:0:
128,192,79179,1,8,0:0:0:0:
128,192,79264,1,8,0:0:0:0:
128,192,79350,1,0,0:0:0:0:
128,192,79436,1,0,0:0:0:0:
128,192,79522,1,8,0:0:0:0:
128,160,79693,1,12,0:0:0:0:
128,160,80036,1,0,0:0:0:0:
128,160,80207,1,0,0:0:0:0:
128,160,80379,1,8,0:0:0:0:
128,160,80550,1,0,0:0:0:0:
128,160,80636,1,0,0:0:0:0:
128,160,80722,1,0,0:0:0:0:
128,160,80893,1,8,0:0:0:0:
128,160,81236,1,8,0:0:0:0:
128,160,81322,1,0,0:0:0:0:
128,160,81407,1,0,0:0:0:0:
128,160,81579,1,0,0:0:0:0:
128,160,81922,1,0,0:0:0:0:
128,160,82093,1,8,0:0:0:0:
128,160,82436,1,0,0:0:0:0:
