osu file format v14

[General]
AudioFilename: audio.mp3
AudioLeadIn: 0
PreviewTime: 57664
Countdown: 0
SampleSet: Normal
StackLeniency: 0.7
Mode: 1
LetterboxInBreaks: 0
WidescreenStoryboard: 0

[Editor]
DistanceSpacing: 0.5
BeatDivisor: 4
GridSize: 32
TimelineZoom: 1.5

[Metadata]
Title:Believe in Stars
TitleUnicode:Believe in Stars
Artist:Sirius
ArtistUnicode:Sirius
Creator:Aloda
Version:Kantan
Source:バトルガールハイスクール
Tags:Battle Girl Highschool Asahina Kokomi Narumi Haruka Himukai Yuri Kusunoki Asuha Wakaba Subaru
BeatmapID:999086
BeatmapSetID:466845

[Difficulty]
HPDrainRate:7
CircleSize:2
OverallDifficulty:4
ApproachRate:7
SliderMultiplier:1.4
SliderTickRate:1

[Events]
//Background and Video events
0,0,"thisissiriusbusinessahahaha.jpg",0,100
//Break Periods
//Storyboard Layer 0 (Background)
//Storyboard Layer 1 (Fail)
//Storyboard Layer 2 (Pass)
//Storyboard Layer 3 (Foreground)
//Storyboard Sound Samples

[TimingPoints]
1522,342.857142857143,4,1,0,100,1,0
1522,-111.111111111111,4,1,0,50,0,0
12489,-100,4,1,0,70,0,0
57407,-100,4,1,0,100,0,0
57750,-100,4,1,0,90,0,1
82436,-100,4,1,0,90,0,0

[HitObjects]
256,192,1522,5,0,0:0:0:0:
256,192,2893,1,0,0:0:0:0:
256,192,4264,1,8,0:0:0:0:
256,192,5636,1,0,0:0:0:0:
256,192,7007,1,0,0:0:0:0:
224,160,8379,1,0,0:0:0:0:
256,192,9750,1,0,0:0:0:0:
256,192,11122,1,8,0:0:0:0:
256,192,12493,5,8,0:0:0:0:
256,192,13179,1,0,0:0:0:0:
256,192,13864,1,0,0:0:0:0:
256,192,14207,1,0,0:0:0:0:
256,192,14550,1,8,0:0:0:0:
256,192,15236,1,8,0:0:0:0:
256,192,15922,1,0,0:0:0:0:
256,192,16607,1,0,0:0:0:0:
256,192,16950,1,8,0:0:0:0:
256,192,17293,1,0,0:0:0:0:
256,192,17979,1,8,0:0:0:0:
256,192,18664,1,0,0:0:0:0:
256,192,19350,1,8,0:0:0:0:
256,192,19693,1,0,0:0:0:0:
256,192,20036,1,8,0:0:0:0:
256,192,20722,1,8,0:0:0:0:
256,192,21407,1,0,0:0:0:0:
256,192,22093,1,4,0:0:0:0:
256,192,22436,1,4,0:0:0:0:
256,192,22779,1,12,0:0:0:0:
256,192,23464,5,0,0:0:0:0:
256,192,24150,1,8,0:0:0:0:
256,192,24836,1,0,0:0:0:0:
128,192,25179,1,0,0:0:0:0:
128,192,25522,1,8,0:0:0:0:
160,192,26207,1,0,0:0:0:0:
160,192,26893,1,8,0:0:0:0:
160,192,27579,1,0,0:0:0:0:
160,192,27922,1,8,0:0:0:0:
160,192,28264,1,0,0:0:0:0:
160,192,28950,1,0,0:0:0:0:
160,192,29636,1,8,0:0:0:0:
160,192,30322,1,0,0:0:0:0:
160,192,30664,1,8,0:0:0:0:
160,192,31007,1,0,0:0:0:0:
160,192,31693,1,0,0:0:0:0:
160,192,32379,1,0,0:0:0:0:
160,192,33064,1,0,0:0:0:0:
160,192,33407,1,0,0:0:0:0:
160,192,33750,1,8,0:0:0:0:
160,192,34436,1,12,0:0:0:0:
160,192,35293,1,4,0:0:0:0:
192,192,36493,1,12,0:0:0:0:
192,192,37350,1,4,0:0:0:0:
160,192,38550,1,12,0:0:0:0:
256,192,39407,1,4,0:0:0:0:
160,192,40607,1,0,0:0:0:0:
160,192,41293,1,12,0:0:0:0:
256,192,42493,1,12,0:0:0:0:
160,192,43350,1,8,0:0:0:0:
160,192,44036,1,0,0:0:0:0:
192,192,44722,1,0,0:0:0:0:
256,192,45064,1,0,0:0:0:0:
256,192,45407,1,8,0:0:0:0:
192,192,46093,1,8,0:0:0:0:
192,192,46779,1,0,0:0:0:0:
192,192,47464,1,8,0:0:0:0:
192,192,47807,1,8,0:0:0:0:
192,192,48150,1,0,0:0:0:0:
192,192,48836,1,0,0:0:0:0:
192,192,49522,1,0,0:0:0:0:
256,192,49864,1,0,0:0:0:0:
192,192,50207,1,0,0:0:0:0:
192,192,50893,1,8,0:0:0:0:
192,192,51579,1,0,0:0:0:0:
192,192,52264,1,8,0:0:0:0:
192,192,52950,1,0,0:0:0:0:
192,192,53636,1,12,0:0:0:0:
192,192,54322,1,12,0:0:0:0:
192,192,55007,1,8,0:0:0:0:
192,192,55350,1,8,0:0:0:0:
192,192,55693,1,8,0:0:0:0:
256,192,57750,1,0,0:0:0:0:
256,192,58436,1,0,0:0:0:0:
256,192,59122,1,8,0:0:0:0:
256,192,59807,1,0,0:0:0:0:
256,192,60493,1,0,0:0:0:0:
256,192,60836,1,8,0:0:0:0:
256,192,61179,1,0,0:0:0:0:
256,192,61864,1,0,0:0:0:0:
256,192,62207,1,0,0:0:0:0:
256,192,62550,1,8,0:0:0:0:
256,192,63236,1,0,0:0:0:0:
256,192,63922,1,0,0:0:0:0:
256,192,64607,1,8,0:0:0:0:
256,192,65293,1,0,0:0:0:0:
256,192,65979,1,0,0:0:0:0:
256,192,66322,1,0,0:0:0:0:
256,192,66664,1,0,0:0:0:0:
256,192,67350,1,0,0:0:0:0:
256,192,67693,1,8,0:0:0:0:
256,192,68036,1,0,0:0:0:0:
256,192,68722,1,0,0:0:0:0:
256,192,69407,1,0,0:0:0:0:
256,192,70093,1,8,0:0:0:0:
256,192,70779,1,0,0:0:0:0:
256,192,71464,1,8,0:0:0:0:
256,192,71807,1,8,0:0:0:0:
256,192,72150,1,8,0:0:0:0:
256,192,72836,1,0,0:0:0:0:
256,192,73179,1,8,0:0:0:0:
256,192,73522,1,0,0:0:0:0:
256,192,74207,1,0,0:0:0:0:
256,192,74893,1,8,0:0:0:0:
256,192,75579,1,0,0:0:0:0:
256,192,76264,1,8,0:0:0:0:
256,192,76950,1,8,0:0:0:0:
256,192,77293,1,8,0:0:0:0:
256,192,77636,1,0,0:0:0:0:
256,192,78322,1,0,0:0:0:0:
256,192,78664,1,0,0:0:0:0:
256,192,79007,1,8,0:0:0:0:
256,192,79350,1,8,0:0:0:0:
256,192,79693,1,8,0:0:0:0:
256,192,80893,1,12,0:0:0:0:
256,192,81579,1,0,0:0:0:0:
256,192,82436,1,8,0:0:0:0:
