osu file format v14

[General]
AudioFilename: audio.mp3
AudioLeadIn: 0
PreviewTime: 72895
Countdown: 0
SampleSet: None
StackLeniency: 0.2
Mode: 0
LetterboxInBreaks: 0
WidescreenStoryboard: 0

[Editor]
Bookmarks: 54842,63413,68556,71985,72842,85270,89128,97699,99413,121413,126842,140556,167985,181699,190270,195413,198842,253699
DistanceSpacing: 4.15
BeatDivisor: 4
GridSize: 4
TimelineZoom: 1.32

[Metadata]
Title:Coming Home
TitleUnicode:Coming Home
Artist:Sirensceol
ArtistUnicode:Sirensceol
Creator:Lilynn
Version:Jump
Source:
Tags:Dubstep Electronic Dubcore Glitchhop Glitch hop Jumps Jump Map
BeatmapID:1772705
BeatmapSetID:847682

[Difficulty]
HPDrainRate:4
CircleSize:4
OverallDifficulty:8
ApproachRate:10
SliderMultiplier:2.1
SliderTickRate:1

[Events]
//Background and Video events
0,0,"reallly aesthetic and really good artwork.jpg",0,0
//Break Periods
2,127042,140106
//Storyboard Layer 0 (Background)
//Storyboard Layer 1 (Fail)
//Storyboard Layer 2 (Pass)
//Storyboard Layer 3 (Foreground)
//Storyboard Sound Samples

[TimingPoints]
41128,428.571428571429,4,2,0,40,1,0
41128,-222.222222222221,4,2,0,40,0,0
41770,-1000,4,2,0,40,0,0
42413,-222.222222222222,4,2,0,40,0,0
43485,-1000,4,2,0,40,0,0
44128,-222.222222222222,4,2,0,40,0,0
45199,-1000,4,2,0,40,0,0
45842,-222.222222222222,4,2,0,40,0,0
47128,-400,4,2,0,40,0,0
47556,-222.222222222222,4,2,0,40,0,0
47985,-222.222222222222,4,2,0,40,0,0
48628,-1000,4,2,0,40,0,0
49270,-222.222222222222,4,2,0,40,0,0
50342,-1000,4,2,0,40,0,0
50985,-222.222222222222,4,2,0,40,0,0
52699,-1000,4,2,0,40,0,0
53128,-222.222222222222,4,2,0,40,0,0
54413,-1000,4,2,0,40,0,0
62556,-500,4,2,0,40,0,0
63413,-666.666666666667,4,2,0,40,0,0
64270,-1000,4,2,0,40,0,0
65128,-2000,4,2,0,40,0,0
65985,-222.222222222222,4,2,0,40,0,0
66413,-333.333333333333,4,2,0,40,0,0
66842,-500,4,2,0,40,0,0
67270,-666.666666666667,4,2,0,40,0,0
67699,-1000,4,2,0,40,0,0
68556,-200,4,2,0,40,0,0
71985,-1000,4,2,0,40,0,0
72842,-100,4,2,0,40,0,0
75413,-1000,4,2,0,40,0,0
76270,-100,4,2,0,40,0,0
78842,-1000,4,2,0,40,0,0
79699,-100,4,2,0,40,0,0
82270,-1000,4,2,0,40,0,0
83128,-100,4,2,0,40,0,0
83985,-1000,4,2,0,40,0,0
84842,-100,4,2,0,40,0,0
85270,-1000,4,2,0,40,0,0
85556,-200,4,2,0,40,0,0
85699,-1000,4,2,0,40,0,0
86556,-100,4,2,0,40,0,0
89128,-1000,4,2,0,40,0,0
89985,-100,4,2,0,40,0,0
92556,-1000,4,2,0,40,0,0
93413,-100,4,2,0,40,0,0
95985,-1000,4,2,0,40,0,0
96842,-100,4,2,0,40,0,0
97699,-1000,4,2,0,40,0,0
99413,-500,4,2,0,40,0,0
100699,-222.222222222222,4,2,0,40,0,0
101128,-100,4,2,0,40,0,0
102413,-222.222222222222,4,2,0,40,0,0
102842,-500,4,2,0,40,0,0
104128,-222.222222222222,4,2,0,40,0,0
104556,-100,4,2,0,40,0,0
105842,-222.222222222222,4,2,0,40,0,0
106270,-1000,4,2,0,40,0,0
107128,-100,4,2,0,40,0,0
107556,-222.222222222222,4,2,0,40,0,0
107985,-100,4,2,0,40,0,0
109270,-222.222222222222,4,2,0,40,0,0
109699,-500,4,2,0,40,0,0
110556,-100,4,2,0,40,0,0
110985,-222.222222222222,4,2,0,40,0,0
111413,-100,4,2,0,40,0,0
112270,-133.333333333333,4,2,0,40,0,0
113556,-222.222222222222,4,2,0,40,0,0
113878,-100,4,2,0,40,0,0
114413,-222.222222222222,4,2,0,40,0,0
114842,-100,4,2,0,40,0,0
116128,-1000,4,2,0,40,0,0
116556,-500,4,2,0,40,0,0
117413,-100,4,2,0,40,0,0
117842,-222.222222222222,4,2,0,40,0,0
118270,-100,4,2,0,40,0,0
119556,-133.333333333333,4,2,0,40,0,0
119985,-500,4,2,0,40,0,0
120842,-100,4,2,0,40,0,0
121485,-133.333333333333,4,2,0,40,0,0
121699,-100,4,2,0,40,0,0
122985,-133.333333333333,4,2,0,40,0,0
123413,-500,4,2,0,40,0,0
124270,-100,4,2,0,40,0,0
124699,-133.333333333333,4,2,0,40,0,0
124913,-222.222222222222,4,2,0,40,0,0
125128,-100,4,2,0,40,0,0
126413,-500,4,2,0,40,0,0
140556,-200,4,2,0,40,0,0
145378,-500,4,2,0,40,0,0
145699,-222.222222222222,4,2,0,40,0,0
146556,-500,4,2,0,40,0,0
148270,-200,4,2,0,40,0,0
152128,-500,4,2,0,40,0,0
152556,-222.222222222222,4,2,0,40,0,0
153413,-133.333333333333,4,2,0,40,0,0
153842,-500,4,2,0,40,0,0
154270,-222.222222222222,4,2,0,40,0,0
154913,-1000,4,2,0,40,0,0
155556,-222.222222222222,4,2,0,40,0,0
156628,-1000,4,2,0,40,0,0
157270,-222.222222222222,4,2,0,40,0,0
158342,-1000,4,2,0,40,0,0
158985,-222.222222222222,4,2,0,40,0,0
160056,-1000,4,2,0,40,0,0
160699,-222.222222222222,4,2,0,40,0,0
161770,-1000,4,2,0,40,0,0
162413,-222.222222222222,4,2,0,40,0,0
163485,-1000,4,2,0,40,0,0
164128,-222.222222222222,4,2,0,40,0,0
165199,-1000,4,2,0,40,0,0
165842,-222.222222222222,4,2,0,40,0,0
167556,-1000,4,2,0,40,0,0

[Colours]
Combo1 : 209,235,248
Combo2 : 209,241,235
Combo3 : 223,206,247
Combo4 : 253,213,238

[HitObjects]
16,191,41128,6,0,P|61:187|105:207,1,94.4999971160892
170,249,41770,2,0,L|181:250,1,10.5
248,218,42413,6,0,P|253:195|253:172,1,47.2499985580446
203,115,42842,6,0,B|251:123|250:113|251:107|303:115,1,94.4999971160892
369,148,43485,2,0,L|370:160,1,10.5
400,225,44128,6,0,P|373:231|350:227,1,47.2499985580446
295,180,44556,6,0,B|292:228|301:227|307:226|305:279,1,94.4999971160892
252,329,45199,2,0,L|239:327,1,10.5
174,349,45842,6,0,P|170:320|175:302,1,47.2499985580446
215,225,46270,6,0,P|219:191|209:155,2,70.8749978370669
172,313,47128,6,0,L|144:318,1,26.25
92,237,47556,2,0,L|145:242,1,47.2499985580446
247,311,47985,6,0,B|236:265|231:267|222:270|213:223,1,94.4999971160892
257,157,48628,6,0,L|267:161,1,10.5
326,202,49270,6,0,P|336:183|338:156,1,47.2499985580445
304,93,49699,6,0,B|347:113|350:104|351:99|395:117,1,94.4999971160892
441,181,50342,6,0,L|441:193,1,10.5
386,244,50985,2,0,L|339:249,1,47.2499985580445
279,295,51413,5,0,0:0:0:0:
279,295,51520,2,0,P|239:297|208:289,1,70.8749978370667
136,269,52056,6,0,L|139:318,2,47.2499985580445
186,203,52699,6,0,L|184:193,1,10.5
152,123,53128,2,0,B|110:110|103:137|56:123,2,94.499997116089
250,165,54413,2,0,L|267:164,1,15.75
356,113,54842,6,0,P|377:114|399:118,1,42
436,217,56556,6,0,P|414:221|393:222,1,42
295,194,58270,6,0,P|273:190|252:189,1,42
158,213,59556,1,0,0:0:0:0:
158,213,59985,2,0,L|161:237,2,21
77,146,61270,6,0,L|78:132,1,10.5
134,56,61699,2,0,B|151:52|151:52|170:52,1,36.75
251,98,62556,6,0,P|283:103|324:102,1,73.5
438,69,63413,6,0,L|444:124,1,55.1249983177186
402,197,64270,6,0,L|401:237,1,36.75
317,307,65128,6,0,P|296:307|280:310,1,36.75
209,266,65985,6,0,P|172:263|141:252,1,70.8749978370667
77,195,66413,6,0,L|71:149,1,47.2499985580445
187,103,66842,6,0,L|180:133,1,31.5
259,198,67270,6,0,L|261:174,1,23.6249992790222
330,265,67699,6,0,L|323:285,1,21
252,332,68556,6,0,B|248:270|293:219|346:225|392:261|445:150|400:79|334:73|296:84|268:108|268:108|253:75|224:53|151:46|103:90|102:204|157:187|202:222|183:281,1,735,0|0,2:2|2:3,0:0:0:0:
102,301,71985,6,0,P|105:281|113:264,1,36.75
203,148,72842,5,0,0:0:0:0:
225,321,72985,1,0,0:0:0:0:
110,144,73128,5,0,0:0:0:0:
302,254,73270,1,0,0:0:0:0:
117,353,73413,1,0,0:0:0:0:
203,148,73556,5,0,0:0:0:0:
228,357,73699,5,0,0:0:0:0:
0,266,73842,1,0,0:0:0:0:
241,223,73985,5,0,0:0:0:0:
99,357,74128,1,0,0:0:0:0:
130,80,74270,1,0,0:0:0:0:
306,297,74413,5,0,0:0:0:0:
50,180,74556,1,0,0:0:0:0:
363,211,74699,1,0,0:0:0:0:
87,364,74842,5,0,0:0:0:0:
266,105,74985,1,0,0:0:0:0:
228,357,75128,5,0,0:0:0:0:
210,42,75270,1,0,0:0:0:0:
241,223,75413,2,0,L|247:184,1,36.75
266,105,76270,5,0,0:0:0:0:
438,72,76413,1,0,0:0:0:0:
373,234,76556,1,0,0:0:0:0:
374,21,76699,5,0,0:0:0:0:
448,270,76842,1,0,0:0:0:0:
200,193,76985,1,0,0:0:0:0:
505,150,77128,5,0,0:0:0:0:
268,248,77270,1,0,0:0:0:0:
375,30,77413,1,0,0:0:0:0:
351,310,77556,1,0,0:0:0:0:
305,96,77699,1,0,0:0:0:0:
448,270,77842,1,0,0:0:0:0:
154,177,77985,5,0,0:0:0:0:
505,150,78128,1,0,0:0:0:0:
249,232,78270,1,0,0:0:0:0:
375,41,78413,5,0,0:0:0:0:
351,310,78556,1,0,0:0:0:0:
305,96,78699,1,0,0:0:0:0:
351,310,78842,6,0,B|334:308|334:308|313:310,1,36.75
176,333,79699,5,0,0:0:0:0:
181,79,79842,1,0,0:0:0:0:
366,236,79985,1,0,0:0:0:0:
89,187,80128,5,0,0:0:0:0:
385,108,80270,1,0,0:0:0:0:
239,347,80413,1,0,0:0:0:0:
292,36,80556,5,0,0:0:0:0:
366,342,80699,1,0,0:0:0:0:
97,177,80842,5,0,0:0:0:0:
452,166,80985,1,0,0:0:0:0:
169,230,81128,5,0,0:0:0:0:
466,86,81270,1,0,0:0:0:0:
61,87,81413,5,0,0:0:0:0:
481,241,81556,1,0,0:0:0:0:
55,262,81699,1,0,0:0:0:0:
474,82,81842,1,0,0:0:0:0:
227,357,81985,5,0,0:0:0:0:
278,44,82128,1,0,0:0:0:0:
260,244,82270,6,0,L|255:207,1,36.75
278,44,83128,5,0,0:0:0:0:
356,199,83270,1,0,0:0:0:0:
192,135,83413,1,0,0:0:0:0:
435,146,83556,5,0,0:0:0:0:
136,52,83699,1,0,0:0:0:0:
442,39,83842,1,0,0:0:0:0:
76,134,83985,6,0,P|80:151|87:168,1,36.75
149,251,84842,5,0,0:0:0:0:
136,52,84985,1,0,0:0:0:0:
150,263,85128,1,0,0:0:0:0:
223,126,85270,38,0,L|210:124,1,10.5
230,292,85699,2,0,L|269:284,1,36.75
378,272,86556,5,0,0:0:0:0:
135,237,86699,1,0,0:0:0:0:
431,208,86842,5,0,0:0:0:0:
186,308,86985,1,0,0:0:0:0:
331,103,87128,5,0,0:0:0:0:
288,352,87270,1,0,0:0:0:0:
248,65,87413,5,0,0:0:0:0:
381,352,87556,1,0,0:0:0:0:
141,239,87699,1,0,0:0:0:0:
431,208,87842,1,0,0:0:0:0:
178,314,87985,5,0,0:0:0:0:
348,11,88128,1,0,0:0:0:0:
288,352,88270,1,0,0:0:0:0:
156,141,88413,5,0,0:0:0:0:
503,99,88556,1,0,0:0:0:0:
153,42,88699,5,0,0:0:0:0:
477,173,88842,1,0,0:0:0:0:
76,186,88985,1,0,3:0:0:0:
307,109,89128,6,0,L|303:148,1,36.75
201,202,89985,5,0,0:0:0:0:
405,187,90128,1,0,0:0:0:0:
154,94,90270,1,0,0:0:0:0:
304,316,90413,5,0,0:0:0:0:
279,26,90556,1,0,0:0:0:0:
138,280,90699,1,0,0:0:0:0:
412,183,90842,5,0,0:0:0:0:
85,170,90985,1,0,0:0:0:0:
415,295,91128,5,0,0:0:0:0:
146,87,91270,1,0,0:0:0:0:
309,326,91413,5,0,0:0:0:0:
196,9,91555,1,0,0:0:0:0:
201,333,91699,5,0,0:0:0:0:
414,60,91842,1,0,0:0:0:0:
41,140,91985,1,0,0:0:0:0:
425,58,92128,5,0,0:0:0:0:
59,62,92271,1,0,0:0:0:0:
391,273,92414,1,0,0:0:0:0:
252,83,92556,6,0,L|257:119,1,36.75
239,310,93413,5,0,0:0:0:0:
307,2,93556,1,0,0:0:0:0:
145,273,93699,5,0,0:0:0:0:
400,38,93842,1,0,0:0:0:0:
51,70,93985,1,0,0:0:0:0:
479,245,94128,5,0,0:0:0:0:
129,276,94271,1,0,0:0:0:0:
411,30,94414,1,0,0:0:0:0:
250,348,94556,1,0,0:0:0:0:
226,0,94699,1,0,0:0:0:0:
403,308,94842,1,0,0:0:0:0:
125,49,94985,5,0,0:0:0:0:
443,82,95128,1,0,0:0:0:0:
77,172,95270,5,0,0:0:0:0:
414,314,95413,1,0,0:0:0:0:
226,0,95556,1,0,0:0:0:0:
191,365,95699,1,0,0:0:0:0:
435,88,95842,1,0,0:0:0:0:
255,173,95985,6,0,L|263:210,1,36.75
159,115,96842,5,0,0:0:0:0:
369,117,96985,1,0,0:0:0:0:
252,291,97128,1,0,0:0:0:0:
210,51,97270,5,0,0:0:0:0:
344,253,97413,1,0,0:0:0:0:
99,232,97556,1,0,0:0:0:0:
416,234,97699,6,0,P|418:253|416:271,1,36.75,0|0,3:0|3:0,3:0:0:0:
358,327,98556,1,0,0:0:0:0:
347,112,98699,1,0,0:0:0:0:
358,341,98842,1,0,0:0:0:0:
256,223,98985,2,0,L|267:223,1,10.5
259,87,99413,6,0,L|217:91,1,42
125,59,100270,5,0,0:0:0:0:
347,112,100413,1,0,0:0:0:0:
66,144,100556,1,0,0:0:0:0:
425,76,100699,2,0,P|434:101|432:130,1,47.2499985580445
372,291,101128,5,0,0:0:0:0:
347,112,101270,1,0,0:0:0:0:
296,348,101413,1,0,0:0:0:0:
460,234,101556,5,0,0:0:0:0:
176,234,101699,1,0,0:0:0:0:
386,293,101842,1,0,0:0:0:0:
199,84,101985,5,0,0:0:0:0:
205,364,102128,1,0,0:0:0:0:
321,221,102270,1,0,0:0:0:0:
102,199,102413,2,0,P|96:226|99:256,1,47.2499985580445
205,364,102842,2,0,L|243:361,1,31.5
303,302,103270,2,0,L|342:309,1,31.5
405,352,103699,5,0,0:0:0:0:
235,252,103842,1,0,0:0:0:0:
494,307,103985,1,0,0:0:0:0:
162,277,104128,2,0,P|157:253|161:230,1,47.2499985580445,0|0,3:0|3:0,3:0:0:0:
210,73,104556,5,0,0:0:0:0:
235,252,104698,1,0,0:0:0:0:
286,16,104841,1,0,0:0:0:0:
122,130,104984,5,0,0:0:0:0:
406,130,105127,1,0,0:0:0:0:
196,71,105270,1,0,0:0:0:0:
383,280,105413,5,0,0:0:0:0:
383,11,105556,1,0,0:0:0:0:
278,189,105698,1,0,0:0:0:0:
480,141,105842,2,0,P|480:117|472:95,1,47.2499985580445
383,11,106270,6,0,L|343:16,1,36.75
121,58,107128,5,0,0:0:0:0:
406,130,107270,1,0,0:0:0:0:
172,166,107413,1,0,0:0:0:0:
472,95,107556,2,0,P|480:117|481:141,1,47.2499985580445
297,274,107985,5,0,0:0:0:0:
406,130,108127,1,0,0:0:0:0:
204,261,108270,1,0,0:0:0:0:
399,296,108413,5,0,0:0:0:0:
198,96,108556,1,0,0:0:0:0:
305,286,108699,1,0,0:0:0:0:
321,6,108842,5,0,0:0:0:0:
131,196,108985,1,0,0:0:0:0:
331,144,109127,1,0,0:0:0:0:
63,160,109270,6,0,P|55:184|56:208,1,47.2499985580445
200,260,109699,2,0,L|238:263,1,31.5
318,288,110127,2,0,L|357:281,1,31.5
410,334,110556,5,0,0:0:0:0:
227,255,110699,1,0,0:0:0:0:
486,305,110842,1,0,0:0:0:0:
153,278,110985,2,0,P|148:254|152:231,1,47.2499985580445,0|0,3:0|3:0,3:0:0:0:
286,79,111413,5,0,0:0:0:0:
226,249,111555,1,0,0:0:0:0:
378,62,111698,1,0,0:0:0:0:
182,89,111841,5,0,0:0:0:0:
435,217,111984,1,0,0:0:0:0:
274,70,112127,1,0,0:0:0:0:
326,297,112270,2,0,L|321:340,2,39.3750015020371
176,218,112592,2,0,L|171:175,2,39.3750015020371
259,248,112913,5,0,0:0:0:0:
274,70,113020,1,0,0:0:0:0:
219,320,113128,6,0,P|277:327|329:293,1,118.125004506111
346,210,113556,6,0,L|342:137,1,70.8749978370667
274,70,113985,1,0,0:0:0:0:
416,289,114128,1,0,0:0:0:0:
260,215,114270,1,0,0:0:0:0:
463,153,114413,6,0,P|468:185|465:215,1,62.9999980773926,0|0,3:0|3:0,3:0:0:0:
416,289,114842,5,0,0:0:0:0:
405,101,114984,1,0,0:0:0:0:
331,329,115127,1,0,0:0:0:0:
499,284,115270,5,0,0:0:0:0:
261,136,115413,1,0,0:0:0:0:
416,289,115556,1,0,0:0:0:0:
311,59,115699,5,0,0:0:0:0:
201,286,115842,1,0,0:0:0:0:
385,175,115984,1,0,0:0:0:0:
125,162,116128,6,0,L|123:181,1,15.75
201,286,116556,6,0,P|221:286|237:284,1,31.5
303,220,116985,2,0,P|322:221|338:225,1,31.5
400,276,117413,5,0,0:0:0:0:
238,171,117556,1,0,0:0:0:0:
480,226,117699,1,0,0:0:0:0:
163,192,117842,6,0,P|161:154|175:122,1,70.8749978370667
287,28,118270,5,0,0:0:0:0:
400,276,118413,1,0,0:0:0:0:
238,171,118556,5,0,0:0:0:0:
480,226,118699,1,0,0:0:0:0:
311,260,118842,5,0,0:0:0:0:
384,28,118985,1,0,0:0:0:0:
409,280,119128,1,0,0:0:0:0:
226,163,119270,1,0,0:0:0:0:
506,123,119413,1,0,0:0:0:0:
311,260,119556,6,0,L|272:261,1,39.3750015020371
163,292,119770,1,0,0:0:0:0:
159,276,119878,1,0,0:0:0:0:
159,261,119985,2,0,P|160:239|165:223,1,31.5
226,163,120413,2,0,P|226:141|223:124,1,31.5
204,52,120842,5,0,0:0:0:0:
348,150,120985,1,0,0:0:0:0:
104,124,121128,1,0,0:0:0:0:
420,128,121270,6,0,P|424:154|418:180,1,52.5
306,306,121485,6,0,L|264:310,1,39.3750015020371
185,266,121699,5,0,0:0:0:0:
385,349,121842,1,0,0:0:0:0:
114,327,121985,1,0,0:0:0:0:
428,268,122128,5,0,0:0:0:0:
197,264,122270,1,0,0:0:0:0:
484,202,122413,1,0,0:0:0:0:
283,348,122556,5,0,0:0:0:0:
277,108,122699,1,0,0:0:0:0:
437,273,122842,1,0,0:0:0:0:
155,153,122985,6,0,P|175:157|199:155,1,39.3750015020371
277,108,123199,1,0,0:0:0:0:
277,108,123306,1,0,0:0:0:0:
277,108,123413,6,0,L|285:140,1,31.5
243,230,123842,2,0,L|243:263,1,31.5
300,333,124270,5,0,0:0:0:0:
139,283,124413,1,0,0:0:0:0:
391,262,124556,1,0,0:0:0:0:
66,305,124699,2,0,P|62:288|70:255,1,39.3750015020371
122,180,124913,2,0,L|166:171,1,23.6249992790222
219,204,125128,5,0,0:0:0:0:
47,135,125270,1,0,0:0:0:0:
314,123,125413,1,0,0:0:0:0:
139,283,125556,5,0,0:0:0:0:
226,16,125699,1,0,0:0:0:0:
256,316,125842,1,0,0:0:0:0:
194,104,125985,2,0,L|199:156,1,52.5
289,232,126199,5,0,0:0:0:0:
306,233,126306,1,0,0:0:0:0:
317,233,126413,2,0,P|327:232|338:229,1,21
416,190,126842,5,2,0:0:0:0:
368,125,140556,6,0,B|399:51|326:0|246:21|240:102|276:136|276:136|324:198|306:267|225:308|140:274|139:194|157:171|161:149|161:149|157:171|139:194|126:224|98:245|53:257|22:244|2:205|15:181|48:170|77:192,1,840
129,101,144842,6,0,B|175:133|173:182|150:210,1,105
222,242,145378,2,0,L|247:239,1,21
346,191,145699,6,0,B|327:196|320:237|316:262|332:265|349:268|345:293|337:335|319:340,1,165.374994953156
232,353,146556,2,0,L|193:344,1,31.5
137,297,146985,2,0,L|111:300,1,21
201,345,148270,6,0,B|218:331|229:300|219:261|204:247|204:247|219:261|250:254|250:254|313:306|396:284|425:200|398:129|316:103|269:133|248:171|248:171|255:129|255:129|250:116|250:116|255:61,1,630
136,254,152128,6,0,L|133:283,1,21
61,308,152556,2,0,L|58:214,1,94.499997116089
115,105,153199,5,0,0:0:0:0:
210,180,153413,2,0,B|271:190|270:178|271:170|337:180,1,118.125004506111
391,225,153842,6,0,L|393:251,1,21
341,303,154270,6,0,B|296:292|294:297|294:307|247:295,1,94.4999971160892
175,257,154913,2,0,L|163:259,1,10.5
97,281,155556,2,0,P|93:253|97:233,1,47.2499985580445
138,166,155985,6,0,B|184:165|183:158|181:149|229:148,1,94.4999971160892
295,189,156628,2,0,L|297:202,1,10.5
320,265,157270,2,0,P|297:271|273:266,1,47.2499985580445
209,227,157699,6,0,B|192:270|199:271|208:273|191:318,1,94.4999971160892
122,348,158342,2,0,L|110:349,1,10.5
50,302,158985,2,0,L|46:254,1,47.2499985580445
94,196,159413,6,0,B|114:188|132:189|132:189|143:191|143:191|164:191|186:185,1,94.499997116089,0|0,2:0|2:0,2:0:0:0:
258,216,160056,2,0,L|260:229,1,10.5
256,299,160699,2,0,P|280:296|302:286,1,47.2499985580445
349,228,161128,6,0,B|357:182|350:182|341:182|349:135,1,94.4999971160892,0|0,3:0|0:0,0:0:0:0:
387,68,161770,2,0,L|385:58,1,10.5
312,31,162413,2,0,L|266:26,1,47.2499985580445
203,71,162842,6,0,B|211:118|201:118|194:118|203:163,1,94.4999971160892,0|0,3:0|0:0,0:0:0:0:
242,230,163485,2,0,L|241:241,1,10.5
184,289,164128,2,0,P|159:294|137:293,1,47.2499985580445
82,241,164556,6,0,B|81:194|74:196|65:197|64:149,1,94.4999971160892,0|0,3:0|0:0,0:0:0:0:
105,84,165199,2,0,L|116:86,1,10.5
180,130,165842,2,0,P|205:129|229:126,1,47.2499985580445
295,169,166270,2,0,B|293:212|321:212|319:261,2,94.499997116089
343,111,167556,6,0,L|362:115,1,15.75
436,184,167985,6,0,P|438:203|436:225,1,42
341,299,169699,6,0,L|299:304,1,42
