osu file format v14

[General]
AudioFilename: audio.mp3
AudioLeadIn: 0
PreviewTime: 137216
Countdown: 0
SampleSet: Soft
StackLeniency: 0.7
Mode: 0
LetterboxInBreaks: 0
WidescreenStoryboard: 0

[Editor]
DistanceSpacing: 2.7
BeatDivisor: 4
GridSize: 32
TimelineZoom: 1.6

[Metadata]
Title:Nightmare (Maxin Remix)
TitleUnicode:Nightmare (Maxin Remix)
Artist:SirensCeol
ArtistUnicode:SirensCeol
Creator:Dayno
Version:Sorrow
Source:
Tags:liquid dnb drum & and bass d&b d'n'b electronic instrumental sean dee
BeatmapID:3027709
BeatmapSetID:1475425

[Difficulty]
HPDrainRate:5
CircleSize:4.5
OverallDifficulty:8.3
ApproachRate:9
SliderMultiplier:1
SliderTickRate:1

[Events]
//Background and Video events
0,0,"zzzzzzzzzzzzzzzzzzzz.jpg",0,0
//Break Periods
//Storyboard Layer 0 (Background)
//Storyboard Layer 1 (Fail)
//Storyboard Layer 2 (Pass)
//Storyboard Layer 3 (Foreground)
//Storyboard Layer 4 (Overlay)
//Storyboard Sound Samples

[TimingPoints]
2820,344.827586206897,4,2,1,60,1,0
2820,-153.846153846154,4,2,1,60,0,0
3768,-153.846153846154,4,2,1,5,0,0
3854,-153.846153846154,4,2,1,60,0,0
6526,-153.846153846154,4,2,1,5,0,0
6613,-153.846153846154,4,2,1,60,0,0
8940,-153.846153846154,4,2,1,5,0,0
9026,-153.846153846154,4,2,1,60,0,0
10061,-153.846153846154,4,2,1,5,0,0
10406,-153.846153846154,4,2,1,60,0,0
13768,-153.846153846154,4,2,1,5,0,0
13854,-133.333333333333,4,2,1,60,0,0
14285,-133.333333333333,4,2,1,5,0,0
14371,-133.333333333333,4,2,1,60,0,0
17044,-133.333333333333,4,2,1,5,0,0
17130,-133.333333333333,4,2,1,60,0,0
19285,-133.333333333333,4,2,1,5,0,0
19371,-133.333333333333,4,2,1,60,0,0
21095,-133.333333333333,4,2,1,5,0,0
21440,-133.333333333333,4,2,1,60,0,0
24113,-133.333333333333,4,2,1,5,0,0
24199,-133.333333333333,4,2,1,60,0,0
24888,-100,4,2,1,50,0,0
26268,-83.3333333333333,4,2,1,60,0,0
28337,-100,4,2,1,60,0,0
28682,-90.9090909090909,4,2,1,60,0,0
30406,-100,4,2,1,60,0,0
34888,-133.333333333333,4,2,1,60,0,0
35923,-100,4,2,1,60,0,0
37302,-83.3333333333333,4,2,1,60,0,0
39371,-100,4,2,1,60,0,0
39716,-90.9090909090909,4,2,1,60,0,0
41440,-100,4,2,1,60,0,0
49716,-62.5,4,2,1,80,0,0
51095,-55.5555555555556,4,2,1,80,0,0
51613,-62.5,4,2,1,80,0,0
52475,-55.5555555555556,4,2,1,80,0,0
53164,-62.5,4,2,1,80,0,0
62130,-55.5555555555556,4,2,1,80,0,0
62647,-62.5,4,2,1,80,0,0
63509,-55.5555555555556,4,2,1,80,0,0
64199,-62.5,4,2,1,80,0,0
71785,-62.5,4,2,1,80,0,1
93854,-100,4,2,1,60,0,0
115923,-90.9090909090909,4,2,1,60,0,0
136613,-83.3333333333333,4,2,1,60,0,0
137992,-58.8235294117647,4,2,1,80,0,1
139371,-52.6315789473684,4,2,1,80,0,1
139888,-58.8235294117647,4,2,1,80,0,1
140751,-52.6315789473684,4,2,1,80,0,1
141440,-58.8235294117647,4,2,1,80,0,1
150406,-52.6315789473684,4,2,1,80,0,1
150923,-58.8235294117647,4,2,1,80,0,1
151785,-52.6315789473684,4,2,1,80,0,1
152475,-58.8235294117647,4,2,1,80,0,1
159975,-58.8235294117647,4,2,1,80,0,0
160061,-62.5,4,2,1,80,0,1
182130,-62.5,4,2,1,80,0,0
193164,-62.5,4,2,1,80,0,1
204199,-153.846153846154,4,2,1,60,0,0
205147,-153.846153846154,4,2,1,5,0,0
205233,-153.846153846154,4,2,1,60,0,0
207906,-153.846153846154,4,2,1,5,0,0
207992,-153.846153846154,4,2,1,60,0,0
210320,-153.846153846154,4,2,1,5,0,0
210406,-153.846153846154,4,2,1,60,0,0
211440,-153.846153846154,4,2,1,5,0,0
211785,-153.846153846154,4,2,1,60,0,0

[Colours]
Combo1 : 45,105,170
Combo2 : 29,77,141
Combo3 : 124,182,223

[HitObjects]
79,361,2820,6,0,P|102:341|79:213,1,178.749991817475,2|0,0:0|0:0,0:0:0:0:
18,182,3854,1,2,0:0:0:0:
109,101,4199,1,2,0:0:0:0:
246,124,4544,1,2,0:0:0:0:
246,124,5578,6,0,B|296:99|296:99|415:128,1,178.749991817475,2|0,0:0|0:0,0:0:0:0:
473,188,6613,1,2,0:0:0:0:
437,59,6957,1,2,0:0:0:0:
437,59,8337,6,0,P|401:97|382:159,1,113.749994792938,2|0,0:0|0:0,0:0:0:0:
411,224,9026,1,2,0:0:0:0:
512,296,9371,2,0,P|488:284|436:356,1,129.999994049073,2|0,0:0|0:0,0:0:0:0:
432,348,10406,1,2,0:0:0:0:
432,348,11095,6,0,B|357:357|331:293|331:293|250:206|374:140|433:253|331:292|331:292|301:300|272:251|208:280,1,503.749976940156,2|0,0:0|0:0,0:0:0:0:
171,354,13854,6,0,P|148:325|89:330,1,93.7500035762788,2|0,0:0|0:0,0:0:0:0:
38,368,14371,1,2,0:0:0:0:
38,368,14888,1,2,0:0:0:0:
116,246,15233,5,2,0:0:0:0:
47,140,15578,1,2,0:0:0:0:
0,226,15751,1,2,0:0:0:0:
0,226,16268,1,2,0:0:0:0:
25,215,16354,1,2,0:0:0:0:
44,195,16440,1,2,0:0:0:0:
52,168,16526,1,2,0:0:0:0:
47,140,16613,6,0,P|46:93|73:56,1,93.7500035762788,2|0,0:0|0:0,0:0:0:0:
119,117,17130,1,2,0:0:0:0:
119,117,17647,1,2,0:0:0:0:
380,122,17992,6,0,B|309:16|253:155|126:88|193:-3|244:60,1,281.250010728837,2|0,0:0|0:0,0:0:0:0:
244,60,19371,1,2,0:0:0:0:
244,60,20061,1,2,0:0:0:0:
330,187,20406,6,0,P|372:197|458:136,1,150.000005722046,2|0,0:0|0:0,0:0:0:0:
455,141,21440,1,2,0:0:0:0:
455,141,22130,6,0,B|472:59|388:19|388:19|292:113|421:267,1,431.250016450883,2|0,0:0|0:0,0:0:0:0:
419,352,24199,1,2,0:0:0:0:
403,330,24285,1,2,0:0:0:0:
382,322,24371,1,2,0:0:0:0:
353,311,24457,1,2,0:0:0:0:
332,283,24543,1,2,0:0:0:0:
338,248,24629,1,2,0:0:0:0:
368,227,24715,1,2,0:0:0:0:
402,235,24802,1,2,0:0:0:0:
420,266,24888,6,0,P|415:216|453:173,1,100,2|2,0:0|0:0,0:0:0:0:
467,4,25923,1,2,0:0:0:0:
467,4,26268,6,0,P|454:72|300:112,1,239.999992675781,2|0,0:0|0:0,0:0:0:0:
199,40,27647,6,0,P|285:91|283:191,1,209.999993591309,2|0,0:0|0:0,0:0:0:0:
154,267,28337,2,0,P|188:252|224:244,1,75,2|0,0:0|0:0,0:0:0:0:
301,340,28682,2,0,P|312:300|220:326,1,192.500005874634,2|0,0:0|0:0,0:0:0:0:
237,382,29371,1,2,0:0:0:0:
339,218,29716,1,2,0:0:0:0:
198,133,30061,1,2,0:0:0:0:
198,133,30406,6,0,B|164:172|164:172|199:308,1,175,2|0,0:0|0:0,0:0:0:0:
210,303,31095,1,2,0:0:0:0:
287,383,31440,2,0,P|225:325|116:348,1,200,2|0,0:0|0:0,0:0:0:0:
119,345,32475,1,2,0:0:0:0:
120,346,33164,6,0,B|152:355|152:355|100:211,1,175,2|0,0:0|0:0,0:0:0:0:
70,143,33854,2,0,P|131:140|177:179,1,125,2|0,0:0|0:0,0:0:0:0:
232,239,34371,2,0,P|192:192|195:131,1,125,2|0,0:0|0:0,0:0:0:0:
209,57,34888,6,0,P|173:124|60:138,1,187.500007152558,2|0,0:0|0:0,0:0:0:0:
26,198,35923,6,0,L|47:284,1,75,2|0,0:0|0:0,0:0:0:0:
39,286,36268,1,0,0:0:0:0:
130,357,36440,2,0,L|148:258,1,100,2|0,0:0|0:0,0:0:0:0:
148,258,36957,1,2,0:0:0:0:
244,344,37302,6,0,P|297:311|309:267,1,89.9999972534181,2|0,0:0|0:0,0:0:0:0:
299,276,37647,1,2,0:0:0:0:
431,382,37820,1,2,0:0:0:0:
431,382,38682,6,0,P|401:337|414:180,1,209.999993591309,2|0,0:0|0:0,0:0:0:0:
503,170,39371,6,0,P|476:152|449:111,1,75,2|0,0:0|0:0,0:0:0:0:
426,31,39716,2,0,P|443:108|367:85,1,192.500005874634,2|0,0:0|0:0,0:0:0:0:
325,23,40406,1,2,0:0:0:0:
161,133,40751,1,2,0:0:0:0:
20,27,41095,1,2,0:0:0:0:
20,27,41440,6,0,P|91:25|189:56,1,175,2|0,0:0|0:0,0:0:0:0:
199,71,42130,1,2,0:0:0:0:
376,10,42475,6,0,P|312:19|279:120,1,175,2|0,0:0|0:0,0:0:0:0:
334,149,43164,1,2,0:0:0:0:
199,71,43509,1,2,0:0:0:0:
142,129,43682,1,2,0:0:0:0:
376,10,44199,5,2,0:0:0:0:
256,192,44285,12,0,46268,0:0:0:0:
71,253,49716,6,0,P|9:211|-22:212,1,80,6|0,3:2|0:0,0:0:0:0:
129,335,50061,2,0,P|94:265|109:188,1,160,10|0,0:0|0:0,0:0:0:0:
1,282,50578,1,0,3:2:0:0:
109,187,50751,2,0,P|124:147|106:78,1,80,10|0,0:0|0:0,0:0:0:0:
267,51,51095,6,0,P|223:90|225:0,1,179.999994506836,2|10,3:2|0:0,0:0:0:0:
398,51,51613,2,0,L|333:32,1,40
512,138,51785,1,0,0:0:0:0:
408,170,51957,1,0,3:0:0:0:
462,345,52130,2,0,P|445:303|370:292,1,120,8|0,0:0|0:0,0:0:0:0:
336,380,52475,6,0,P|357:290|324:166,1,179.999994506836,2|8,3:2|0:0,0:0:0:0:
242,290,52992,1,0,0:0:0:0:
152,235,53164,2,0,P|138:272|137:312,1,80,2|0,0:2|3:2,0:0:0:0:
8,144,53509,1,10,0:0:0:0:
63,191,53682,2,0,L|73:242,1,40
141,105,53854,6,0,B|111:80|111:80|63:87,1,80,2|0,3:2|0:0,0:0:0:0:
200,170,54199,2,0,P|239:124|308:127,1,120,10|0,0:0|0:0,0:0:0:0:
450,230,54544,2,0,P|391:226|353:181,1,120,2|0,0:0|0:0,0:0:0:0:
426,157,54888,1,10,0:0:0:0:
248,367,55061,1,0,0:0:0:0:
248,367,55147,1,0,0:0:0:0:
248,367,55233,6,0,P|241:298|214:220,1,120,2|0,3:2|0:0,0:0:0:0:
271,191,55578,1,10,0:0:0:0:
346,319,55751,1,2,0:0:0:0:
263,188,55923,2,0,P|272:149|294:115,2,80,2|0|10,0:0|3:2|0:0,0:0:0:0:
403,100,56440,2,0,L|355:90,1,40,0|0,0:0|0:0,0:0:0:0:
165,30,56613,6,0,P|186:63|196:102,1,80,0|0,3:2|0:0,0:0:0:0:
46,137,56957,2,0,P|81:130|98:207,1,120,10|0,0:0|0:0,0:0:0:0:
52,243,57302,1,2,0:0:0:0:
53,348,57475,2,0,L|226:293,1,160,2|0,3:2|0:0,0:0:0:0:
273,325,57906,1,0,0:0:0:0:
273,325,57992,6,0,P|302:291|382:285,1,120,2|0,3:2|0:0,0:0:0:0:
392,308,58337,1,10,0:0:0:0:
512,189,58509,2,0,P|453:186|411:145,1,120,2|0,0:0|0:0,0:0:0:0:
401,75,58854,1,2,3:2:0:0:
484,20,59026,1,10,0:0:0:0:
260,56,59199,6,0,L|251:101,1,40
328,113,59371,2,0,L|319:158,1,40,0|0,3:2|0:0,0:0:0:0:
173,82,59544,1,0,0:0:0:0:
194,222,59716,1,10,0:0:0:0:
260,56,59888,1,2,0:0:0:0:
52,5,60061,1,2,0:0:0:0:
173,82,60233,1,2,3:2:0:0:
127,248,60406,1,10,0:0:0:0:
122,208,60492,1,2,0:0:0:0:
140,173,60578,1,2,3:2:0:0:
174,153,60664,1,2,0:0:0:0:
213,154,60751,6,0,P|290:159|270:72,1,160,2|8,3:2|0:0,0:0:0:0:
372,210,61268,2,0,L|321:223,1,40,0|0,0:0|0:0,0:0:0:0:
512,323,61440,1,0,0:0:0:0:
407,284,61612,1,0,3:2:0:0:
496,212,61785,1,10,0:0:0:0:
400,292,61957,1,2,0:0:0:0:
265,384,62130,6,0,P|219:351|85:333,1,179.999994506836,2|10,3:2|0:0,0:0:0:0:
10,239,62647,2,0,L|24:293,1,40,0|0,0:0|0:0,0:0:0:0:
123,133,62820,1,0,0:0:0:0:
101,232,62992,1,0,3:2:0:0:
0,75,63164,2,0,B|46:86|46:86|110:51,1,120,8|0,0:0|0:0,0:0:0:0:
153,0,63509,6,0,P|131:44|234:103,1,179.999994506836,2|8,3:2|0:0,0:0:0:0:
310,22,64026,1,0,0:0:0:0:
439,100,64199,2,0,P|403:69|351:74,1,80,2|0,0:0|3:2,0:0:0:0:
265,258,64544,1,10,0:0:0:0:
301,182,64716,2,0,L|291:142,1,40,0|0,0:0|0:0,0:0:0:0:
481,170,64888,6,0,L|456:262,1,80,2|0,3:2|0:0,0:0:0:0:
490,356,65233,2,0,P|478:343|366:323,1,120,10|0,0:0|0:0,0:0:0:0:
265,258,65578,2,0,P|324:254|372:219,1,120,2|0,0:0|0:0,0:0:0:0:
408,153,65923,1,10,0:0:0:0:
289,20,66095,1,0,0:0:0:0:
289,20,66182,1,0,0:0:0:0:
289,20,66268,6,0,B|256:52|256:52|280:142,1,120,2|0,3:2|0:0,0:0:0:0:
323,174,66613,1,10,0:0:0:0:
184,92,66785,1,2,0:0:0:0:
329,181,66957,2,0,L|309:275,2,80,2|0|10,0:0|3:2|0:0,0:0:0:0:
189,359,67475,1,0,0:0:0:0:
232,271,67647,6,0,P|194:289|154:288,1,80,0|0,3:2|0:0,0:0:0:0:
0,181,67992,2,0,P|58:193|91:253,1,120,10|0,0:0|0:0,0:0:0:0:
83,312,68337,1,2,0:0:0:0:
211,206,68509,1,2,3:2:0:0:
100,107,68682,2,0,B|144:72|144:72|228:80,1,120,8|0,0:0|0:0,0:0:0:0:
311,91,69026,6,0,P|279:103|264:174,1,80,2|0,3:2|0:0,0:0:0:0:
380,95,69371,1,8,0:0:0:0:
211,206,69544,2,0,P|227:241|263:257,1,80,2|0,0:0|0:0,0:0:0:0:
258,142,69888,1,0,3:2:0:0:
318,309,70061,2,0,P|353:292|370:257,1,80,10|0,0:0|0:0,0:0:0:0:
459,384,70406,6,0,L|441:303,1,80,0|0,3:2|0:0,0:0:0:0:
342,195,70751,1,8,0:0:0:0:
500,172,70923,2,0,L|487:226,1,40,0|0,0:0|0:0,0:0:0:0:
411,146,71095,2,0,L|398:92,1,40,0|0,0:0|0:0,0:0:0:0:
442,0,71268,1,2,3:2:0:0:
435,39,71354,1,2,0:0:0:0:
414,72,71440,1,10,0:0:0:0:
381,95,71526,1,2,0:0:0:0:
343,104,71612,1,2,3:2:0:0:
304,98,71699,1,2,0:0:0:0:
273,75,71785,6,0,P|227:50|144:49,1,120,2|0,3:2|0:0,0:0:0:0:
101,90,72130,1,10,0:0:0:0:
246,226,72302,2,0,P|292:200|339:191,1,80,2|0,0:0|0:0,0:0:0:0:
139,344,72647,1,2,3:2:0:0:
102,274,72820,2,0,P|55:248|8:239,1,80,10|0,0:0|0:0,0:0:0:0:
344,355,73164,5,2,3:2:0:0:
266,367,73337,2,0,P|293:299|403:299,1,160,2|2,0:0|0:0,0:0:0:0:
512,348,73854,2,0,P|476:307|471:275,1,80,2|0,0:0|3:2,0:0:0:0:
433,94,74199,1,10,0:0:0:0:
485,193,74371,1,2,0:0:0:0:
344,355,74544,6,0,L|315:229,1,120,2|0,3:2|0:0,0:0:0:0:
264,186,74888,1,10,0:0:0:0:
128,307,75061,2,0,L|106:392,1,80,2|0,0:0|0:0,0:0:0:0:
235,252,75406,1,2,3:2:0:0:
165,209,75578,2,0,L|143:124,1,80,10|0,0:0|0:0,0:0:0:0:
286,9,75923,5,2,3:2:0:0:
499,113,76095,2,0,P|451:78|336:62,1,160,2|0,0:0|0:0,0:0:0:0:
142,48,76613,2,0,P|183:35|219:6,1,80,2|0,0:0|3:2,0:0:0:0:
66,62,76957,1,10,0:0:0:0:
267,98,77130,1,2,0:0:0:0:
267,98,77216,1,0,0:0:0:0:
267,98,77302,6,0,P|289:127|256:214,1,120,2|0,3:2|0:0,0:0:0:0:
202,211,77647,1,10,0:0:0:0:
398,325,77820,2,0,P|369:303|311:302,1,80,2|2,0:0|0:0,0:0:0:0:
133,175,78164,1,2,3:2:0:0:
202,211,78337,2,0,P|224:240|225:298,1,80,10|0,0:0|0:0,0:0:0:0:
87,377,78682,5,2,3:2:0:0:
0,244,78854,2,0,L|157:270,1,160,2|2,0:0|0:0,0:0:0:0:
310,334,79371,2,0,L|223:355,1,80,2|0,0:0|3:2,0:0:0:0:
485,368,79716,1,10,0:0:0:0:
413,324,79888,1,2,0:0:0:0:
511,222,80061,6,0,P|464:164|451:104,1,120,2|0,3:2|0:0,0:0:0:0:
486,58,80406,1,10,0:0:0:0:
366,0,80578,2,0,P|346:34|317:62,1,80,2|0,0:0|0:0,0:0:0:0:
452,121,80923,1,0,3:2:0:0:
455,280,81095,2,0,P|426:252|406:217,1,80,10|0,0:0|0:0,0:0:0:0:
260,366,81440,5,2,3:2:0:0:
347,351,81613,2,0,P|298:284|208:294,1,160,2|0,0:0|0:0,0:0:0:0:
15,294,82130,1,2,0:0:0:0:
127,338,82302,1,0,3:2:0:0:
5,292,82475,1,10,0:0:0:0:
9,252,82561,1,0,0:0:0:0:
14,212,82647,1,2,3:2:0:0:
19,172,82733,1,0,0:0:0:0:
24,133,82820,6,0,L|11:47,2,80,2|0|10,3:2|0:0|0:0,0:0:0:0:
155,209,83337,2,0,P|99:272|126:313,1,120,2|0,0:0|0:0,0:0:0:0:
121,292,83682,1,2,3:2:0:0:
171,136,83854,2,0,P|158:81|138:54,1,80,10|0,0:0|0:0,0:0:0:0:
317,211,84199,6,0,P|282:230|242:236,2,80,2|0|10,3:2|0:0|0:0,0:0:0:0:
512,200,84716,2,0,P|436:221|385:281,1,160,0|0,0:0|3:2,0:0:0:0:
298,384,85233,1,10,0:0:0:0:
259,315,85406,1,2,0:0:0:0:
330,132,85578,6,0,L|313:230,2,80,2|0|10,3:2|0:0|0:0,0:0:0:0:
479,132,86095,2,0,P|432:118|420:48,1,120,2|0,0:0|0:0,0:0:0:0:
435,54,86440,1,2,3:2:0:0:
233,55,86613,2,0,P|290:24|310:2,1,80,10|0,0:0|0:0,0:0:0:0:
85,112,86957,6,0,P|54:86|17:70,2,80,2|0|10,3:2|0:0|0:0,0:0:0:0:
233,55,87475,2,0,P|217:63|185:217,1,160,0|0,0:0|3:2,0:0:0:0:
205,339,87992,1,10,0:0:0:0:
185,334,88078,1,0,0:0:0:0:
165,330,88164,1,2,3:2:0:0:
146,326,88251,1,0,0:0:0:0:
125,321,88337,6,0,L|42:335,1,80,2|2,3:2|0:0,0:0:0:0:
93,185,88682,1,10,0:0:0:0:
222,263,88854,2,0,L|372:302,1,120,2|0,0:0|0:0,0:0:0:0:
347,306,89199,1,0,3:2:0:0:
482,384,89371,2,0,P|478:333|461:298,1,80,10|0,0:0|0:0,0:0:0:0:
435,178,89716,6,0,P|474:179|512:193,1,80,2|2,3:2|0:0,0:0:0:0:
366,213,90061,1,10,0:0:0:0:
423,15,90233,2,0,P|371:44|343:148,1,160,2|0,0:0|3:2,0:0:0:0:
185,25,90751,1,10,0:0:0:0:
236,108,90923,1,2,0:0:0:0:
88,150,91095,6,0,P|49:155|21:183,1,80,2|2,3:2|0:0,0:0:0:0:
52,18,91440,1,10,0:0:0:0:
236,108,91613,2,0,L|87:71,1,120,2|0,0:0|0:0,0:0:0:0:
106,67,91957,1,2,3:2:0:0:
88,253,92130,2,0,L|105:337,1,80,10|0,0:0|0:0,0:0:0:0:
236,108,92475,6,0,L|220:186,1,80,2|2,3:2|0:0,0:0:0:0:
88,150,92820,1,10,0:0:0:0:
314,259,92992,2,0,P|236:254|181:308,1,160,0|2,0:0|3:2,0:0:0:0:
164,339,93423,1,2,0:0:0:0:
130,358,93509,1,10,0:0:0:0:
91,352,93595,1,2,0:0:0:0:
65,323,93682,1,2,3:2:0:0:
64,284,93767,1,2,0:0:0:0:
87,252,93854,6,0,P|84:210|63:174,1,75,2|0,0:0|0:0,0:0:0:0:
0,173,94199,1,2,0:0:0:0:
148,103,94371,2,0,P|119:96|98:35,1,100,2|0,0:0|0:0,0:0:0:0:
97,35,94888,1,2,0:0:0:0:
213,157,95061,2,0,P|206:204|162:224,1,100,2|0,0:0|0:0,0:0:0:0:
162,224,95578,1,2,0:0:0:0:
216,84,95751,2,0,P|222:36|266:16,1,100,2|0,0:0|0:0,0:0:0:0:
266,16,96268,1,2,0:0:0:0:
431,0,96440,6,0,L|406:113,1,100,2|0,0:0|0:0,0:0:0:0:
511,217,96957,1,2,0:0:0:0:
511,217,97130,2,0,L|486:104,1,100,2|0,0:0|0:0,0:0:0:0:
420,170,97647,1,2,0:0:0:0:
420,170,97820,2,0,L|395:283,1,100,2|0,0:0|0:0,0:0:0:0:
484,377,98337,1,2,0:0:0:0:
484,377,98509,2,0,P|429:352|351:348,1,125,2|0,0:0|0:0,0:0:0:0:
305,384,99026,1,2,0:0:0:0:
228,330,99199,1,2,0:0:0:0:
93,384,99371,6,0,P|99:335|129:295,1,100,2|2,0:0|0:0,0:0:0:0:
7,175,99888,2,0,P|41:186|49:254,1,100,2|0,0:0|0:0,0:0:0:0:
54,243,100406,1,2,0:0:0:0:
124,54,100578,2,0,P|113:88|45:96,1,100,2|0,0:0|0:0,0:0:0:0:
55,101,101095,1,2,0:0:0:0:
143,221,101268,2,0,P|147:173|191:152,1,100,2|0,0:0|0:0,0:0:0:0:
189,152,101785,1,2,0:0:0:0:
314,86,101957,6,0,P|265:81|205:65,1,100,2|0,0:0|0:0,0:0:0:0:
284,190,102475,1,2,0:0:0:0:
284,190,102647,2,0,P|333:185|393:169,1,100,2|0,0:0|0:0,0:0:0:0:
482,297,103165,1,2,0:0:0:0:
481,297,103337,2,0,P|432:291|383:279,1,100,2|0,0:0|0:0,0:0:0:0:
285,291,103854,1,2,0:0:0:0:
285,291,104026,2,0,P|302:346|361:348,1,125,2|0,0:0|0:0,0:0:0:0:
382,278,104544,1,2,0:0:0:0:
488,319,104716,1,2,0:0:0:0:
373,271,104888,6,0,P|390:238|424:224,1,75,2|0,0:0|0:0,0:0:0:0:
423,224,105233,1,2,0:0:0:0:
285,291,105406,2,0,B|245:265|245:265|185:272,1,100,2|0,0:0|0:0,0:0:0:0:
193,271,105923,1,2,0:0:0:0:
86,138,106095,2,0,B|126:162|126:162|146:219,1,100,2|0,0:0|0:0,0:0:0:0:
145,212,106612,1,2,0:0:0:0:
69,360,106785,2,0,B|86:310|86:310|127:286,1,100,2|0,0:0|0:0,0:0:0:0:
127,286,107302,1,2,0:0:0:0:
36,198,107475,6,0,P|49:155|51:67,1,125,2|0,0:0|0:0,0:0:0:0:
52,75,107992,1,2,0:0:0:0:
148,24,108164,2,0,L|257:44,1,100,2|0,0:0|0:0,0:0:0:0:
246,42,108682,1,2,0:0:0:0:
302,137,108854,2,0,L|203:118,1,100,2|0,0:0|0:0,0:0:0:0:
203,118,109371,1,2,0:0:0:0:
304,232,109544,2,0,L|402:214,1,100,2|0,0:0|0:0,0:0:0:0:
462,172,110061,1,2,0:0:0:0:
401,128,110233,1,2,0:0:0:0:
512,233,110406,6,0,P|468:278|456:308,1,75,2|0,0:0|0:0,0:0:0:0:
485,378,110751,1,2,0:0:0:0:
485,378,110923,2,0,P|450:360|373:350,1,100,2|0,0:0|0:0,0:0:0:0:
322,297,111440,1,2,0:0:0:0:
322,297,111612,2,0,P|287:315|210:325,1,100,2|0,0:0|0:0,0:0:0:0:
122,384,112130,1,2,0:0:0:0:
122,384,112302,2,0,P|140:349|140:244,1,125,2|0,0:0|0:0,0:0:0:0:
95,215,112820,1,2,0:0:0:0:
202,173,112992,1,2,0:0:0:0:
66,145,113164,6,0,P|30:169|21:216,1,75,2|0,0:0|0:0,0:0:0:0:
29,215,113509,1,2,0:0:0:0:
130,96,113682,2,0,B|106:73|106:73|18:60,1,100,2|0,0:0|0:0,0:0:0:0:
39,63,114199,1,2,0:0:0:0:
197,53,114371,2,0,B|221:30|221:30|309:17,1,100,2|0,0:0|0:0,0:0:0:0:
287,20,114888,1,2,0:0:0:0:
340,114,115061,1,2,0:0:0:0:
420,61,115233,5,2,0:0:0:0:
408,66,115319,1,2,0:0:0:0:
398,73,115405,1,2,0:0:0:0:
389,81,115491,1,2,0:0:0:0:
380,91,115577,1,2,0:0:0:0:
374,101,115664,1,2,0:0:0:0:
369,113,115750,1,2,0:0:0:0:
365,125,115836,1,2,0:0:0:0:
364,137,115922,5,2,0:0:0:0:
456,224,116095,2,0,P|428:215|380:207,1,55.0000016784668,2|0,0:0|0:0,0:0:0:0:
342,257,116440,1,2,0:0:0:0:
342,257,116613,2,0,P|315:262|288:271,1,55.0000016784668,2|0,0:0|0:0,0:0:0:0:
228,220,116957,1,2,0:0:0:0:
228,220,117130,1,2,0:0:0:0:
201,344,117302,6,0,L|183:278,1,55.0000016784668,2|0,0:0|0:0,0:0:0:0:
95,257,117647,2,0,L|109:310,1,55.0000016784668,2|0,0:0|0:0,0:0:0:0:
153,207,117992,1,2,0:0:0:0:
74,182,118164,1,2,0:0:0:0:
133,134,118337,1,2,0:0:0:0:
65,188,118509,1,2,0:0:0:0:
27,63,118682,5,2,0:0:0:0:
117,18,118854,2,0,L|97:82,1,55.0000016784668,2|0,0:0|0:0,0:0:0:0:
266,54,119199,1,2,0:0:0:0:
266,54,119371,2,0,L|246:-10,1,55.0000016784668,2|0,0:0|0:0,0:0:0:0:
211,118,119716,1,2,0:0:0:0:
211,118,119888,1,2,0:0:0:0:
389,90,120061,6,0,P|355:68|320:70,1,55.0000016784668,2|0,0:0|0:0,0:0:0:0:
307,133,120406,2,0,P|341:155|376:153,1,55.0000016784668,2|0,0:0|0:0,0:0:0:0:
441,159,120751,1,2,0:0:0:0:
389,90,120923,1,2,0:0:0:0:
512,158,121095,1,2,0:0:0:0:
377,93,121268,1,2,0:0:0:0:
441,171,121440,6,0,P|441:192|428:234,2,55.0000016784668,2|2|0,0:0|0:0|0:0,0:0:0:0:
374,279,121957,1,2,0:0:0:0:
374,279,122130,2,0,P|374:300|387:342,1,55.0000016784668,2|0,0:0|0:0,0:0:0:0:
449,384,122475,1,2,0:0:0:0:
449,384,122647,1,2,0:0:0:0:
304,355,122820,5,2,0:0:0:0:
374,279,122992,1,2,0:0:0:0:
297,361,123164,2,0,L|243:349,1,55.0000016784668,2|0,0:0|0:0,0:0:0:0:
110,373,123509,1,2,0:0:0:0:
166,313,123682,1,2,0:0:0:0:
104,383,123854,1,2,0:0:0:0:
90,257,124026,1,2,0:0:0:0:
215,213,124199,6,0,L|156:196,2,55.0000016784668,2|2|0,0:0|0:0|0:0,0:0:0:0:
41,167,124716,1,2,0:0:0:0:
41,167,124888,2,0,L|93:151,1,55.0000016784668,2|0,0:0|0:0,0:0:0:0:
162,87,125233,1,2,0:0:0:0:
162,87,125406,6,0,P|171:65|173:22,1,55.0000016784668,2|2,0:0|0:0,0:0:0:0:
272,0,125751,1,2,0:0:0:0:
272,0,125924,2,0,P|274:27|284:52,1,55.0000016784668,2|0,0:0|0:0,0:0:0:0:
445,95,126268,1,2,0:0:0:0:
349,149,126440,1,2,0:0:0:0:
453,90,126613,1,2,0:0:0:0:
373,40,126785,1,2,0:0:0:0:
433,182,126957,5,2,0:0:0:0:
365,223,127130,2,0,P|357:246|356:288,1,55.0000016784668,2|0,0:0|0:0,0:0:0:0:
463,345,127475,1,2,0:0:0:0:
463,345,127647,2,0,P|435:343|409:334,1,55.0000016784668,2|0,0:0|0:0,0:0:0:0:
354,276,127992,1,2,0:0:0:0:
354,276,128164,1,2,0:0:0:0:
277,373,128337,6,0,L|209:385,1,55.0000016784668,2|0,0:0|0:0,0:0:0:0:
170,316,128682,2,0,L|238:304,1,55.0000016784668,2|0,0:0|0:0,0:0:0:0:
99,364,129026,1,2,0:0:0:0:
108,269,129199,1,2,0:0:0:0:
116,374,129371,1,2,0:0:0:0:
4,273,129544,1,2,0:0:0:0:
135,167,129716,5,2,0:0:0:0:
108,269,129888,2,0,P|85:234|80:212,1,55.0000016784668,2|0,0:0|0:0,0:0:0:0:
0,85,130233,1,2,0:0:0:0:
0,85,130406,2,0,P|35:108|57:113,1,55.0000016784668,2|0,0:0|0:0,0:0:0:0:
110,59,130751,1,2,0:0:0:0:
110,59,130923,1,2,0:0:0:0:
229,3,131095,6,0,L|211:69,1,55.0000016784668,2|0,0:0|0:0,0:0:0:0:
274,122,131440,2,0,L|292:56,1,55.0000016784668,2|0,0:0|0:0,0:0:0:0:
365,152,131785,1,2,0:0:0:0:
315,222,131957,1,2,0:0:0:0:
369,141,132130,1,2,0:0:0:0:
288,68,132302,1,2,0:0:0:0:
180,171,132475,6,0,P|207:175|233:184,2,55.0000016784668,2|2|0,0:0|0:0|0:0,0:0:0:0:
238,303,132992,1,2,0:0:0:0:
238,303,133164,2,0,P|265:298|291:289,1,55.0000016784668,2|0,0:0|0:0,0:0:0:0:
351,222,133509,1,2,0:0:0:0:
351,222,133682,1,2,0:0:0:0:
429,306,133854,5,2,0:0:0:0:
464,220,134026,1,2,0:0:0:0:
421,315,134199,2,0,L|433:379,1,55.0000016784668,2|0,0:0|0:0,0:0:0:0:
294,249,134544,1,2,0:0:0:0:
407,169,134716,1,2,0:0:0:0:
289,257,134888,1,2,0:0:0:0:
346,338,135061,1,2,0:0:0:0:
206,284,135233,6,0,L|216:229,2,55.0000016784668,2|2|0,0:0|0:0|0:0,0:0:0:0:
325,179,135751,1,2,0:0:0:0:
325,179,135923,2,0,L|314:124,1,55.0000016784668,2|0,0:0|0:0,0:0:0:0:
223,42,136268,1,2,0:0:0:0:
353,0,136440,1,2,0:0:0:0:
105,51,136613,6,0,P|211:75|224:177,1,209.999993591309,2|0,0:0|0:0,0:0:0:0:
205,228,137302,1,2,0:0:0:0:
207,215,137388,1,2,0:0:0:0:
211,204,137474,1,2,0:0:0:0:
218,193,137560,1,2,0:0:0:0:
227,184,137646,1,2,0:0:0:0:
237,177,137733,1,2,0:0:0:0:
248,172,137819,1,2,0:0:0:0:
260,169,137905,1,2,0:0:0:0:
273,169,137992,6,0,L|358:191,1,85.0000016212464,6|0,3:2|0:0,0:0:0:0:
499,237,138337,2,0,L|333:276,1,170.000003242493,10|0,0:0|0:0,0:0:0:0:
471,356,138854,1,0,3:2:0:0:
333,275,139026,2,0,L|250:253,1,85.0000016212464,10|0,0:0|0:0,0:0:0:0:
198,341,139371,6,0,P|174:286|74:292,1,142.49999619484,2|0,3:2|0:0,0:0:0:0:
67,339,139716,1,10,0:0:0:0:
23,173,139888,2,0,L|7:236,1,42.5000008106232,0|0,0:0|0:0,0:0:0:0:
73,95,140061,1,0,0:0:0:0:
114,176,140233,1,0,3:2:0:0:
197,30,140406,2,0,B|228:21|228:21|335:59,1,127.50000243187,8|0,0:0|0:0,0:0:0:0:
379,1,140751,6,0,P|351:37|409:162,1,189.999994926453,2|8,3:2|0:0,0:0:0:0:
435,73,141268,1,0,0:0:0:0:
439,236,141440,2,0,P|455:200|491:174,1,85.0000016212464,2|2,0:0|3:2,0:0:0:0:
481,379,141785,1,10,0:0:0:0:
415,342,141957,2,0,L|392:275,1,42.5000008106232,0|0,0:0|0:0,0:0:0:0:
252,384,142130,6,0,L|281:304,1,85.0000016212464,2|0,3:2|0:0,0:0:0:0:
55,362,142475,2,0,P|106:351|143:276,1,127.50000243187,10|0,0:0|0:0,0:0:0:0:
0,169,142820,2,0,P|30:217|95:236,1,127.50000243187,2|0,0:0|0:0,0:0:0:0:
87,145,143164,1,10,0:0:0:0:
0,28,143337,1,0,0:0:0:0:
0,28,143423,1,0,0:0:0:0:
0,28,143509,6,0,L|131:53,1,127.50000243187,2|0,3:2|0:0,0:0:0:0:
173,104,143854,1,10,0:0:0:0:
291,38,144026,1,2,0:0:0:0:
165,114,144199,2,0,P|198:148|211:189,2,85.0000016212464,2|0|10,0:0|3:2|0:0,0:0:0:0:
91,178,144716,2,0,L|133:187,1,42.5000008106232,0|0,0:0|0:0,0:0:0:0:
334,171,144888,6,0,P|301:205|286:248,1,85.0000016212464,0|0,3:2|0:0,0:0:0:0:
146,333,145233,2,0,P|177:282|234:313,1,127.50000243187,10|0,0:0|0:0,0:0:0:0:
257,370,145578,1,2,0:0:0:0:
451,283,145751,2,0,P|372:266|285:238,1,170.000003242493,2|0,3:2|0:0,0:0:0:0:
233,190,146182,1,0,0:0:0:0:
223,181,146268,6,0,L|200:51,1,127.50000243187,2|0,3:2|0:0,0:0:0:0:
184,59,146613,1,10,0:0:0:0:
360,0,146785,2,0,L|336:134,1,127.50000243187,0|0,0:0|0:0,0:0:0:0:
375,189,147130,1,0,3:2:0:0:
449,52,147302,1,8,0:0:0:0:
504,230,147475,6,0,L|486:290,1,42.5000008106232,0|0,0:0|0:0,0:0:0:0:
463,144,147647,2,0,L|446:199,1,42.5000008106232,0|0,3:2|0:0,0:0:0:0:
339,118,147820,1,0,0:0:0:0:
375,189,147992,1,10,0:0:0:0:
186,145,148164,1,2,0:0:0:0:
262,326,148337,1,2,0:0:0:0:
339,118,148509,1,2,3:2:0:0:
182,263,148682,1,10,0:0:0:0:
107,81,148854,1,0,3:2:0:0:
107,81,148940,1,0,0:0:0:0:
107,81,149026,6,0,P|72:67|2:70,1,85.0000016212464,2|0,3:2|0:0,0:0:0:0:
240,214,149371,1,8,0:0:0:0:
100,279,149544,2,0,P|135:265|205:268,1,85.0000016212464,0|0,0:0|0:0,0:0:0:0:
359,379,149888,1,0,3:2:0:0:
215,329,150061,1,10,0:0:0:0:
372,384,150233,1,2,0:0:0:0:
492,246,150406,6,0,P|462:163|456:62,1,189.999994926453,2|10,3:2|0:0,0:0:0:0:
323,12,150923,2,0,L|378:27,1,42.5000008106232,0|0,0:0|0:0,0:0:0:0:
303,162,151095,1,0,0:0:0:0:
374,103,151268,1,0,3:2:0:0:
214,38,151440,2,0,L|73:66,1,127.50000243187,8|0,0:0|0:0,0:0:0:0:
0,44,151785,6,0,P|51:56|96:178,1,189.999994926453,2|8,3:2|0:0,0:0:0:0:
83,327,152302,1,0,0:0:0:0:
2,296,152475,2,0,P|39:249|72:242,1,85.0000016212464,2|2,0:0|3:2,0:0:0:0:
226,378,152820,1,10,0:0:0:0:
157,280,152992,2,0,L|170:330,1,42.5000008106232,0|0,0:0|0:0,0:0:0:0:
328,206,153164,6,0,B|298:178|298:178|239:184,1,85.0000016212464,2|0,3:2|0:0,0:0:0:0:
424,384,153509,2,0,L|387:256,1,127.50000243187,10|0,0:0|0:0,0:0:0:0:
512,126,153854,2,0,L|476:252,1,127.50000243187,2|0,0:0|0:0,0:0:0:0:
431,142,154199,1,10,0:0:0:0:
225,248,154371,1,0,0:0:0:0:
225,248,154457,1,0,0:0:0:0:
225,248,154544,6,0,P|256:207|334:209,1,127.50000243187,2|0,3:2|0:0,0:0:0:0:
390,253,154888,1,10,0:0:0:0:
349,121,155061,1,2,0:0:0:0:
394,263,155233,2,0,P|431:295|473:298,2,85.0000016212464,2|0|10,0:0|3:2|0:0,0:0:0:0:
271,361,155751,1,0,0:0:0:0:
166,262,155923,6,0,B|182:291|182:291|183:309|183:309|203:349,1,85.0000016212464,0|0,3:2|0:0,0:0:0:0:
12,215,156268,2,0,B|35:167|35:167|36:149|36:149|68:83,1,127.50000243187,10|0,0:0|0:0,0:0:0:0:
62,23,156613,1,2,0:0:0:0:
152,127,156785,1,2,3:2:0:0:
295,95,156957,2,0,P|247:115|216:185,1,127.50000243187,8|0,0:0|0:0,0:0:0:0:
123,195,157302,6,0,P|135:244|169:277,1,85.0000016212464,2|0,3:2|0:0,0:0:0:0:
152,127,157647,1,10,0:0:0:0:
210,336,157820,2,0,P|260:344|297:320,1,85.0000016212464,2|0,0:0|0:0,0:0:0:0:
157,269,158164,1,2,3:2:0:0:
365,318,158337,2,0,P|390:273|387:226,1,85.0000016212464,10|0,0:0|0:0,0:0:0:0:
288,328,158682,1,2,3:2:0:0:
410,157,158854,2,0,P|376:117|332:108,1,85.0000016212464,2|10,0:0|0:0,0:0:0:0:
390,240,159199,1,2,0:0:0:0:
204,52,159371,1,2,0:0:0:0:
152,127,159544,1,2,3:2:0:0:
181,138,159630,1,2,0:0:0:0:
212,139,159716,1,10,0:0:0:0:
243,130,159802,1,2,0:0:0:0:
269,112,159888,1,2,3:2:0:0:
288,87,159975,1,2,0:0:0:0:
297,57,160061,6,0,L|268:181,1,120,2|0,3:2|0:0,0:0:0:0:
304,235,160406,1,10,0:0:0:0:
432,327,160578,2,0,P|416:290|408:219,1,80,2|0,0:0|0:0,0:0:0:0:
450,172,160923,1,2,3:2:0:0:
237,384,161095,2,0,P|252:347|260:308,1,80,10|0,0:0|0:0,0:0:0:0:
105,161,161440,5,2,3:2:0:0:
98,326,161613,2,0,P|141:318|145:209,1,160,2|2,0:0|0:0,0:0:0:0:
284,140,162130,2,0,P|255:114|209:112,1,80,2|0,0:0|3:2,0:0:0:0:
105,161,162475,1,10,0:0:0:0:
247,26,162647,1,2,0:0:0:0:
388,180,162820,6,0,L|356:31,1,120,2|0,3:2|0:0,0:0:0:0:
398,3,163164,1,10,0:0:0:0:
224,192,163337,2,0,P|242:179|289:130,1,80,2|0,0:0|0:0,0:0:0:0:
373,252,163682,1,2,3:2:0:0:
395,369,163854,2,0,P|367:339|335:316,1,80,10|0,0:0|0:0,0:0:0:0:
143,361,164199,5,2,3:2:0:0:
251,373,164371,2,0,P|237:312|134:253,1,160,2|2,0:0|0:0,0:0:0:0:
0,325,164888,2,0,L|103:301,1,80,2|0,0:0|3:2,0:0:0:0:
0,191,165233,1,10,0:0:0:0:
107,73,165406,1,2,0:0:0:0:
107,73,165492,1,0,0:0:0:0:
107,73,165578,6,0,P|78:121|111:193,1,120,2|0,3:2|0:0,0:0:0:0:
159,214,165923,1,10,0:0:0:0:
289,55,166095,2,0,B|256:34|256:34|200:35,1,80,2|2,0:0|0:0,0:0:0:0:
365,159,166440,1,2,3:2:0:0:
256,250,166613,2,0,B|289:229|289:229|345:230,1,80,10|0,0:0|0:0,0:0:0:0:
94,307,166957,5,2,3:2:0:0:
301,377,167130,2,0,P|262:347|142:354,1,160,2|0,0:0|0:0,0:0:0:0:
370,307,167647,2,0,L|387:384,1,80,2|0,0:0|3:2,0:0:0:0:
512,166,167992,1,10,0:0:0:0:
458,256,168164,1,2,0:0:0:0:
365,159,168337,6,0,L|394:37,1,120,2|0,3:2|0:0,0:0:0:0:
452,0,168682,1,10,0:0:0:0:
222,110,168854,2,0,P|277:91|318:90,1,80,2|0,0:0|0:0,0:0:0:0:
183,231,169199,1,2,3:2:0:0:
124,161,169371,2,0,P|69:142|28:141,1,80,10|0,0:0|0:0,0:0:0:0:
217,330,169716,5,2,3:2:0:0:
183,231,169888,2,0,P|120:287|130:387,1,160,2|2,0:0|0:0,0:0:0:0:
345,245,170406,1,2,0:0:0:0:
217,330,170578,1,0,3:2:0:0:
226,158,170751,1,10,0:0:0:0:
372,351,170923,2,0,L|363:311,1,40,2|0,3:2|0:0,0:0:0:0:
458,155,171095,6,0,L|480:60,2,80,2|0|10,3:2|0:0|0:0,0:0:0:0:
296,4,171613,2,0,P|350:32|380:99,1,120,2|0,0:0|0:0,0:0:0:0:
364,95,171957,1,2,3:2:0:0:
220,83,172130,2,0,P|178:55|163:22,1,80,10|0,0:0|0:0,0:0:0:0:
88,92,172475,6,0,P|42:106|22:149,2,80,2|2|10,3:2|0:0|0:0,0:0:0:0:
93,316,172992,2,0,B|64:280|64:280|92:165,1,160,2|0,0:0|3:2,0:0:0:0:
195,283,173509,2,0,L|216:377,1,80,10|2,0:0|0:0,0:0:0:0:
400,327,173854,6,0,P|371:355|334:369,2,80,2|0|10,3:2|0:0|0:0,0:0:0:0:
348,152,174371,2,0,P|324:196|309:276,1,120,2|0,0:0|0:0,0:0:0:0:
321,279,174716,1,2,3:2:0:0:
423,105,174888,2,0,P|394:76|357:62,1,80,10|0,0:0|0:0,0:0:0:0:
193,25,175233,6,0,L|101:46,2,80,2|0|10,3:2|0:0|0:0,0:0:0:0:
0,141,175751,2,0,P|73:130|101:199,1,160,2|0,0:0|3:2,0:0:0:0:
56,308,176268,1,10,0:0:0:0:
269,194,176440,1,2,0:0:0:0:
269,194,176526,1,0,0:0:0:0:
269,194,176613,6,0,L|184:175,1,80,2|0,3:2|0:0,0:0:0:0:
312,266,176957,1,10,0:0:0:0:
273,361,177130,2,0,L|390:338,1,120,2|0,0:0|0:0,0:0:0:0:
402,326,177475,1,2,3:2:0:0:
459,186,177647,2,0,P|483:217|490:257,1,80,10|0,0:0|0:0,0:0:0:0:
410,104,177992,6,0,P|416:64|440:33,1,80,2|2,3:2|0:0,0:0:0:0:
369,190,178337,1,8,0:0:0:0:
490,256,178509,2,0,P|443:259|334:293,1,160,2|0,0:0|3:2,0:0:0:0:
245,126,179026,1,10,0:0:0:0:
290,190,179199,1,2,0:0:0:0:
407,101,179371,6,0,L|317:123,1,80,2|0,3:2|0:0,0:0:0:0:
169,13,179716,1,10,0:0:0:0:
64,35,179888,2,0,P|119:82|126:144,1,120,2|0,0:0|0:0,0:0:0:0:
117,139,180233,1,2,3:2:0:0:
162,262,180406,2,0,P|153:300|128:331,1,80,10|0,0:0|0:0,0:0:0:0:
0,223,180751,6,0,L|91:202,1,80,2|0,3:2|0:0,0:0:0:0:
128,126,181095,1,10,0:0:0:0:
94,373,181268,2,0,P|86:314|169:263,1,160,2|2,0:0|3:2,0:0:0:0:
180,324,181699,1,2,0:0:0:0:
180,292,181786,1,10,0:0:0:0:
198,265,181872,1,2,0:0:0:0:
226,252,181958,1,2,3:2:0:0:
258,255,182044,1,2,0:0:0:0:
283,273,182130,6,0,P|299:335|286:368,2,80,2|0|10,3:2|0:0|0:0,0:0:0:0:
436,183,182647,2,0,P|385:212|373:269,1,120,0|0,0:0|0:0,0:0:0:0:
383,284,182992,1,0,3:2:0:0:
498,130,183164,2,0,P|444:103|408:111,1,80,10|2,0:0|0:0,0:0:0:0:
275,9,183509,6,0,P|301:78|321:155,1,120,2|0,3:2|0:0,0:0:0:0:
307,141,183854,1,10,0:0:0:0:
241,287,184026,2,0,P|217:209|173:195,1,120,2|0,0:0|0:0,0:0:0:0:
169,211,184371,1,0,3:2:0:0:
129,345,184544,1,10,0:0:0:0:
296,337,184716,1,2,0:0:0:0:
127,274,184888,6,0,L|-6:298,1,120,2|0,3:2|0:0,0:0:0:0:
0,315,185233,1,10,0:0:0:0:
145,81,185406,2,0,B|164:127|164:127|162:149|162:149|184:204,1,120,2|0,0:0|0:0,0:0:0:0:
169,211,185751,1,0,3:2:0:0:
255,47,185923,2,0,P|212:21|159:19,1,80,10|2,0:0|0:0,0:0:0:0:
314,136,186268,6,0,P|352:127|385:105,1,80,2|0,3:2|0:0,0:0:0:0:
488,285,186613,1,10,0:0:0:0:
512,122,186785,2,0,P|457:156|433:238,1,120,2|0,0:0|0:0,0:0:0:0:
444,222,187130,1,0,3:2:0:0:
235,135,187302,1,10,0:0:0:0:
373,26,187475,1,2,3:2:0:0:
373,26,187561,1,0,0:0:0:0:
373,26,187647,6,0,L|356:110,2,80,2|0|10,3:2|0:0|0:0,0:0:0:0:
175,0,188164,2,0,B|212:19|212:19|235:135,1,160,2|0,0:0|3:2,0:0:0:0:
103,135,188682,2,0,P|135:163|147:215,1,80,10|0,0:0|0:0,0:0:0:0:
47,356,189026,6,0,P|65:299|109:259,1,120,0|0,3:2|0:0,0:0:0:0:
129,268,189371,1,10,0:0:0:0:
259,362,189544,2,0,L|170:352,1,80,2|2,0:0|0:0,0:0:0:0:
335,201,189888,1,0,3:2:0:0:
378,329,190061,1,10,0:0:0:0:
233,276,190233,1,2,0:0:0:0:
512,344,190406,6,0,P|457:312|444:214,1,160,2|10,3:2|0:0,0:0:0:0:
512,63,190923,2,0,P|467:126|390:134,1,160,2|0,0:0|3:2,0:0:0:0:
268,9,191440,1,10,0:0:0:0:
337,63,191613,1,2,0:0:0:0:
125,12,191785,6,0,L|147:101,1,80,0|0,3:2|0:0,0:0:0:0:
308,203,192130,2,0,P|292:148|236:136,1,120,10|0,0:0|0:0,0:0:0:0:
218,163,192475,1,0,0:0:0:0:
83,100,192647,1,0,3:2:0:0:
220,65,192820,1,10,0:0:0:0:
154,222,192992,1,2,0:0:0:0:
154,222,193078,1,0,0:0:0:0:
154,222,193164,5,2,3:2:0:0:
3,176,193337,2,0,P|40:232|32:292,1,120,2|0,0:0|0:0,0:0:0:0:
22,294,193682,1,2,0:0:0:0:
174,332,193854,2,0,L|84:318,1,80,2|0,0:0|3:2,0:0:0:0:
253,273,194199,1,10,0:0:0:0:
154,222,194371,1,2,0:0:0:0:
246,360,194544,6,0,L|325:347,1,80,2|2,3:2|0:0,0:0:0:0:
470,384,194888,2,0,B|445:350|445:350|485:254,1,120,10|0,0:0|0:0,0:0:0:0:
492,260,195233,1,2,0:0:0:0:
380,130,195406,1,2,3:2:0:0:
493,127,195578,1,10,0:0:0:0:
363,203,195751,1,2,0:0:0:0:
395,58,195923,5,2,3:2:0:0:
253,41,196095,2,0,P|293:82|309:117,1,80,2|8,0:0|0:0,0:0:0:0:
81,17,196440,1,2,0:0:0:0:
45,123,196613,2,0,P|100:87|167:78,1,120,2|0,0:0|0:0,0:0:0:0:
167,89,196957,1,10,0:0:0:0:
280,170,197130,1,2,0:0:0:0:
88,236,197302,5,2,3:2:0:0:
180,168,197475,1,2,0:0:0:0:
6,262,197647,2,0,P|64:274|114:307,1,120,10|0,0:0|0:0,0:0:0:0:
127,381,197992,2,0,P|179:359|224:356,1,80,2|2,0:0|3:2,0:0:0:0:
434,317,198337,1,10,0:0:0:0:
363,218,198509,1,2,3:2:0:0:
363,218,198595,1,0,0:0:0:0:
363,218,198682,6,0,L|380:132,1,80,2|0,3:2|0:0,0:0:0:0:
512,24,199026,1,10,0:0:0:0:
457,93,199199,1,2,0:0:0:0:
292,0,199371,2,0,L|307:78,1,80,2|0,0:0|3:2,0:0:0:0:
181,229,199716,1,10,0:0:0:0:
228,149,199888,1,2,0:0:0:0:
363,218,200061,6,0,P|323:218|288:237,1,80,2|0,3:2|0:0,0:0:0:0:
183,342,200406,2,0,P|199:298|176:222,1,120,10|0,0:0|0:0,0:0:0:0:
167,223,200751,1,2,0:0:0:0:
10,147,200923,1,2,3:2:0:0:
116,113,201095,1,10,0:0:0:0:
0,253,201268,1,2,0:0:0:0:
167,223,201440,5,2,3:2:0:0:
108,357,201613,2,0,B|143:338|143:338|194:343,1,80,2|8,0:0|0:0,0:0:0:0:
363,384,201957,1,2,0:0:0:0:
312,332,202130,2,0,L|333:213,1,120,2|0,0:0|0:0,0:0:0:0:
337,188,202475,1,10,0:0:0:0:
225,228,202647,1,2,0:0:0:0:
133,72,202820,5,2,3:2:0:0:
259,125,202992,1,2,0:0:0:0:
99,283,203164,2,0,P|99:243|170:198,1,120,10|0,0:0|0:0,0:0:0:0:
225,228,203509,1,2,0:0:0:0:
207,222,203595,1,2,0:0:0:0:
192,211,203681,1,2,3:2:0:0:
179,197,203767,1,2,0:0:0:0:
172,180,203853,1,10,0:0:0:0:
169,162,203940,1,2,0:0:0:0:
171,144,204026,1,2,3:2:0:0:
179,126,204112,1,2,0:0:0:0:
192,111,204199,6,0,P|240:79|334:147,1,178.749991817475,6|0,0:0|0:0,0:0:0:0:
346,205,205233,1,2,0:0:0:0:
455,106,205578,1,2,0:0:0:0:
499,281,205923,1,2,0:0:0:0:
499,281,206957,6,0,B|403:277|440:201|332:204,1,178.749991817475,2|0,0:0|0:0,0:0:0:0:
278,232,207992,1,2,0:0:0:0:
359,333,208337,1,2,0:0:0:0:
359,333,209716,6,0,L|235:352,1,113.749994792938,2|0,0:0|0:0,0:0:0:0:
181,384,210406,1,2,0:0:0:0:
2,295,210751,2,0,P|59:307|75:250,1,129.999994049073,2|0,0:0|0:0,0:0:0:0:
75,250,211785,1,2,0:0:0:0:
75,250,212475,6,0,P|121:251|149:213,2,97.4999955368044,2|2|2,0:0|0:0|0:0,0:0:0:0:
211,252,213854,5,2,0:0:0:0:
137,84,214544,2,0,P|149:122|149:211,1,129.999994049073,2|2,0:0|0:0,0:0:0:0:
