osu file format v14

[General]
AudioFilename: audio.mp3
AudioLeadIn: 0
PreviewTime: 137216
Countdown: 0
SampleSet: Soft
StackLeniency: 0.7
Mode: 0
LetterboxInBreaks: 0
WidescreenStoryboard: 1

[Editor]
DistanceSpacing: 1.5
BeatDivisor: 4
GridSize: 32
TimelineZoom: 1

[Metadata]
Title:Nightmare (Maxin Remix)
TitleUnicode:Nightmare (Maxin Remix)
Artist:SirensCeol
ArtistUnicode:SirensCeol
Creator:Dayno
Version:Hard
Source:
Tags:liquid dnb drum & and bass d&b d'n'b electronic instrumental sean dee
BeatmapID:3027708
BeatmapSetID:1475425

[Difficulty]
HPDrainRate:4
CircleSize:4
OverallDifficulty:7
ApproachRate:8
SliderMultiplier:1
SliderTickRate:1

[Events]
//Background and Video events
0,0,"zzzzzzzzzzzzzzzzzzzz.jpg",0,0
//Break Periods
//Storyboard Layer 0 (Background)
//Storyboard Layer 1 (Fail)
//Storyboard Layer 2 (Pass)
//Storyboard Layer 3 (Foreground)
//Storyboard Layer 4 (Overlay)
//Storyboard Sound Samples

[TimingPoints]
2820,344.827586206897,4,2,1,60,1,0
2820,-133.333333333333,4,2,1,60,0,0
3682,-133.333333333333,4,2,1,5,0,0
3854,-133.333333333333,4,2,1,60,0,0
6440,-133.333333333333,4,2,1,5,0,0
6613,-133.333333333333,4,2,1,60,0,0
8854,-133.333333333333,4,2,1,5,0,0
9026,-133.333333333333,4,2,1,60,0,0
13509,-133.333333333333,4,2,1,5,0,0
13854,-133.333333333333,4,2,1,60,0,0
14199,-133.333333333333,4,2,1,5,0,0
14371,-133.333333333333,4,2,1,60,0,0
15406,-133.333333333333,4,2,1,5,0,0
15578,-133.333333333333,4,2,1,60,0,0
19199,-133.333333333333,4,2,1,5,0,0
19371,-133.333333333333,4,2,1,60,0,0
24026,-133.333333333333,4,2,1,5,0,0
24199,-133.333333333333,4,2,1,60,0,0
24888,-105.263157894737,4,2,1,60,0,0
49716,-80,4,2,1,80,0,0
71785,-80,4,2,1,80,0,1
93854,-133.333333333333,4,2,1,60,0,0
115923,-100,4,2,1,60,0,0
137992,-74.0740740740741,4,2,1,80,0,1
159975,-74.0740740740741,4,2,1,80,0,0
160061,-80,4,2,1,80,0,1
182130,-80,4,2,1,80,0,0
193164,-80,4,2,1,80,0,1
204199,-133.333333333333,4,2,1,60,0,0
205061,-133.333333333333,4,2,1,5,0,0
205233,-133.333333333333,4,2,1,60,0,0
207906,-133.333333333333,4,2,1,5,0,0
207992,-133.333333333333,4,2,1,60,0,0
210233,-133.333333333333,4,2,1,5,0,0
210406,-133.333333333333,4,2,1,60,0,0
212906,-133.333333333333,4,2,1,5,0,0
212992,-133.333333333333,4,2,1,60,0,0
213423,-133.333333333333,4,2,1,5,0,0
213509,-133.333333333333,4,2,1,60,0,0
213768,-133.333333333333,4,2,1,5,0,0
213854,-133.333333333333,4,2,1,60,0,0
215147,-133.333333333333,4,2,1,5,0,0
215233,-133.333333333333,4,2,1,60,0,0

[Colours]
Combo1 : 45,105,170
Combo2 : 29,77,141
Combo3 : 124,182,223

[HitObjects]
11,296,2820,6,0,P|52:234|153:259,1,187.500007152558,2|0,0:0|0:0,0:0:0:0:
180,320,3854,2,0,P|185:283|208:253,2,75.0000028610231,2|2|2,0:0|0:0|0:0,0:0:0:0:
448,185,5578,6,0,B|394:185|381:158|381:158|346:164|346:164|323:130|273:131,1,187.500007152558,2|0,0:0|0:0,0:0:0:0:
222,89,6613,2,0,P|191:86|147:100,1,75.0000028610231,2|2,0:0|0:0,0:0:0:0:
62,32,8337,6,0,L|90:149,1,112.500004291535,2|0,0:0|0:0,0:0:0:0:
128,199,9026,1,2,0:0:0:0:
18,282,9371,2,0,B|124:251|110:364|238:310,1,225.000008583069,2|2,0:0|0:0,0:0:0:0:
454,318,11095,6,0,B|514:321|499:236|425:235|372:356|372:356|401:293|400:187|300:142|221:177,1,525.000020027161,2|0,0:0|0:0,0:0:0:0:
138,287,13854,6,0,L|52:278,1,75.0000028610231,2|0,0:0|0:0,0:0:0:0:
2,316,14371,1,2,0:0:0:0:
148,160,14888,1,2,0:0:0:0:
280,213,15233,6,0,L|271:166,1,37.5000014305115,2|0,0:0|0:0,0:0:0:0:
297,111,15578,1,2,0:0:0:0:
297,111,15751,1,2,0:0:0:0:
402,47,16268,2,0,L|420:50,3,18.7500007152558,2|2|2|2,0:0|0:0|0:0|0:0,0:0:0:0:
443,42,16613,6,0,P|425:75|456:144,1,112.500004291535,2|2,0:0|0:0,0:0:0:0:
512,202,17647,1,2,0:0:0:0:
512,202,17992,6,0,P|462:154|380:282,1,262.500010013581,2|0,0:0|0:0,0:0:0:0:
429,310,19371,6,0,B|395:300|395:300|315:323,1,112.500004291535,2|0,0:0|0:0,0:0:0:0:
253,345,20061,2,0,L|169:320,1,75.0000028610231,2|2,0:0|0:0,0:0:0:0:
181,323,21440,1,2,0:0:0:0:
0,194,22130,6,0,B|42:213|83:196|99:159|99:159|134:68|48:40|0:135|100:159|100:159|150:203|144:240,1,412.500015735627,2|0,0:0|0:0,0:0:0:0:
195,274,24199,2,0,L|188:305,3,18.7500007152558,2|2|2|2,0:0|0:0|0:0|0:0,0:0:0:0:
168,320,24544,2,0,L|161:351,3,18.7500007152558,2|2|2|2,0:0|0:0|0:0|0:0,0:0:0:0:
140,376,24888,6,0,P|203:313|283:353,1,189.999994926453,2|0,0:0|0:0,0:0:0:0:
391,253,25923,1,2,0:0:0:0:
478,165,26268,6,0,P|414:227|334:187,1,189.999994926453,2|0,0:0|0:0,0:0:0:0:
180,8,27647,6,0,P|211:45|220:150,1,142.49999619484,2|0,0:0|0:0,0:0:0:0:
185,207,28337,2,0,P|188:233|209:266,1,47.4999987316132,2|0,0:0|0:0,0:0:0:0:
264,297,28682,2,0,L|423:277,1,142.49999619484,2|0,0:0|0:0,0:0:0:0:
466,226,29371,2,0,P|484:258|477:322,2,94.9999974632264,2|2|2,0:0|0:0|0:0,0:0:0:0:
310,179,30406,6,0,P|304:132|378:63,1,142.49999619484,2|0,0:0|0:0,0:0:0:0:
443,55,31095,2,0,L|343:34,1,94.9999974632264,2|2,0:0|0:0,0:0:0:0:
350,35,32475,1,2,0:0:0:0:
350,35,33164,6,0,P|301:20|256:102,1,142.49999619484,2|0,0:0|0:0,0:0:0:0:
315,134,33854,2,0,P|257:132|178:161,2,142.49999619484,2|2|2,0:0|0:0|0:0,0:0:0:0:
94,360,35923,6,0,P|129:288|105:226,1,142.49999619484,2|2,0:0|0:0,0:0:0:0:
3,70,36957,2,0,L|60:81,1,47.4999987316132,2|0,0:0|0:0,0:0:0:0:
122,115,37302,2,0,L|168:105,1,47.4999987316132,2|0,0:0|0:0,0:0:0:0:
232,54,37647,1,2,0:0:0:0:
232,54,37820,2,0,P|196:89|258:205,1,189.999994926453,2|0,0:0|0:0,0:0:0:0:
323,209,38682,6,0,P|236:231|227:294,1,142.49999619484,2|0,0:0|0:0,0:0:0:0:
240,351,39371,2,0,L|289:367,1,47.4999987316132,2|0,0:0|0:0,0:0:0:0:
323,294,39716,2,0,L|474:260,1,142.49999619484,2|0,0:0|0:0,0:0:0:0:
511,327,40406,6,0,B|494:280|494:280|520:220,2,94.9999974632264,2|2|2,0:0|0:0|0:0,0:0:0:0:
357,378,41440,6,0,B|303:360|303:360|273:367|273:367|213:347,1,142.49999619484,2|0,0:0|0:0,0:0:0:0:
144,376,42130,2,0,P|151:335|117:284,1,94.9999974632264,2|2,0:0|0:0,0:0:0:0:
125,290,43164,1,2,0:0:0:0:
23,223,43509,1,2,0:0:0:0:
23,223,43682,2,0,L|6:119,1,94.9999974632264,2|0,0:0|0:0,0:0:0:0:
32,52,44199,6,0,P|92:15|171:17,1,142.49999619484,2|0,0:0|0:0,0:0:0:0:
210,79,44888,2,0,P|274:72|255:10,2,142.49999619484
162,14,46268,1,0,0:0:0:0:
109,47,46441,1,0,0:0:0:0:
129,98,46613,1,0,0:0:0:0:
256,192,46785,12,0,49371,0:0:0:0:
87,86,49716,6,0,L|101:160,1,62.5,6|0,3:2|0:0,0:0:0:0:
141,216,50061,2,0,L|129:277,2,62.5,10|0|0,0:0|0:0|0:0,0:0:0:0:
199,159,50578,1,0,3:2:0:0:
199,159,50751,2,0,P|252:175|273:228,1,93.75,10|0,0:0|0:0,0:0:0:0:
274,246,51095,6,0,P|304:211|377:233,1,125,2|10,3:2|0:0,0:0:0:0:
415,304,51613,1,0,0:0:0:0:
415,304,51785,1,0,0:0:0:0:
481,257,51957,1,0,3:0:0:0:
439,187,52130,2,0,P|447:148|500:106,1,93.75,8|0,0:0|0:0,0:0:0:0:
511,80,52475,6,0,L|375:52,1,125,2|8,3:2|0:0,0:0:0:0:
310,85,52992,1,0,0:0:0:0:
266,16,53164,2,0,P|232:56|228:87,1,62.5,2|0,0:2|3:2,0:0:0:0:
197,139,53509,2,0,P|157:105|126:101,1,62.5,10|0,0:0|0:0,0:0:0:0:
94,41,53854,6,0,L|25:54,1,62.5,2|0,3:2|0:0,0:0:0:0:
9,128,54199,2,0,P|7:168|53:192,1,93.75,10|0,0:0|0:0,0:0:0:0:
89,207,54544,2,0,P|48:205|25:251,1,93.75,2|0,0:0|0:0,0:0:0:0:
38,286,54888,1,10,0:0:0:0:
107,345,55061,1,0,0:0:0:0:
107,345,55147,1,0,0:0:0:0:
107,345,55233,6,0,L|186:332,1,62.5,2|0,3:2|0:0,0:0:0:0:
235,287,55578,2,0,L|314:300,2,62.5,10|2|2,0:0|0:0|0:0,0:0:0:0:
187,227,56095,1,0,3:2:0:0:
187,227,56268,2,0,P|215:194|249:180,1,62.5,10|0,0:0|0:0,0:0:0:0:
293,132,56613,6,0,P|322:140|347:159,1,62.5,0|0,3:2|0:0,0:0:0:0:
418,198,56957,2,0,L|427:82,1,93.75,10|0,0:0|0:0,0:0:0:0:
430,67,57302,1,2,0:0:0:0:
430,67,57475,1,2,3:2:0:0:
359,27,57647,2,0,P|314:25|260:66,1,93.75,8|0,0:0|0:0,0:0:0:0:
246,81,57992,6,0,P|213:88|163:70,2,62.5,2|0|10,3:2|0:0|0:0,0:0:0:0:
314,134,58509,1,2,0:0:0:0:
314,134,58682,1,0,0:0:0:0:
259,193,58854,1,2,3:2:0:0:
325,239,59026,2,0,L|308:342,1,93.75,10|0,0:0|0:0,0:0:0:0:
303,372,59371,6,0,P|282:360|229:355,1,62.5,0|0,3:2|0:0,0:0:0:0:
180,302,59716,1,10,0:0:0:0:
115,350,59888,1,2,0:0:0:0:
49,300,60061,2,0,L|37:228,1,62.5,2|2,0:0|3:2,0:0:0:0:
78,167,60406,1,10,0:0:0:0:
81,151,60492,1,2,0:0:0:0:
83,136,60578,1,2,3:2:0:0:
86,121,60664,1,2,0:0:0:0:
89,105,60751,6,0,P|143:88|164:89,1,62.5,2|0,3:2|0:0,0:0:0:0:
217,129,61095,1,8,0:0:0:0:
296,101,61268,1,0,0:0:0:0:
296,101,61440,1,0,0:0:0:0:
366,150,61613,1,0,3:2:0:0:
366,150,61785,2,0,L|382:77,1,62.5,10|2,0:0|0:0,0:0:0:0:
461,88,62130,6,0,L|433:216,1,125,2|10,3:2|0:0,0:0:0:0:
360,239,62647,1,0,0:0:0:0:
360,239,62820,1,0,0:0:0:0:
407,304,62992,1,0,3:2:0:0:
343,354,63164,2,0,P|308:326|251:337,1,93.75,8|0,0:0|0:0,0:0:0:0:
224,348,63509,6,0,B|196:357|196:357|91:315,1,125,2|8,3:2|0:0,0:0:0:0:
30,294,64026,1,0,0:0:0:0:
90,239,64199,2,0,P|85:200|40:167,1,93.75,2|0,0:0|0:0,0:0:0:0:
5,182,64544,2,0,P|42:155|50:110,1,93.75,10|0,0:0|0:0,0:0:0:0:
24,82,64888,6,0,B|49:64|49:64|94:64,1,62.5,2|0,3:2|0:0,0:0:0:0:
147,110,65233,2,0,L|249:86,1,93.75,10|0,0:0|0:0,0:0:0:0:
269,61,65578,2,0,L|371:85,1,93.75,2|0,0:0|0:0,0:0:0:0:
389,111,65923,1,10,0:0:0:0:
477,122,66095,1,0,0:0:0:0:
477,122,66182,1,0,0:0:0:0:
477,122,66268,6,0,P|452:169|450:206,1,62.5,2|0,3:2|0:0,0:0:0:0:
382,223,66613,2,0,P|407:270|409:307,1,62.5,10|2,0:0|0:0,0:0:0:0:
372,351,66957,2,0,L|306:366,2,62.5,2|0|10,0:0|3:2|0:0,0:0:0:0:
331,279,67475,1,0,0:0:0:0:
254,304,67647,6,0,L|193:290,1,62.5,0|0,3:2|0:0,0:0:0:0:
136,349,67992,2,0,P|101:299|45:300,1,93.75,10|0,0:0|0:0,0:0:0:0:
31,298,68337,1,2,0:0:0:0:
59,221,68509,1,2,3:2:0:0:
27,146,68682,2,0,P|82:144|137:176,1,93.75,8|0,0:0|0:0,0:0:0:0:
150,182,69026,6,0,L|133:96,2,62.5,2|0|8,3:2|0:0|0:0,0:0:0:0:
212,243,69544,1,2,0:0:0:0:
212,243,69716,1,0,0:0:0:0:
268,185,69888,1,0,3:2:0:0:
317,249,70061,2,0,P|342:218|348:181,1,62.5,10|0,0:0|0:0,0:0:0:0:
401,135,70406,6,0,P|391:105|369:83,1,62.5,0|0,3:2|0:0,0:0:0:0:
340,11,70751,1,8,0:0:0:0:
340,11,70923,1,0,0:0:0:0:
269,50,71095,2,0,L|199:39,1,62.5,0|2,0:0|3:2,0:0:0:0:
130,14,71440,1,10,0:0:0:0:
115,16,71526,1,2,0:0:0:0:
100,19,71612,1,2,3:2:0:0:
84,21,71698,1,2,0:0:0:0:
69,24,71785,6,0,P|55:56|56:95,1,62.5,2|0,3:2|0:0,0:0:0:0:
98,151,72130,1,10,0:0:0:0:
98,151,72302,2,0,P|95:182|82:210,1,62.5,2|0,0:0|0:0,0:0:0:0:
14,255,72647,1,2,3:2:0:0:
52,326,72820,2,0,P|78:343|108:349,1,62.5,10|0,0:0|0:0,0:0:0:0:
186,327,73164,5,2,3:2:0:0:
264,304,73337,2,0,P|294:309|320:326,1,62.5,2|10,0:0|0:0,0:0:0:0:
388,379,73682,1,2,0:0:0:0:
388,379,73854,2,0,L|407:275,1,93.75,2|0,0:0|0:0,0:0:0:0:
431,255,74199,1,10,0:0:0:0:
384,188,74371,1,2,0:0:0:0:
445,134,74544,6,0,B|420:114|420:114|387:108,1,62.5,2|0,3:2|0:0,0:0:0:0:
316,74,74888,1,10,0:0:0:0:
316,74,75061,2,0,B|291:93|291:93|258:99,1,62.5,2|0,0:0|0:0,0:0:0:0:
190,57,75406,1,2,3:2:0:0:
127,4,75578,2,0,B|107:28|107:28|101:61,1,62.5,10|0,0:0|0:0,0:0:0:0:
117,139,75923,5,2,3:2:0:0:
181,188,76095,2,0,B|200:212|200:212|206:245,1,62.5,2|8,0:0|0:0,0:0:0:0:
241,321,76440,1,0,0:0:0:0:
241,321,76613,2,0,P|185:296|136:298,1,93.75,2|0,0:0|0:0,0:0:0:0:
122,321,76957,1,10,0:0:0:0:
59,286,77130,1,2,0:0:0:0:
59,286,77216,1,0,0:0:0:0:
59,286,77302,6,0,L|71:211,1,62.5,2|0,3:2|0:0,0:0:0:0:
26,160,77647,1,10,0:0:0:0:
26,160,77820,2,0,L|87:150,1,62.5,2|2,0:0|0:0,0:0:0:0:
139,87,78164,1,2,3:2:0:0:
194,27,78337,2,0,L|255:36,1,62.5,10|0,0:0|0:0,0:0:0:0:
314,93,78682,5,2,3:2:0:0:
394,81,78854,2,0,L|384:142,1,62.5,2|8,0:0|0:0,0:0:0:0:
317,188,79199,1,2,0:0:0:0:
317,188,79371,2,0,L|340:293,1,93.75,2|0,0:0|0:0,0:0:0:0:
345,319,79716,1,10,0:0:0:0:
264,312,79888,1,2,0:0:0:0:
211,375,80061,6,0,P|164:355|137:353,1,62.5,2|0,3:2|0:0,0:0:0:0:
101,296,80406,1,10,0:0:0:0:
101,296,80578,2,0,P|121:249|123:222,1,62.5,2|0,0:0|0:0,0:0:0:0:
52,196,80923,1,0,3:2:0:0:
119,150,81095,2,0,P|112:119|97:92,1,62.5,10|0,0:0|0:0,0:0:0:0:
150,30,81440,5,2,3:2:0:0:
229,49,81613,2,0,P|214:76|207:106,1,62.5,2|8,0:0|0:0,0:0:0:0:
240,180,81957,1,0,0:0:0:0:
240,180,82130,2,0,L|307:165,1,62.5,2|0,0:0|3:2,0:0:0:0:
366,215,82475,1,10,0:0:0:0:
369,200,82561,1,0,0:0:0:0:
373,185,82647,1,2,3:2:0:0:
376,170,82733,1,0,0:0:0:0:
379,154,82820,6,0,L|365:81,2,62.5,2|0|10,3:2|0:0|0:0,0:0:0:0:
454,203,83337,1,2,0:0:0:0:
454,203,83509,1,0,0:0:0:0:
386,254,83682,1,2,3:2:0:0:
448,306,83854,2,0,P|399:334|352:324,1,93.75,10|0,0:0|0:0,0:0:0:0:
323,324,84199,6,0,P|302:344|291:380,2,62.5,2|0|10,3:2|0:0|0:0,0:0:0:0:
276,263,84716,1,0,0:0:0:0:
276,263,84888,1,2,0:0:0:0:
217,320,85061,1,0,3:2:0:0:
148,276,85233,2,0,L|128:184,1,93.75,10|0,0:0|0:0,0:0:0:0:
110,147,85578,6,0,L|127:86,2,62.5,2|0|10,3:2|0:0|0:0,0:0:0:0:
47,103,86095,1,2,0:0:0:0:
47,103,86268,1,2,0:0:0:0:
76,27,86440,1,2,3:2:0:0:
126,86,86613,2,0,P|173:62|222:67,1,93.75,10|0,0:0|0:0,0:0:0:0:
251,78,86957,6,0,P|284:50|314:44,2,62.5,2|0|10,3:2|0:0|0:0,0:0:0:0:
204,146,87475,1,0,0:0:0:0:
204,146,87647,1,2,0:0:0:0:
272,189,87820,1,0,3:2:0:0:
317,122,87992,1,8,0:0:0:0:
331,126,88078,1,0,0:0:0:0:
346,131,88164,1,0,0:0:0:0:
361,136,88250,1,0,0:0:0:0:
376,141,88337,6,0,L|448:119,1,62.5,2|2,3:2|0:0,0:0:0:0:
456,201,88682,1,10,0:0:0:0:
386,242,88854,2,0,L|326:223,1,62.5,2|2,0:0|0:0,0:0:0:0:
260,268,89199,1,0,3:2:0:0:
260,268,89371,1,10,0:0:0:0:
322,320,89544,1,0,0:0:0:0:
403,300,89716,6,0,P|399:269|386:242,1,62.5,2|2,3:2|0:0,0:0:0:0:
316,197,90061,1,10,0:0:0:0:
366,133,90233,2,0,P|338:119|307:115,1,62.5,2|2,0:0|0:0,0:0:0:0:
238,159,90578,1,0,3:2:0:0:
238,159,90751,1,10,0:0:0:0:
179,102,90923,1,2,0:0:0:0:
126,164,91095,6,0,L|141:226,1,62.5,2|2,3:2|0:0,0:0:0:0:
86,284,91440,1,10,0:0:0:0:
149,334,91613,2,0,L|211:349,1,62.5,2|0,0:0|0:0,0:0:0:0:
282,313,91957,1,2,3:2:0:0:
282,313,92130,1,10,0:0:0:0:
352,353,92302,1,0,0:0:0:0:
398,285,92475,6,0,P|425:250|446:239,1,62.5,2|2,3:2|0:0,0:0:0:0:
381,184,92820,1,10,0:0:0:0:
381,184,92992,2,0,P|355:166|338:140,1,62.5,0|2,0:0|0:0,0:0:0:0:
361,61,93337,1,2,3:2:0:0:
283,83,93509,1,10,0:0:0:0:
267,80,93595,1,2,0:0:0:0:
252,77,93681,1,2,3:2:0:0:
236,74,93767,1,2,0:0:0:0:
221,72,93854,6,0,L|232:149,1,75.0000028610231,2|2,0:0|0:0,0:0:0:0:
156,141,94371,2,0,L|166:215,1,75.0000028610231,2|0,0:0|0:0,0:0:0:0:
124,278,94888,1,2,0:0:0:0:
183,323,95061,6,0,P|213:277|267:273,1,112.500004291535,2|2,0:0|0:0,0:0:0:0:
261,197,95751,2,0,P|297:203|328:223,1,75.0000028610231,2|0,0:0|0:0,0:0:0:0:
365,295,96268,1,2,0:0:0:0:
365,295,96440,6,0,L|378:178,1,112.500004291535,2|2,0:0|0:0,0:0:0:0:
440,141,97130,2,0,L|429:53,1,75.0000028610231,2|0,0:0|0:0,0:0:0:0:
359,91,97647,1,2,0:0:0:0:
307,35,97820,6,0,B|276:68|276:68|198:57,1,112.500004291535,2|2,0:0|0:0,0:0:0:0:
166,120,98509,2,0,B|135:87|135:87|68:96,1,112.500004291535,2|2,0:0|0:0,0:0:0:0:
91,167,99199,1,2,0:0:0:0:
30,211,99371,5,2,0:0:0:0:
30,364,99716,1,2,0:0:0:0:
30,364,99888,2,0,P|59:323|132:325,1,112.500004291535,2|2,0:0|0:0,0:0:0:0:
191,333,100578,2,0,P|141:311|125:258,1,112.500004291535,2|2,0:0|0:0,0:0:0:0:
158,191,101268,2,0,B|197:185|197:185|237:200,1,75.0000028610231,2|0,0:0|0:0,0:0:0:0:
300,223,101785,1,2,0:0:0:0:
265,289,101957,1,2,0:0:0:0:
315,344,102130,6,0,P|348:343|388:317,1,75.0000028610231,2|2,0:0|0:0,0:0:0:0:
456,303,102647,2,0,P|475:271|476:234,1,75.0000028610231,2|0,0:0|0:0,0:0:0:0:
431,173,103164,1,2,0:0:0:0:
481,116,103337,1,2,0:0:0:0:
446,49,103509,6,0,L|355:38,1,75.0000028610231,2|2,0:0|0:0,0:0:0:0:
299,18,104026,2,0,L|314:100,1,75.0000028610231,2|0,0:0|0:0,0:0:0:0:
255,141,104544,1,2,0:0:0:0:
203,87,104716,1,2,0:0:0:0:
132,112,104888,5,2,0:0:0:0:
16,168,105233,1,2,0:0:0:0:
16,168,105406,2,0,P|52:176|82:198,1,75.0000028610231,2|0,0:0|0:0,0:0:0:0:
74,276,105923,1,2,0:0:0:0:
74,276,106095,6,0,P|95:234|163:248,1,112.500004291535,2|2,0:0|0:0,0:0:0:0:
189,303,106785,2,0,L|270:310,1,75.0000028610231,2|0,0:0|0:0,0:0:0:0:
333,280,107302,1,2,0:0:0:0:
391,327,107475,1,2,0:0:0:0:
446,276,107647,6,0,L|436:190,1,75.0000028610231,2|2,0:0|0:0,0:0:0:0:
362,191,108164,2,0,L|353:116,1,75.0000028610231,2|0,0:0|0:0,0:0:0:0:
305,57,108682,1,2,0:0:0:0:
251,109,108854,6,0,P|221:87|142:87,1,112.500004291535,2|2,0:0|0:0,0:0:0:0:
116,16,109544,2,0,P|69:65|69:116,1,112.500004291535,2|2,0:0|0:0,0:0:0:0:
109,168,110233,1,2,0:0:0:0:
169,123,110406,5,2,0:0:0:0:
266,243,110751,1,2,0:0:0:0:
266,243,110923,2,0,L|350:229,1,75.0000028610231,2|0,0:0|0:0,0:0:0:0:
402,188,111440,1,2,0:0:0:0:
477,183,111613,2,0,P|438:199|419:271,1,112.500004291535,2|2,0:0|0:0,0:0:0:0:
431,336,112302,2,0,P|401:289|348:280,1,112.500004291535,2|2,0:0|0:0,0:0:0:0:
281,314,112992,1,2,0:0:0:0:
244,379,113164,6,0,L|158:362,1,75.0000028610231,2|2,0:0|0:0,0:0:0:0:
127,301,113682,2,0,L|53:315,1,75.0000028610231,2|0,0:0|0:0,0:0:0:0:
67,241,114199,1,2,0:0:0:0:
15,187,114371,1,2,0:0:0:0:
57,124,114544,6,0,P|81:134|136:133,1,75.0000028610231,2|2,0:0|0:0,0:0:0:0:
186,86,115061,1,2,0:0:0:0:
232,141,115233,2,0,L|223:174,3,18.7500007152558,2|2|2|2,0:0|0:0|0:0|0:0,0:0:0:0:
245,191,115578,2,0,L|240:209,3,18.7500007152558,2|2|2|2,0:0|0:0|0:0|0:0,0:0:0:0:
253,257,115923,5,2,0:0:0:0:
287,323,116095,2,0,P|317:327|383:298,1,100,2|2,0:0|0:0,0:0:0:0:
419,236,116613,2,0,P|395:227|370:225,1,50,2|0,0:0|0:0,0:0:0:0:
322,174,116957,1,2,0:0:0:0:
322,174,117130,1,2,0:0:0:0:
391,145,117302,6,0,L|410:84,1,50,2|0,0:0|0:0,0:0:0:0:
337,64,117647,2,0,L|356:3,1,50,2|0,0:0|0:0,0:0:0:0:
265,51,117992,1,2,0:0:0:0:
265,51,118164,1,2,0:0:0:0:
198,15,118337,2,0,L|142:29,1,50,2|2,0:0|0:0,0:0:0:0:
89,71,118682,5,2,0:0:0:0:
89,71,118854,2,0,P|109:91|134:157,1,100,2|2,0:0|0:0,0:0:0:0:
190,206,119371,1,2,0:0:0:0:
74,302,119716,1,2,0:0:0:0:
142,272,119888,1,2,0:0:0:0:
181,336,120061,6,0,L|240:316,1,50,2|2,0:0|0:0,0:0:0:0:
300,299,120406,1,2,0:0:0:0:
440,364,120751,1,2,0:0:0:0:
440,364,120923,1,2,0:0:0:0:
401,294,121095,2,0,L|414:230,1,50,2|2,0:0|0:0,0:0:0:0:
477,187,121440,5,2,0:0:0:0:
477,187,121613,2,0,P|426:160|366:170,1,100,2|2,0:0|0:0,0:0:0:0:
314,188,122130,1,2,0:0:0:0:
264,55,122475,1,2,0:0:0:0:
191,36,122647,1,2,0:0:0:0:
153,101,122820,6,0,L|164:149,1,50,2|2,0:0|0:0,0:0:0:0:
108,200,123164,1,2,0:0:0:0:
6,283,123509,1,2,0:0:0:0:
6,283,123682,1,2,0:0:0:0:
60,334,123854,2,0,L|126:318,1,50,2|2,0:0|0:0,0:0:0:0:
157,265,124199,5,2,0:0:0:0:
157,265,124371,2,0,P|185:274|239:339,1,100,2|2,0:0|0:0,0:0:0:0:
297,363,124888,2,0,P|306:334|324:305,1,50,2|0,0:0|0:0,0:0:0:0:
384,286,125233,1,2,0:0:0:0:
329,238,125406,1,2,0:0:0:0:
395,202,125578,6,0,L|463:189,1,50,2|2,0:0|0:0,0:0:0:0:
411,124,125923,2,0,L|361:114,1,50,2|0,0:0|0:0,0:0:0:0:
327,52,126268,1,2,0:0:0:0:
327,52,126440,1,2,0:0:0:0:
265,95,126613,1,2,0:0:0:0:
196,64,126785,1,2,0:0:0:0:
139,112,126957,5,2,0:0:0:0:
139,112,127130,2,0,L|123:234,1,100,2|2,0:0|0:0,0:0:0:0:
54,235,127647,2,0,L|64:296,1,50,2|0,0:0|0:0,0:0:0:0:
30,354,127992,1,2,0:0:0:0:
30,354,128164,1,2,0:0:0:0:
104,345,128337,6,0,P|143:352|169:372,1,50,2|2,0:0|0:0,0:0:0:0:
224,374,128682,2,0,P|263:367|289:347,1,50,2|0,0:0|0:0,0:0:0:0:
323,308,129026,1,2,0:0:0:0:
323,308,129199,1,2,0:0:0:0:
389,342,129371,2,0,P|395:302|385:271,1,50,2|2,0:0|0:0,0:0:0:0:
426,227,129716,5,2,0:0:0:0:
426,227,129888,2,0,L|316:205,1,100,2|2,0:0|0:0,0:0:0:0:
254,189,130406,1,2,0:0:0:0:
146,83,130751,1,2,0:0:0:0:
97,140,130923,1,2,0:0:0:0:
150,192,131095,6,0,P|164:225|168:251,1,50,2|2,0:0|0:0,0:0:0:0:
117,295,131440,1,2,0:0:0:0:
256,235,131785,1,2,0:0:0:0:
217,299,131957,1,2,0:0:0:0:
264,357,132130,2,0,P|288:356|313:350,1,50,2|2,0:0|0:0,0:0:0:0:
386,364,132475,5,2,0:0:0:0:
386,364,132647,2,0,L|362:254,1,100,2|2,0:0|0:0,0:0:0:0:
293,242,133164,1,2,0:0:0:0:
182,140,133509,1,2,0:0:0:0:
249,107,133682,1,2,0:0:0:0:
299,162,133854,6,0,L|357:171,1,50,2|2,0:0|0:0,0:0:0:0:
411,211,134199,1,2,0:0:0:0:
512,99,134544,1,2,0:0:0:0:
512,99,134716,1,2,0:0:0:0:
460,44,134888,2,0,P|436:34|412:29,1,50,2|2,0:0|0:0,0:0:0:0:
341,39,135233,5,2,0:0:0:0:
341,39,135406,2,0,L|330:96,1,50,2|0,0:0|0:0,0:0:0:0:
374,154,135751,1,2,0:0:0:0:
374,154,135924,2,0,L|363:211,1,50,2|0,0:0|0:0,0:0:0:0:
304,246,136268,1,2,0:0:0:0:
304,246,136440,1,2,0:0:0:0:
304,321,136613,6,0,P|264:248|182:259,1,175,2|0,0:0|0:0,0:0:0:0:
141,279,137302,2,0,L|148:255,3,25,2|2|2|2,0:0|0:0|0:0|0:0,0:0:0:0:
179,233,137647,2,0,L|186:209,3,25,2|2|2|2,0:0|0:0|0:0|0:0,0:0:0:0:
216,168,137992,6,0,P|182:170|147:145,1,67.5000002574921,6|0,3:2|0:0,0:0:0:0:
77,97,138337,2,0,P|48:80|15:82,2,67.5000002574921,10|2|0,0:0|0:0|0:0,0:0:0:0:
35,176,138854,1,0,3:2:0:0:
35,176,139026,2,0,L|55:287,1,101.250000386238,10|0,0:0|0:0,0:0:0:0:
80,310,139371,6,0,P|138:336|156:258,1,135.000000514984,2|10,3:2|0:0,0:0:0:0:
236,227,139888,1,0,0:0:0:0:
236,227,140061,1,0,0:0:0:0:
292,293,140233,1,0,3:2:0:0:
373,259,140406,2,0,L|353:148,1,101.250000386238,8|0,0:0|0:0,0:0:0:0:
364,116,140751,6,0,P|306:90|288:168,1,135.000000514984,2|8,3:2|0:0,0:0:0:0:
209,81,141268,1,0,0:0:0:0:
125,106,141440,2,0,L|109:179,1,67.5000002574921,2|2,0:0|3:2,0:0:0:0:
173,233,141785,2,0,L|157:306,1,67.5000002574921,10|0,0:0|0:0,0:0:0:0:
71,328,142130,6,0,P|43:297|38:261,1,67.5000002574921,2|0,3:2|0:0,0:0:0:0:
6,190,142475,2,0,P|61:173|54:116,1,101.250000386238,10|0,0:0|0:0,0:0:0:0:
50,96,142820,2,0,P|63:141|111:148,1,101.250000386238,2|0,0:0|0:0,0:0:0:0:
152,133,143164,1,10,0:0:0:0:
235,96,143337,1,0,0:0:0:0:
235,96,143423,1,0,0:0:0:0:
235,96,143509,6,0,L|308:111,1,67.5000002574921,2|0,3:2|0:0,0:0:0:0:
380,71,143854,2,0,L|366:4,2,67.5000002574921,10|2|2,0:0|0:0|0:0,0:0:0:0:
439,142,144371,1,0,3:2:0:0:
439,142,144544,2,0,L|423:216,1,67.5000002574921,10|0,0:0|0:0,0:0:0:0:
410,296,144888,6,0,P|363:265|347:265,1,67.5000002574921,0|0,3:2|0:0,0:0:0:0:
289,324,145233,2,0,L|175:305,1,101.250000386238,10|0,0:0|0:0,0:0:0:0:
150,285,145578,1,2,0:0:0:0:
150,285,145751,1,2,3:2:0:0:
62,283,145923,2,0,P|83:238|90:183,1,101.250000386238,10|0,0:0|0:0,0:0:0:0:
105,145,146268,6,0,P|96:112|79:83,2,67.5000002574921,2|0|10,3:2|0:0|0:0,0:0:0:0:
168,213,146785,1,0,0:0:0:0:
168,213,146957,1,0,0:0:0:0:
84,240,147130,1,0,3:2:0:0:
144,303,147302,2,0,L|209:288,1,67.5000002574921,8|0,0:0|0:0,0:0:0:0:
288,327,147647,6,0,L|353:312,1,67.5000002574921,0|0,3:2|0:0,0:0:0:0:
421,368,147992,1,10,0:0:0:0:
466,293,148164,1,2,0:0:0:0:
396,239,148337,2,0,P|385:193|393:166,1,67.5000002574921,2|2,0:0|3:2,0:0:0:0:
452,113,148682,1,10,0:0:0:0:
381,61,148854,1,0,3:2:0:0:
381,61,148940,1,0,0:0:0:0:
381,61,149026,6,0,P|342:57|299:46,1,67.5000002574921,2|0,3:2|0:0,0:0:0:0:
242,98,149371,1,8,0:0:0:0:
242,98,149544,2,0,P|211:104|171:107,1,67.5000002574921,0|0,0:0|0:0,0:0:0:0:
110,63,149888,1,0,3:2:0:0:
58,134,150061,2,0,P|54:161|83:215,1,67.5000002574921,10|2,0:0|0:0,0:0:0:0:
0,237,150406,6,0,P|49:232|94:309,1,135.000000514984,2|10,3:2|0:0,0:0:0:0:
181,268,150923,1,0,0:0:0:0:
181,268,151095,1,0,0:0:0:0:
234,337,151268,1,0,3:2:0:0:
320,324,151440,2,0,P|327:264|371:233,1,101.250000386238,8|0,0:0|0:0,0:0:0:0:
398,227,151785,6,0,L|243:187,1,135.000000514984,2|8,3:2|0:0,0:0:0:0:
226,115,152302,1,0,0:0:0:0:
175,42,152475,2,0,P|130:83|122:114,1,67.5000002574921,2|2,0:0|3:2,0:0:0:0:
39,87,152820,2,0,P|50:135|111:173,1,101.250000386238,10|0,0:0|0:0,0:0:0:0:
119,197,153164,6,0,L|133:281,1,67.5000002574921,2|0,3:2|0:0,0:0:0:0:
72,330,153509,2,0,L|179:347,1,101.250000386238,10|0,0:0|0:0,0:0:0:0:
211,326,153854,2,0,L|318:343,1,101.250000386238,2|0,0:0|0:0,0:0:0:0:
352,327,154199,1,10,0:0:0:0:
420,271,154371,1,0,0:0:0:0:
420,271,154457,1,0,0:0:0:0:
420,271,154544,6,0,P|372:245|349:245,1,67.5000002574921,2|0,3:2|0:0,0:0:0:0:
294,182,154888,6,0,P|342:156|365:156,1,67.5000002574921,10|2,0:0|0:0,0:0:0:0:
418,106,155233,2,0,L|447:187,2,67.5000002574921,2|0|10,0:0|3:2|0:0,0:0:0:0:
350,48,155751,1,0,0:0:0:0:
350,48,155923,6,0,L|270:29,1,67.5000002574921,0|0,3:2|0:0,0:0:0:0:
200,4,156268,2,0,P|187:74|154:78,1,101.250000386238,10|0,0:0|0:0,0:0:0:0:
127,80,156613,1,2,0:0:0:0:
162,160,156785,1,2,3:2:0:0:
96,218,156957,2,0,B|138:249|138:249|205:243,1,101.250000386238,8|0,0:0|0:0,0:0:0:0:
230,252,157302,6,0,L|302:272,2,67.5000002574921,2|0|10,3:2|0:0|0:0,0:0:0:0:
288,185,157820,1,2,0:0:0:0:
288,185,157992,1,0,0:0:0:0:
361,232,158164,1,2,3:2:0:0:
389,148,158337,2,0,L|407:82,1,67.5000002574921,10|0,0:0|0:0,0:0:0:0:
343,22,158682,6,0,L|324:87,1,67.5000002574921,2|2,3:2|0:0,0:0:0:0:
241,114,159026,2,0,P|188:105|167:45,1,101.250000386238,10|0,0:0|0:0,0:0:0:0:
157,23,159371,1,2,0:0:0:0:
69,35,159544,1,2,3:2:0:0:
100,116,159716,1,10,0:0:0:0:
95,132,159802,1,2,0:0:0:0:
91,149,159888,1,2,3:2:0:0:
86,165,159974,1,2,0:0:0:0:
82,181,160061,6,0,L|96:248,1,62.5,2|0,3:2|0:0,0:0:0:0:
54,313,160406,1,10,0:0:0:0:
54,313,160578,2,0,L|121:327,1,62.5,2|0,0:0|0:0,0:0:0:0:
185,284,160923,1,2,3:2:0:0:
231,350,161095,2,0,P|263:308|264:284,1,62.5,10|0,0:0|0:0,0:0:0:0:
247,220,161440,5,2,3:2:0:0:
333,193,161613,2,0,P|317:163|296:144,1,62.5,2|10,0:0|0:0,0:0:0:0:
211,126,161957,1,2,0:0:0:0:
140,85,162130,2,0,P|160:62|232:48,1,93.75,2|0,0:0|0:0,0:0:0:0:
259,54,162475,1,10,0:0:0:0:
329,13,162647,1,2,0:0:0:0:
397,57,162820,6,0,L|414:147,1,62.5,2|0,3:2|0:0,0:0:0:0:
473,175,163164,1,10,0:0:0:0:
473,175,163337,2,0,L|461:236,1,62.5,2|0,0:0|0:0,0:0:0:0:
475,316,163682,1,2,3:2:0:0:
398,343,163854,2,0,P|345:318|327:319,1,62.5,10|0,0:0|0:0,0:0:0:0:
268,283,164199,5,2,3:2:0:0:
194,317,164371,2,0,P|163:310|138:291,1,62.5,2|8,0:0|0:0,0:0:0:0:
65,268,164716,1,2,0:0:0:0:
65,268,164888,2,0,P|79:225|52:174,1,93.75,2|0,0:0|0:0,0:0:0:0:
24,163,165233,1,10,0:0:0:0:
29,88,165406,1,2,0:0:0:0:
29,88,165492,1,0,0:0:0:0:
29,88,165578,6,0,L|102:108,1,62.5,2|0,3:2|0:0,0:0:0:0:
181,17,165923,1,10,0:0:0:0:
181,17,166095,2,0,L|201:90,1,62.5,2|2,0:0|0:0,0:0:0:0:
173,155,166440,1,2,3:2:0:0:
230,213,166613,2,0,P|263:189|294:184,1,62.5,10|0,0:0|0:0,0:0:0:0:
354,160,166957,5,2,3:2:0:0:
422,103,167130,2,0,P|389:77|361:74,1,62.5,2|8,0:0|0:0,0:0:0:0:
296,37,167475,1,0,0:0:0:0:
228,92,167647,2,0,P|195:49|154:55,1,93.75,2|0,0:0|0:0,0:0:0:0:
132,83,167992,1,10,0:0:0:0:
166,156,168164,1,2,0:0:0:0:
118,222,168337,6,0,L|144:299,1,62.5,2|0,3:2|0:0,0:0:0:0:
88,347,168682,1,10,0:0:0:0:
88,347,168854,2,0,L|165:373,1,62.5,2|0,0:0|0:0,0:0:0:0:
213,319,169199,1,2,3:2:0:0:
289,344,169371,2,0,L|366:318,1,62.5,10|0,0:0|0:0,0:0:0:0:
422,357,169716,5,2,3:2:0:0:
465,288,169888,2,0,P|434:244|431:201,1,93.75,2|0,0:0|0:0,0:0:0:0:
452,170,170233,1,2,0:0:0:0:
452,170,170406,1,2,0:0:0:0:
371,157,170578,1,0,3:2:0:0:
431,93,170751,1,10,0:0:0:0:
358,85,170923,1,2,3:2:0:0:
358,85,171009,1,0,0:0:0:0:
358,85,171095,6,0,L|342:18,2,62.5,2|0|10,3:2|0:0|0:0,0:0:0:0:
280,74,171613,1,2,0:0:0:0:
280,74,171785,1,0,0:0:0:0:
207,37,171957,1,2,3:2:0:0:
156,101,172130,2,0,P|116:71|72:87,1,93.75,10|0,0:0|0:0,0:0:0:0:
62,122,172475,6,0,L|-5:102,2,62.5,2|2|10,3:2|0:0|0:0,0:0:0:0:
114,190,172992,1,2,0:0:0:0:
114,190,173164,1,2,0:0:0:0:
55,246,173337,1,0,3:2:0:0:
113,302,173509,2,0,L|215:275,1,93.75,10|0,0:0|0:0,0:0:0:0:
243,288,173854,6,0,P|232:326|236:358,2,62.5,2|0|10,3:2|0:0|0:0,0:0:0:0:
269,213,174371,1,2,0:0:0:0:
269,213,174544,1,0,0:0:0:0:
328,267,174716,1,2,3:2:0:0:
349,188,174888,2,0,P|378:164|434:168,1,93.75,10|0,0:0|0:0,0:0:0:0:
459,188,175233,6,0,P|448:158|443:127,2,62.5,2|0|10,3:2|0:0|0:0,0:0:0:0:
502,263,175751,1,2,0:0:0:0:
502,263,175923,1,2,0:0:0:0:
445,320,176095,1,0,3:2:0:0:
370,280,176268,1,10,0:0:0:0:
299,319,176440,1,2,0:0:0:0:
299,319,176526,1,0,0:0:0:0:
299,319,176613,6,0,L|231:310,1,62.5,2|0,3:2|0:0,0:0:0:0:
174,259,176957,1,10,0:0:0:0:
95,279,177130,2,0,P|93:251|103:217,1,62.5,2|2,0:0|0:0,0:0:0:0:
164,165,177475,1,2,3:2:0:0:
164,165,177647,1,10,0:0:0:0:
101,112,177820,1,0,0:0:0:0:
146,44,177992,6,0,P|192:33|223:35,1,62.5,2|2,3:2|0:0,0:0:0:0:
279,71,178337,1,8,0:0:0:0:
360,71,178509,2,0,P|350:100|349:131,1,62.5,2|2,0:0|0:0,0:0:0:0:
401,194,178854,1,0,3:2:0:0:
401,194,179026,1,10,0:0:0:0:
326,227,179199,1,2,0:0:0:0:
335,307,179371,6,0,L|269:288,1,62.5,2|0,3:2|0:0,0:0:0:0:
210,340,179716,1,10,0:0:0:0:
160,276,179888,2,0,P|177:245|178:216,1,62.5,2|0,0:0|0:0,0:0:0:0:
137,153,180233,1,2,3:2:0:0:
137,153,180406,1,10,0:0:0:0:
65,114,180578,1,0,0:0:0:0:
12,176,180751,6,0,P|58:196|70:195,1,62.5,2|0,3:2|0:0,0:0:0:0:
137,153,181095,2,0,P|183:133|195:134,1,62.5,10|2,0:0|0:0,0:0:0:0:
257,185,181440,1,2,0:0:0:0:
316,129,181613,1,2,3:2:0:0:
370,188,181785,1,10,0:0:0:0:
366,204,181871,1,2,0:0:0:0:
363,219,181957,1,2,3:2:0:0:
359,234,182043,1,2,0:0:0:0:
356,249,182130,6,0,L|375:315,2,62.5,2|0|10,3:2|0:0|0:0,0:0:0:0:
294,195,182647,2,0,P|241:166|177:187,1,125,0|0,0:0|3:2,0:0:0:0:
136,250,183164,1,10,0:0:0:0:
75,194,183337,1,2,0:0:0:0:
125,130,183509,6,0,L|140:69,1,62.5,2|2,3:2|0:0,0:0:0:0:
222,50,183854,1,10,0:0:0:0:
222,50,184026,2,0,B|284:58|284:58|359:22,1,125,2|0,0:0|3:2,0:0:0:0:
421,18,184544,1,10,0:0:0:0:
476,77,184716,1,2,0:0:0:0:
405,118,184888,6,0,P|385:170|384:192,1,62.5,2|0,3:2|0:0,0:0:0:0:
429,249,185233,1,10,0:0:0:0:
429,249,185406,2,0,P|393:246|391:326,1,125,2|0,0:0|3:2,0:0:0:0:
297,316,185923,1,10,0:0:0:0:
248,379,186095,1,2,0:0:0:0:
172,349,186268,6,0,L|153:270,1,62.5,2|0,3:2|0:0,0:0:0:0:
79,284,186613,1,10,0:0:0:0:
79,284,186785,2,0,P|88:235|103:157,1,125,2|0,0:0|3:2,0:0:0:0:
178,133,187302,1,10,0:0:0:0:
181,221,187475,1,2,3:2:0:0:
181,221,187561,1,0,0:0:0:0:
181,221,187647,6,0,P|231:197|256:194,1,62.5,2|0,3:2|0:0,0:0:0:0:
317,227,187992,1,10,0:0:0:0:
317,227,188164,2,0,P|344:270|347:349,1,125,2|0,0:0|3:2,0:0:0:0:
424,311,188682,1,10,0:0:0:0:
487,361,188854,1,0,0:0:0:0:
496,280,189026,6,0,L|506:209,1,62.5,0|0,3:2|0:0,0:0:0:0:
440,176,189371,1,10,0:0:0:0:
440,176,189544,2,0,P|402:128|431:67,1,125,2|0,0:0|3:2,0:0:0:0:
502,58,190061,1,10,0:0:0:0:
441,0,190233,1,2,0:0:0:0:
363,24,190406,6,0,L|290:43,1,62.5,2|0,3:2|0:0,0:0:0:0:
252,104,190751,1,10,0:0:0:0:
252,104,190923,2,0,P|219:65|136:53,1,125,2|0,0:0|3:2,0:0:0:0:
69,33,191440,1,10,0:0:0:0:
13,92,191613,1,2,0:0:0:0:
63,155,191785,6,0,P|61:180|45:221,1,62.5,0|0,3:2|0:0,0:0:0:0:
21,294,192130,1,10,0:0:0:0:
21,294,192302,2,0,B|64:288|64:288|154:330,1,125,2|0,0:0|3:2,0:0:0:0:
203,273,192820,1,10,0:0:0:0:
288,302,192992,1,2,0:0:0:0:
288,302,193078,1,0,0:0:0:0:
288,302,193164,6,0,L|270:226,2,62.5,2|2|8,3:2|0:0|0:0,0:0:0:0:
367,323,193682,1,2,0:0:0:0:
417,259,193854,2,0,L|431:198,1,62.5,2|0,0:0|3:2,0:0:0:0:
376,137,194199,1,10,0:0:0:0:
376,137,194371,1,2,0:0:0:0:
437,83,194544,6,0,P|393:58|372:57,1,62.5,2|2,3:2|0:0,0:0:0:0:
307,24,194888,2,0,P|276:31|252:50,1,62.5,10|0,0:0|0:0,0:0:0:0:
173,29,195233,1,2,0:0:0:0:
173,29,195406,1,2,3:2:0:0:
115,86,195578,2,0,P|112:117|121:147,1,62.5,10|2,0:0|0:0,0:0:0:0:
129,228,195923,6,0,L|62:216,2,62.5,2|2|8,3:2|0:0|0:0,0:0:0:0:
175,295,196440,1,2,0:0:0:0:
245,253,196613,2,0,L|306:241,1,62.5,2|0,0:0|3:2,0:0:0:0:
349,174,196957,1,10,0:0:0:0:
349,174,197130,1,2,0:0:0:0:
291,117,197302,6,0,P|264:155|264:172,1,62.5,2|2,3:2|0:0,0:0:0:0:
245,253,197647,2,0,P|266:275|271:305,1,62.5,10|0,0:0|0:0,0:0:0:0:
212,361,197992,1,2,0:0:0:0:
212,361,198164,1,2,3:2:0:0:
153,304,198337,1,10,0:0:0:0:
84,339,198509,1,2,3:2:0:0:
84,339,198595,1,0,0:0:0:0:
84,339,198682,6,0,L|15:324,2,62.5,2|0|10,3:2|0:0|0:0,0:0:0:0:
133,274,199199,1,2,0:0:0:0:
74,217,199371,2,0,L|60:155,1,62.5,2|0,0:0|3:2,0:0:0:0:
11,90,199716,1,10,0:0:0:0:
11,90,199888,1,2,0:0:0:0:
71,35,200061,6,0,P|122:38|144:49,1,62.5,2|0,3:2|0:0,0:0:0:0:
195,93,200406,2,0,P|246:90|268:79,1,62.5,10|0,0:0|0:0,0:0:0:0:
304,20,200751,1,2,0:0:0:0:
304,20,200923,1,2,3:2:0:0:
367,70,201095,2,0,L|352:138,1,62.5,10|2,0:0|0:0,0:0:0:0:
404,194,201440,6,0,L|465:180,2,62.5,2|2|8,3:2|0:0|0:0,0:0:0:0:
383,272,201957,1,2,0:0:0:0:
307,303,202130,2,0,L|245:289,1,62.5,2|0,0:0|3:2,0:0:0:0:
171,323,202475,1,10,0:0:0:0:
171,323,202647,1,2,0:0:0:0:
93,298,202820,6,0,P|91:267|75:222,1,62.5,2|2,3:2|0:0,0:0:0:0:
17,188,203164,2,0,P|19:156|27:126,1,62.5,10|0,0:0|0:0,0:0:0:0:
80,64,203509,2,0,L|116:52,3,31.25,2|2|2|2,0:0|0:0|3:2|0:0,0:0:0:0:
150,56,203854,2,0,L|186:44,3,31.25,10|2|2|2,0:0|0:0|3:2|0:0,0:0:0:0:
201,57,204199,6,0,P|250:82|379:57,1,187.500007152558,6|0,0:0|0:0,0:0:0:0:
410,25,205233,2,0,L|397:107,2,75.0000028610231,2|2|2,0:0|0:0|0:0,0:0:0:0:
492,305,206957,6,0,B|456:262|403:263|363:293|363:293|380:265|366:230,1,206.250007867813,2|0,0:0|0:0,0:0:0:0:
350,214,207992,2,0,P|313:210|275:239,1,75.0000028610231,2|2,0:0|0:0,0:0:0:0:
77,373,209716,6,0,L|102:254,1,112.500004291535,2|0,0:0|0:0,0:0:0:0:
107,214,210406,1,2,0:0:0:0:
36,146,210751,2,0,P|77:186|140:81,1,225.000008583069,2|2,0:0|0:0,0:0:0:0:
332,119,212475,6,0,P|286:109|247:84,1,93.7500035762788,2|0,0:0|0:0,0:0:0:0:
227,69,212992,2,0,L|246:166,1,93.7500035762788,2|0,0:0|0:0,0:0:0:0:
237,184,213509,2,0,L|248:243,1,56.2500021457673,2|0,0:0|0:0,0:0:0:0:
241,263,213854,5,2,0:0:0:0:
435,275,214544,2,0,P|394:263|354:334,1,131.25000500679,2|0,0:0|0:0,0:0:0:0:
372,343,215233,5,2,0:0:0:0:
