osu file format v14

[General]
AudioFilename: 12.Whore.mp3
AudioLeadIn: 0
PreviewTime: -1
Countdown: 0
SampleSet: Soft
StackLeniency: 0.7
Mode: 3
LetterboxInBreaks: 0
SpecialStyle: 0
WidescreenStoryboard: 1

[Editor]
DistanceSpacing: 0.8
BeatDivisor: 8
GridSize: 32
TimelineZoom: 1

[Metadata]
Title:Whore
TitleUnicode:Whore
Artist:Sir.Vixx
ArtistUnicode:Sir.Vixx
Creator:Xay
Version:Insane
Source:
Tags:breakcore profanity
BeatmapID:1240925
BeatmapSetID:585874

[Difficulty]
HPDrainRate:7
CircleSize:4
OverallDifficulty:7
ApproachRate:5
SliderMultiplier:1.4
SliderTickRate:1

[Events]
//Background and Video events
0,0,"bg file.jpg",0,0
//Break Periods
//Storyboard Layer 0 (Background)
//Storyboard Layer 1 (Fail)
//Storyboard Layer 2 (Pass)
//Storyboard Layer 3 (Foreground)
//Storyboard Sound Samples

[TimingPoints]
98,499.093314,4,2,0,15,1,0
98,-50.0908333145893,4,2,0,15,0,0
597,499.047651,4,2,0,15,1,0
597,-50.0954166398832,4,2,0,15,0,0
1096,499.093314,4,2,0,15,1,0
1096,-50.0908333145893,4,2,0,15,0,0
2094,499.047651,4,2,0,15,1,0
2094,-50.0954166398832,4,2,0,15,0,0
2593,499.093314,4,2,0,15,1,0
2593,-50.0908333145893,4,2,0,15,0,0
3592,499.047651,4,2,0,15,1,0
3592,-50.0954166398832,4,2,0,15,0,0
4091,499.093314,4,2,0,15,1,0
4091,-50.0908333145893,4,2,0,15,0,0
5089,499.047651,4,2,0,15,1,0
5089,-50.0954166398832,4,2,0,15,0,0
5588,499.093314,4,2,0,15,1,0
5588,-50.0908333145893,4,2,0,15,0,0
6586,499.047651,4,2,0,15,1,0
6586,-50.0954166398832,4,2,0,15,0,0
7085,499.093314,4,2,0,15,1,0
7085,-50.0908333145893,4,2,0,15,0,0
8083,499.047651,4,2,0,15,1,0
8083,-50.0954166398832,4,2,0,15,0,0
8582,499.093314,4,2,0,15,1,0
8582,-50.0908333145893,4,2,0,15,0,0
9081,499.047651,4,2,0,15,1,0
9081,-50.0954166398832,4,2,0,15,0,0
9580,499.093314,4,2,0,15,1,0
9580,-50.0908333145893,4,2,0,15,0,0
10579,499.047651,4,2,0,15,1,0
10579,-50.0954166398832,4,2,0,15,0,0
11078,499.093314,4,2,0,15,1,0
11078,-50.0908333145893,4,2,0,15,0,0
12076,499.047651,4,2,0,15,1,0
12076,-50.0954166398832,4,2,0,15,0,0
12575,499.093314,4,2,0,15,1,0
12575,-50.0908333145893,4,2,0,15,0,0
13074,499.047651,4,2,0,15,1,0
13074,-50.0954166398832,4,2,0,15,0,0
13573,504.897506,4,2,0,15,1,0
13573,-49.514999981006,4,2,0,15,0,0
14078,499.093314,4,2,0,15,1,0
14078,-50.0908333145893,4,2,0,15,0,0
14577,499.047651,4,2,0,15,1,0
14577,-50.0954166398832,4,2,0,15,0,0
15076,499.093314,4,2,0,15,1,0
15076,-50.0908333145893,4,2,0,15,0,0
16074,499.047651,4,2,0,15,1,0
16074,-50.0954166398832,4,2,0,15,0,0
16573,499.093314,4,2,0,15,1,0
16573,-50.0908333145893,4,2,0,15,0,0
17072,499.047651,4,2,0,15,1,0
17072,-50.0954166398832,4,2,0,15,0,0
17571,504.897506,4,2,0,15,1,0
17571,-49.514999981006,4,2,0,15,0,0
18076,499.093314,4,2,0,15,1,0
18076,-50.0908333145893,4,2,0,15,0,0
18575,504.876263,4,2,0,15,1,0
18575,-49.5170833571156,4,2,0,15,0,0
19080,499.093314,4,2,0,15,1,0
19080,-50.0908333145893,4,2,0,15,0,0
20079,499.047651,4,2,0,15,1,0
20079,-50.0954166398832,4,2,0,15,0,0
20578,499.093314,4,2,0,15,1,0
20578,-50.0908333145893,4,2,0,15,0,0
21077,499.047651,4,2,0,15,1,0
21077,-50.0954166398832,4,2,0,15,0,0
21576,499.093314,4,2,0,15,1,0
21576,-50.0908333145893,4,2,0,15,0,0
22574,499.047651,4,2,0,15,1,0
22574,-50.0954166398832,4,2,0,15,0,0
23073,499.093314,4,2,0,15,1,0
23073,-50.0908333145893,4,2,0,15,0,0
24071,499.047651,4,2,0,15,1,0
24071,-50.0954166398832,4,2,0,15,0,0
24570,499.093314,4,2,0,15,1,0
24570,-50.0908333145893,4,2,0,15,0,0
26067,499.047651,4,2,0,15,1,0
26067,-50.0954166398832,4,2,0,15,0,0
26567,261.156838,4,2,0,15,1,0
26567,-95.7279165709611,4,2,0,15,0,0
26828,249.546657,4,2,0,15,1,0
26828,-100.181666629179,4,2,0,15,0,0
28325,249.523825,4,2,0,15,1,0
28325,-100.19083348053,4,2,0,15,0,0
28574,249.546657,4,2,0,15,1,0
28574,-100.181666629179,4,2,0,15,0,0
28824,252.448753,4,2,0,15,1,0
28824,-99.0299999620121,4,2,0,15,0,0
29076,249.546657,4,2,0,15,1,0
29076,-100.181666629179,4,2,0,15,0,0
30324,249.523825,4,2,0,15,1,0
30324,-100.19083348053,4,2,0,15,0,0
30574,249.546657,4,2,0,15,1,0
30574,-100.181666629179,4,2,0,15,0,0
31073,252.448753,4,2,0,15,1,0
31073,-99.0299999620121,4,2,0,15,0,0
31325,249.546657,4,2,0,15,1,0
31325,-100.181666629179,4,2,0,15,0,0
32323,249.523825,4,2,0,15,1,0
32323,-100.19083348053,4,2,0,15,0,0
32573,252.448753,4,2,0,15,1,0
32573,-99.0299999620121,4,2,0,15,0,0
32825,249.546657,4,2,0,15,1,0
32825,-100.181666629179,4,2,0,15,0,0
33075,499.093314,4,2,0,15,1,0
33075,-50.0908333145893,4,2,0,15,0,0
34073,499.047651,4,2,0,15,1,0
34073,-50.0954166398832,4,2,0,15,0,0
34572,499.093314,4,2,0,15,1,0
34572,-50.0908333145893,4,2,0,15,0,0
36069,499.047651,4,2,0,15,1,0
36069,-50.0954166398832,4,2,0,15,0,0
36569,499.093314,4,2,0,15,1,0
36569,-50.0908333145893,4,2,0,15,0,0
38066,499.047651,4,2,0,15,1,0
38066,-50.0954166398832,4,2,0,15,0,0
38565,516.506693,4,2,0,15,1,0
38565,-48.4020833395086,4,2,0,15,0,0
39081,249.546657,4,2,0,15,1,0
39081,-100.181666629179,4,2,0,15,0,0
39331,246.643592,4,2,0,15,1,0
39331,-101.360833246379,4,2,0,15,0,0
39578,249.546657,4,2,0,15,1,0
39578,-100.181666629179,4,2,0,15,0,0
40326,249.523825,4,2,0,15,1,0
40326,-100.19083348053,4,2,0,15,0,0
40576,249.546657,4,2,0,15,1,0
40576,-100.181666629179,4,2,0,15,0,0
42323,249.523825,4,2,0,15,1,0
42323,-100.19083348053,4,2,0,15,0,0
42572,252.448753,4,2,0,15,1,0
42572,-99.0299999620121,4,2,0,15,0,0
42825,249.546657,4,2,0,15,1,0
42825,-100.181666629179,4,2,0,15,0,0
44322,249.523825,4,2,0,15,1,0
44322,-100.19083348053,4,2,0,15,0,0
44571,249.546657,4,2,0,15,1,0
44571,-100.181666629179,4,2,0,15,0,0
44821,252.448753,4,2,0,15,1,0
44821,-99.0299999620121,4,2,0,15,0,0
45073,249.546657,4,2,0,15,1,0
45073,-100.181666629179,4,2,0,15,0,0
46072,252.448753,4,2,0,15,1,0
46072,-99.0299999620121,4,2,0,15,0,0
46324,249.523825,4,2,0,15,1,0
46324,-100.19083348053,4,2,0,15,0,0
46573,249.546657,4,2,0,15,1,0
46573,-100.181666629179,4,2,0,15,0,0
47073,252.448753,4,2,0,15,1,0
47073,-99.0299999620121,4,2,0,15,0,0
47325,249.546657,4,2,0,15,1,0
47325,-100.181666629179,4,2,0,15,0,0
48074,252.426449,4,2,0,15,1,0
48074,-99.0387500954783,4,2,0,15,0,0
48326,249.546657,4,2,0,15,1,0
48326,-100.181666629179,4,2,0,15,0,0
49075,249.523825,4,2,0,15,1,0
49075,-100.19083348053,4,2,0,15,0,0
49324,249.546657,4,2,0,15,1,0
49324,-100.181666629179,4,2,0,15,0,0
49823,252.448753,4,2,0,15,1,0
49823,-99.0299999620121,4,2,0,15,0,0
50076,249.523825,4,2,0,15,1,0
50076,-100.19083348053,4,2,0,15,0,0
50325,249.546657,4,2,0,15,1,0
50325,-100.181666629179,4,2,0,15,0,0
50824,252.448753,4,2,0,15,1,0
50824,-99.0299999620121,4,2,0,15,0,0
51077,249.523825,4,2,0,15,1,0
51077,-100.19083348053,4,2,0,15,0,0
51326,249.546657,4,2,0,15,1,0
51326,-100.181666629179,4,2,0,15,0,0
52075,252.426449,4,2,0,15,1,0
52075,-99.0387500954783,4,2,0,15,0,0
52327,249.546657,4,2,0,15,1,0
52327,-100.181666629179,4,2,0,15,0,0
53076,252.426449,4,2,0,15,1,0
53076,-99.0387500954783,4,2,0,15,0,0
53329,246.643592,4,2,0,15,1,0
53329,-101.360833246379,4,2,0,15,0,0
53575,249.546657,4,2,0,15,1,0
53575,-100.181666629179,4,2,0,15,0,0
54074,252.426449,4,2,0,15,1,0
54074,-99.0387500954783,4,2,0,15,0,0
54327,249.546657,4,2,0,15,1,0
54327,-100.181666629179,4,2,0,15,0,0
55075,252.426449,4,2,0,15,1,0
55075,-99.0387500954783,4,2,0,15,0,0
55328,249.546657,4,2,0,15,1,0
55328,-100.181666629179,4,2,0,15,0,0
56076,249.523825,4,2,0,15,1,0
56076,-100.19083348053,4,2,0,15,0,0
56326,249.546657,4,2,0,15,1,0
56326,-100.181666629179,4,2,0,15,0,0
57075,249.523825,4,2,0,15,1,0
57075,-100.19083348053,4,2,0,15,0,0
57324,249.546657,4,2,0,15,1,0
57324,-100.181666629179,4,2,0,15,0,0
57823,252.448753,4,2,0,15,1,0
57823,-99.0299999620121,4,2,0,15,0,0
58076,249.523825,4,2,0,15,1,0
58076,-100.19083348053,4,2,0,15,0,0
58325,249.546657,4,2,0,15,1,0
58325,-100.181666629179,4,2,0,15,0,0
58824,255.351747,4,2,0,15,1,0
58824,-97.9041666787578,4,2,0,15,0,0
59080,249.523825,4,2,0,15,1,0
59080,-100.19083348053,4,2,0,15,0,0
59329,249.546657,4,2,0,15,1,0
59329,-100.181666629179,4,2,0,15,0,0
59579,835.689513,4,2,0,15,1,0
59579,-29.9154166841866,4,2,0,15,0,0
60414,742.831674,4,2,0,15,1,0
60414,-33.6550000155217,4,2,0,15,0,0
61157,739.909484,4,2,0,15,1,0
61157,-33.7879166852252,4,2,0,15,0,0
61897,742.813282,4,2,0,15,1,0
61897,-33.6558333107458,4,2,0,15,0,0
62640,745.712155,4,2,0,15,1,0
62640,-33.5250000048611,4,2,0,15,0,0
63386,739.909484,4,2,0,15,1,0
63386,-33.7879166852252,4,2,0,15,0,0
64126,748.615062,4,2,0,15,1,0
64126,-33.3950000060245,4,2,0,15,0,0
64874,737.010195,4,2,0,15,1,0
64874,-33.9208333474953,4,2,0,15,0,0
65611,742.813282,4,2,0,15,1,0
65611,-33.6558333107458,4,2,0,15,0,0
66354,742.831674,4,2,0,15,1,0
66354,-33.6550000155217,4,2,0,15,0,0
67097,742.813282,4,2,0,15,1,0
67097,-33.6558333107458,4,2,0,15,0,0
69325,745.73996,4,2,0,15,1,0
69325,-33.5237500213881,4,2,0,15,0,0
70071,742.813282,4,2,0,15,1,0
70071,-33.6558333107458,4,2,0,15,0,0
71557,269.864258,4,2,0,15,1,0
71557,-92.6391667621282,4,2,0,15,0,0
71826,249.546657,4,2,0,15,1,0
71826,-100.181666629179,4,2,0,15,0,0
72076,249.523825,4,2,0,15,1,0
72076,-100.19083348053,4,2,0,15,0,0
72326,249.546657,4,2,0,15,1,0
72326,-100.181666629179,4,2,0,15,0,0
72575,252.448753,4,2,0,15,1,0
72575,-99.0299999620121,4,2,0,15,0,0
72828,249.546657,4,2,0,15,1,0
72828,-100.181666629179,4,2,0,15,0,0
73077,249.523825,4,2,0,15,1,0
73077,-100.19083348053,4,2,0,15,0,0
73327,249.546657,4,2,0,15,1,0
73327,-100.181666629179,4,2,0,15,0,0
74075,252.426449,4,2,0,15,1,0
74075,-99.0387500954783,4,2,0,15,0,0
74328,249.546657,4,2,0,15,1,0
74328,-100.181666629179,4,2,0,15,0,0
75076,249.523825,4,2,0,15,1,0
75076,-100.19083348053,4,2,0,15,0,0
75326,249.546657,4,2,0,15,1,0
75326,-100.181666629179,4,2,0,15,0,0
75575,252.448753,4,2,0,15,1,0
75575,-99.0299999620121,4,2,0,15,0,0
75828,249.546657,4,2,0,15,1,0
75828,-100.181666629179,4,2,0,15,0,0
76077,249.523825,4,2,0,15,1,0
76077,-100.19083348053,4,2,0,15,0,0
76327,249.546657,4,2,0,15,1,0
76327,-100.181666629179,4,2,0,15,0,0
76826,252.448753,4,2,0,15,1,0
76826,-99.0299999620121,4,2,0,15,0,0
77078,249.523825,4,2,0,15,1,0
77078,-100.19083348053,4,2,0,15,0,0
77328,249.546657,4,2,0,15,1,0
77328,-100.181666629179,4,2,0,15,0,0
77827,252.448753,4,2,0,15,1,0
77827,-99.0299999620121,4,2,0,15,0,0
78080,249.523825,4,2,0,15,1,0
78080,-100.19083348053,4,2,0,15,0,0
78329,249.546657,4,2,0,15,1,0
78329,-100.181666629179,4,2,0,15,0,0
79078,249.523825,4,2,0,15,1,0
79078,-100.19083348053,4,2,0,15,0,0
79327,249.546657,4,2,0,15,1,0
79327,-100.181666629179,4,2,0,15,0,0
80076,249.523825,4,2,0,15,1,0
80076,-100.19083348053,4,2,0,15,0,0
80325,249.546657,4,2,0,15,1,0
80325,-100.181666629179,4,2,0,15,0,0
80824,252.448753,4,2,0,15,1,0
80824,-99.0299999620121,4,2,0,15,0,0
81077,249.523825,4,2,0,15,1,0
81077,-100.19083348053,4,2,0,15,0,0
81326,249.546657,4,2,0,15,1,0
81326,-100.181666629179,4,2,0,15,0,0
81826,252.448753,4,2,0,15,1,0
81826,-99.0299999620121,4,2,0,15,0,0
82078,249.523825,4,2,0,15,1,0
82078,-100.19083348053,4,2,0,15,0,0
82327,252.448753,4,2,0,15,1,0
82327,-99.0299999620121,4,2,0,15,0,0
82580,249.546657,4,2,0,15,1,0
82580,-100.181666629179,4,2,0,15,0,0
83079,249.523825,4,2,0,15,1,0
83079,-100.19083348053,4,2,0,15,0,0
83329,249.546657,4,2,0,15,1,0
83329,-100.181666629179,4,2,0,15,0,0
83578,252.448753,4,2,0,15,1,0
83578,-99.0299999620121,4,2,0,15,0,0
83831,249.546657,4,2,0,15,1,0
83831,-100.181666629179,4,2,0,15,0,0
84080,249.523825,4,2,0,15,1,0
84080,-100.19083348053,4,2,0,15,0,0
84330,249.546657,4,2,0,15,1,0
84330,-100.181666629179,4,2,0,15,0,0
85078,249.523825,4,2,0,15,1,0
85078,-100.19083348053,4,2,0,15,0,0
85328,249.546657,4,2,0,15,1,0
85328,-100.181666629179,4,2,0,15,0,0
85827,252.448753,4,2,0,15,1,0
85827,-99.0299999620121,4,2,0,15,0,0
86079,249.523825,4,2,0,15,1,0
86079,-100.19083348053,4,2,0,15,0,0
86329,249.546657,4,2,0,15,1,0
86329,-100.181666629179,4,2,0,15,0,0
87077,249.523825,4,2,0,15,1,0
87077,-100.19083348053,4,2,0,15,0,0
87327,249.546657,4,2,0,15,1,0
87327,-100.181666629179,4,2,0,15,0,0
87826,252.448753,4,2,0,15,1,0
87826,-99.0299999620121,4,2,0,15,0,0
88079,249.523825,4,2,0,15,1,0
88079,-100.19083348053,4,2,0,15,0,0
88328,249.546657,4,2,0,15,1,0
88328,-100.181666629179,4,2,0,15,0,0
89077,249.523825,4,2,0,15,1,0
89077,-100.19083348053,4,2,0,15,0,0
89326,249.546657,4,2,0,15,1,0
89326,-100.181666629179,4,2,0,15,0,0
89576,252.448753,4,2,0,15,1,0
89576,-99.0299999620121,4,2,0,15,0,0
89828,249.546657,4,2,0,15,1,0
89828,-100.181666629179,4,2,0,15,0,0
90078,249.523825,4,2,0,15,1,0
90078,-100.19083348053,4,2,0,15,0,0
90327,249.546657,4,2,0,15,1,0
90327,-100.181666629179,4,2,0,15,0,0
90577,252.448753,4,2,0,15,1,0
90577,-99.0299999620121,4,2,0,15,0,0
90829,249.546657,4,2,0,15,1,0
90829,-100.181666629179,4,2,0,15,0,0
91079,249.523825,4,2,0,15,1,0
91079,-100.19083348053,4,2,0,15,0,0
91328,249.546657,4,2,0,15,1,0
91328,-100.181666629179,4,2,0,15,0,0
92077,249.523825,4,2,0,15,1,0
92077,-100.19083348053,4,2,0,15,0,0
92327,249.546657,4,2,0,15,1,0
92327,-100.181666629179,4,2,0,15,0,0
92826,252.448753,4,2,0,15,1,0
92826,-99.0299999620121,4,2,0,15,0,0
93078,249.523825,4,2,0,15,1,0
93078,-100.19083348053,4,2,0,15,0,0
93328,249.546657,4,2,0,15,1,0
93328,-100.181666629179,4,2,0,15,0,0
94076,249.523825,4,2,0,15,1,0
94076,-100.19083348053,4,2,0,15,0,0
94326,249.546657,4,2,0,15,1,0
94326,-100.181666629179,4,2,0,15,0,0
94825,252.448753,4,2,0,15,1,0
94825,-99.0299999620121,4,2,0,15,0,0
95077,249.546657,4,2,0,15,1,0
95077,-100.181666629179,4,2,0,15,0,0
96075,252.448753,4,2,0,15,1,0
96075,-99.0299999620121,4,2,0,15,0,0
96328,249.546657,4,2,0,15,1,0
96328,-100.181666629179,4,2,0,15,0,0
97825,252.448753,4,2,0,15,1,0
97825,-99.0299999620121,4,2,0,15,0,0
98330,249.546657,4,2,0,15,1,0
98330,-100.181666629179,4,2,0,15,0,0
99578,252.448753,4,2,0,15,1,0
99578,-99.0299999620121,4,2,0,15,0,0
99830,249.546657,4,2,0,15,1,0
99830,-100.181666629179,4,2,0,15,0,0
101328,252.448753,4,2,0,15,1,0
101328,-99.0299999620121,4,2,0,15,0,0
101580,249.546657,4,2,0,15,1,0
101580,-100.181666629179,4,2,0,15,0,0
102329,252.448753,4,2,0,15,1,0
102329,-99.0299999620121,4,2,0,15,0,0
102581,249.546657,4,2,0,15,1,0
102581,-100.181666629179,4,2,0,15,0,0
103829,252.448753,4,2,0,15,1,0
103829,-99.0299999620121,4,2,0,15,0,0
104081,249.546657,4,2,0,15,1,0
104081,-100.181666629179,4,2,0,15,0,0
104580,246.643592,4,2,0,15,1,0
104580,-101.360833246379,4,2,0,15,0,0
104827,249.546657,4,2,0,15,1,0
104827,-100.181666629179,4,2,0,15,0,0
107073,252.448753,4,2,0,15,1,0
107073,-99.0299999620121,4,2,0,15,0,0
107325,249.546657,4,2,0,15,1,0
107325,-100.181666629179,4,2,0,15,0,0
108324,252.448753,4,2,0,15,1,0
108324,-99.0299999620121,4,2,0,15,0,0
108576,249.546657,4,2,0,15,1,0
108576,-100.181666629179,4,2,0,15,0,0
109824,252.448753,4,2,0,15,1,0
109824,-99.0299999620121,4,2,0,15,0,0
110076,249.546657,4,2,0,15,1,0
110076,-100.181666629179,4,2,0,15,0,0
111074,249.523825,4,2,0,15,1,0
111074,-100.19083348053,4,2,0,15,0,0
111199,490.930067,4,2,0,15,1,0
111199,-50.92375000124,4,2,0,15,0,0
112917,490.954169,4,2,0,15,1,0
112917,-50.9212500444212,4,2,0,15,0,0
113408,490.930067,4,2,0,15,1,0
113408,-50.92375000124,4,2,0,15,0,0
114390,252.448753,4,2,0,15,1,0
114390,-99.0299999620121,4,2,0,15,0,0
114643,249.546657,4,2,0,15,1,0
114643,-100.181666629179,4,2,0,15,0,0

[HitObjects]
320,192,98,128,0,971:0:0:0:0:
192,192,971,128,0,2094:0:0:0:0:
64,192,2094,128,0,4091:0:0:0:0:
320,192,4091,128,0,4964:0:0:0:0:
192,192,4964,128,0,6087:0:0:0:0:
64,192,6087,128,0,8083:0:0:0:0:
320,192,8083,128,0,8332:0:0:0:0:
448,192,8083,1,0,0:0:0:0:
192,192,8332,128,0,8831:0:0:0:0:
64,192,9081,128,0,9330:0:0:0:0:
448,192,9081,1,0,0:0:0:0:
320,192,9330,128,0,9829:0:0:0:0:
64,192,10079,1,0,0:0:0:0:
192,192,10079,128,0,10328:0:0:0:0:
448,192,10328,128,0,10828:0:0:0:0:
192,192,11078,1,0,0:0:0:0:
320,192,11078,128,0,11327:0:0:0:0:
64,192,11327,128,0,11826:0:0:0:0:
192,192,12076,1,0,0:0:0:0:
192,192,12200,1,0,0:0:0:0:
320,192,12325,1,0,0:0:0:0:
448,192,12325,1,0,0:0:0:0:
320,192,12575,1,0,0:0:0:0:
448,192,12575,1,0,0:0:0:0:
192,192,12699,1,0,0:0:0:0:
320,192,12762,1,0,0:0:0:0:
192,192,12824,1,0,0:0:0:0:
448,192,12886,1,0,0:0:0:0:
64,192,12949,1,0,0:0:0:0:
320,192,13011,1,0,0:0:0:0:
192,192,13074,128,0,13198:0:0:0:0:
448,192,13198,128,0,13323:0:0:0:0:
64,192,13323,1,0,0:0:0:0:
192,192,13323,1,0,0:0:0:0:
320,192,13448,1,0,0:0:0:0:
448,192,13448,1,0,0:0:0:0:
192,192,13573,1,0,0:0:0:0:
320,192,13636,1,0,0:0:0:0:
192,192,13699,1,0,0:0:0:0:
320,192,13762,1,0,0:0:0:0:
64,192,13825,1,0,0:0:0:0:
448,192,13825,1,0,0:0:0:0:
192,192,13951,1,0,0:0:0:0:
192,192,14077,1,0,0:0:0:0:
448,192,14202,1,0,0:0:0:0:
320,192,14265,1,0,0:0:0:0:
64,192,14327,1,0,0:0:0:0:
192,192,14327,1,0,0:0:0:0:
64,192,14452,1,0,0:0:0:0:
192,192,14452,1,0,0:0:0:0:
448,192,14577,1,0,0:0:0:0:
192,192,14701,1,0,0:0:0:0:
64,192,14764,1,0,0:0:0:0:
320,192,14826,1,0,0:0:0:0:
192,192,14888,1,0,0:0:0:0:
448,192,14951,1,0,0:0:0:0:
320,192,14982,1,0,0:0:0:0:
192,192,15044,1,0,0:0:0:0:
64,192,15076,1,0,0:0:0:0:
448,192,15076,1,0,0:0:0:0:
320,192,15200,1,0,0:0:0:0:
320,192,15325,1,0,0:0:0:0:
320,192,15450,1,0,0:0:0:0:
192,192,15575,1,0,0:0:0:0:
320,192,15637,1,0,0:0:0:0:
192,192,15699,1,0,0:0:0:0:
320,192,15762,1,0,0:0:0:0:
64,192,15824,1,0,0:0:0:0:
192,192,15887,1,0,0:0:0:0:
320,192,15949,1,0,0:0:0:0:
448,192,16011,1,0,0:0:0:0:
64,192,16074,1,0,0:0:0:0:
192,192,16074,1,0,0:0:0:0:
64,192,16198,1,0,0:0:0:0:
192,192,16198,1,0,0:0:0:0:
64,192,16323,1,0,0:0:0:0:
192,192,16323,1,0,0:0:0:0:
64,192,16448,1,0,0:0:0:0:
192,192,16448,1,0,0:0:0:0:
320,192,16573,1,0,0:0:0:0:
448,192,16573,1,0,0:0:0:0:
192,192,16697,1,0,0:0:0:0:
320,192,16822,1,0,0:0:0:0:
192,192,16884,1,0,0:0:0:0:
320,192,16947,1,0,0:0:0:0:
192,192,17009,1,0,0:0:0:0:
448,192,17072,1,0,0:0:0:0:
448,192,17196,1,0,0:0:0:0:
320,192,17321,1,0,0:0:0:0:
192,192,17383,1,0,0:0:0:0:
64,192,17446,1,0,0:0:0:0:
192,192,17508,1,0,0:0:0:0:
320,192,17571,1,0,0:0:0:0:
448,192,17634,1,0,0:0:0:0:
320,192,17697,1,0,0:0:0:0:
192,192,17886,1,0,0:0:0:0:
64,192,18075,1,0,0:0:0:0:
448,192,18075,1,0,0:0:0:0:
64,192,18200,1,0,0:0:0:0:
448,192,18200,1,0,0:0:0:0:
64,192,18325,1,0,0:0:0:0:
448,192,18325,1,0,0:0:0:0:
320,192,18450,1,0,0:0:0:0:
320,192,18575,1,0,0:0:0:0:
320,192,18701,1,0,0:0:0:0:
320,192,18827,1,0,0:0:0:0:
320,192,18953,1,0,0:0:0:0:
64,192,19079,1,0,0:0:0:0:
192,192,19079,1,0,0:0:0:0:
64,192,19204,1,0,0:0:0:0:
192,192,19204,1,0,0:0:0:0:
64,192,19329,1,0,0:0:0:0:
192,192,19329,1,0,0:0:0:0:
448,192,19454,1,0,0:0:0:0:
64,192,19516,1,0,0:0:0:0:
320,192,19579,1,0,0:0:0:0:
64,192,19641,1,0,0:0:0:0:
448,192,19703,1,0,0:0:0:0:
64,192,19766,1,0,0:0:0:0:
320,192,19828,1,0,0:0:0:0:
64,192,19891,1,0,0:0:0:0:
448,192,19953,1,0,0:0:0:0:
64,192,20015,1,0,0:0:0:0:
320,192,20078,1,0,0:0:0:0:
64,192,20141,1,0,0:0:0:0:
448,192,20203,1,0,0:0:0:0:
64,192,20266,1,0,0:0:0:0:
320,192,20328,128,0,20515:0:0:0:0:
64,192,20578,1,0,0:0:0:0:
448,192,20578,1,0,0:0:0:0:
192,192,20702,1,0,0:0:0:0:
320,192,20702,1,0,0:0:0:0:
64,192,20827,1,0,0:0:0:0:
320,192,20827,1,0,0:0:0:0:
64,192,20952,1,0,0:0:0:0:
192,192,20952,1,0,0:0:0:0:
192,192,21077,1,0,0:0:0:0:
448,192,21077,1,0,0:0:0:0:
320,192,21201,1,0,0:0:0:0:
64,192,21326,1,0,0:0:0:0:
192,192,21326,1,0,0:0:0:0:
448,192,21326,1,0,0:0:0:0:
64,192,21576,1,0,0:0:0:0:
192,192,21576,1,0,0:0:0:0:
448,192,21576,1,0,0:0:0:0:
64,192,21825,1,0,0:0:0:0:
192,192,21825,1,0,0:0:0:0:
448,192,21825,1,0,0:0:0:0:
64,192,22075,1,0,0:0:0:0:
192,192,22075,1,0,0:0:0:0:
448,192,22075,1,0,0:0:0:0:
64,192,26828,1,0,0:0:0:0:
320,192,26828,1,0,0:0:0:0:
320,192,26952,1,0,0:0:0:0:
192,192,27077,1,0,0:0:0:0:
448,192,27077,1,0,0:0:0:0:
192,192,27202,1,0,0:0:0:0:
448,192,27264,1,0,0:0:0:0:
64,192,27327,1,0,0:0:0:0:
320,192,27327,1,0,0:0:0:0:
192,192,27451,1,0,0:0:0:0:
64,192,27576,1,0,0:0:0:0:
448,192,27576,1,0,0:0:0:0:
448,192,27701,1,0,0:0:0:0:
64,192,27826,1,0,0:0:0:0:
320,192,27826,1,0,0:0:0:0:
192,192,27888,1,0,0:0:0:0:
320,192,27950,1,0,0:0:0:0:
192,192,28013,1,0,0:0:0:0:
320,192,28075,1,0,0:0:0:0:
64,192,28138,1,0,0:0:0:0:
320,192,28200,1,0,0:0:0:0:
64,192,28262,1,0,0:0:0:0:
320,192,28325,1,0,0:0:0:0:
448,192,28325,1,0,0:0:0:0:
320,192,28449,1,0,0:0:0:0:
64,192,28574,1,0,0:0:0:0:
192,192,28636,1,0,0:0:0:0:
320,192,28698,1,0,0:0:0:0:
448,192,28761,1,0,0:0:0:0:
64,192,28824,1,0,0:0:0:0:
192,192,28887,1,0,0:0:0:0:
320,192,28950,1,0,0:0:0:0:
448,192,29013,1,0,0:0:0:0:
64,192,29076,1,0,0:0:0:0:
192,192,29076,1,0,0:0:0:0:
192,192,29200,1,0,0:0:0:0:
320,192,29325,1,0,0:0:0:0:
448,192,29325,1,0,0:0:0:0:
192,192,29450,1,0,0:0:0:0:
64,192,29512,1,0,0:0:0:0:
192,192,29575,1,0,0:0:0:0:
448,192,29637,1,0,0:0:0:0:
320,192,29699,1,0,0:0:0:0:
192,192,29762,1,0,0:0:0:0:
64,192,29824,1,0,0:0:0:0:
320,192,29824,1,0,0:0:0:0:
64,192,29949,1,0,0:0:0:0:
320,192,29949,1,0,0:0:0:0:
192,192,30074,1,0,0:0:0:0:
448,192,30136,1,0,0:0:0:0:
192,192,30198,1,0,0:0:0:0:
320,192,30261,1,0,0:0:0:0:
64,192,30324,1,0,0:0:0:0:
192,192,30386,1,0,0:0:0:0:
320,192,30448,1,0,0:0:0:0:
448,192,30448,1,0,0:0:0:0:
64,192,30574,1,0,0:0:0:0:
192,192,30574,1,0,0:0:0:0:
192,192,30698,1,0,0:0:0:0:
64,192,30823,1,0,0:0:0:0:
448,192,30823,1,0,0:0:0:0:
320,192,30885,1,0,0:0:0:0:
192,192,30948,1,0,0:0:0:0:
64,192,31010,1,0,0:0:0:0:
320,192,31073,1,0,0:0:0:0:
448,192,31073,1,0,0:0:0:0:
320,192,31199,1,0,0:0:0:0:
448,192,31199,1,0,0:0:0:0:
64,192,31325,128,0,31449:0:0:0:0:
64,192,31512,128,0,31668:0:0:0:0:
192,192,31699,1,0,0:0:0:0:
448,192,31699,1,0,0:0:0:0:
192,192,31824,1,0,0:0:0:0:
448,192,31824,1,0,0:0:0:0:
64,192,31948,1,0,0:0:0:0:
320,192,31948,1,0,0:0:0:0:
448,192,32104,128,0,32323:0:0:0:0:
320,192,32354,128,0,32573:0:0:0:0:
192,192,32604,128,0,32825:0:0:0:0:
64,192,32856,128,0,33075:0:0:0:0:
448,192,33075,128,0,33293:0:0:0:0:
320,192,33449,128,0,36318:0:0:0:0:
64,192,36443,128,0,38694:0:0:0:0:
192,192,36443,1,0,0:0:0:0:
320,192,38694,128,0,39081:0:0:0:0:
64,192,39081,1,0,0:0:0:0:
192,192,39081,1,0,0:0:0:0:
448,192,39081,1,0,0:0:0:0:
320,192,39205,1,0,0:0:0:0:
192,192,39331,1,0,0:0:0:0:
64,192,39454,1,0,0:0:0:0:
320,192,39578,1,0,0:0:0:0:
320,192,39702,1,0,0:0:0:0:
192,192,39827,1,0,0:0:0:0:
192,192,39952,1,0,0:0:0:0:
448,192,40077,1,0,0:0:0:0:
448,192,40201,1,0,0:0:0:0:
64,192,40326,1,0,0:0:0:0:
64,192,40450,1,0,0:0:0:0:
320,192,40576,1,0,0:0:0:0:
320,192,40700,1,0,0:0:0:0:
192,192,40825,1,0,0:0:0:0:
64,192,40950,1,0,0:0:0:0:
192,192,40950,1,0,0:0:0:0:
320,192,41075,1,0,0:0:0:0:
448,192,41075,1,0,0:0:0:0:
320,192,41199,1,0,0:0:0:0:
64,192,41324,1,0,0:0:0:0:
64,192,41449,1,0,0:0:0:0:
448,192,41574,1,0,0:0:0:0:
448,192,41698,1,0,0:0:0:0:
192,192,41823,1,0,0:0:0:0:
192,192,41948,1,0,0:0:0:0:
320,192,42073,1,0,0:0:0:0:
320,192,42198,1,0,0:0:0:0:
64,192,42323,1,0,0:0:0:0:
64,192,42447,1,0,0:0:0:0:
448,192,42572,1,0,0:0:0:0:
448,192,42698,1,0,0:0:0:0:
192,192,42824,1,0,0:0:0:0:
64,192,42824,1,0,0:0:0:0:
320,192,42949,1,0,0:0:0:0:
448,192,42949,1,0,0:0:0:0:
320,192,43074,1,0,0:0:0:0:
192,192,43074,1,0,0:0:0:0:
64,192,43199,1,0,0:0:0:0:
192,192,43324,1,0,0:0:0:0:
192,192,43448,1,0,0:0:0:0:
448,192,43573,1,0,0:0:0:0:
320,192,43636,1,0,0:0:0:0:
64,192,43698,1,0,0:0:0:0:
192,192,43760,1,0,0:0:0:0:
64,192,43823,1,0,0:0:0:0:
320,192,43823,1,0,0:0:0:0:
320,192,43947,1,0,0:0:0:0:
64,192,44072,1,0,0:0:0:0:
64,192,44197,1,0,0:0:0:0:
448,192,44322,1,0,0:0:0:0:
320,192,44353,1,0,0:0:0:0:
64,192,44446,1,0,0:0:0:0:
192,192,44477,1,0,0:0:0:0:
320,192,44571,1,0,0:0:0:0:
448,192,44571,1,0,0:0:0:0:
192,192,44695,1,0,0:0:0:0:
192,192,44821,1,0,0:0:0:0:
64,192,44947,1,0,0:0:0:0:
448,192,44947,1,0,0:0:0:0:
192,192,45073,1,0,0:0:0:0:
320,192,45135,1,0,0:0:0:0:
64,192,45197,1,0,0:0:0:0:
448,192,45197,1,0,0:0:0:0:
64,192,45322,128,0,45447:0:0:0:0:
320,192,45322,1,0,0:0:0:0:
448,192,45322,1,0,0:0:0:0:
192,192,45572,1,0,0:0:0:0:
448,192,45572,1,0,0:0:0:0:
448,192,45696,1,0,0:0:0:0:
320,192,45759,1,0,0:0:0:0:
64,192,45821,1,0,0:0:0:0:
64,192,45946,1,0,0:0:0:0:
448,192,46071,1,0,0:0:0:0:
320,192,46114,1,0,0:0:0:0:
192,192,46156,1,0,0:0:0:0:
64,192,46198,1,0,0:0:0:0:
448,192,46240,1,0,0:0:0:0:
320,192,46282,1,0,0:0:0:0:
64,192,46324,1,0,0:0:0:0:
192,192,46324,1,0,0:0:0:0:
320,192,46573,1,0,0:0:0:0:
448,192,46573,1,0,0:0:0:0:
64,192,46697,1,0,0:0:0:0:
320,192,46760,1,0,0:0:0:0:
192,192,46822,1,0,0:0:0:0:
64,192,46947,1,0,0:0:0:0:
320,192,46947,1,0,0:0:0:0:
192,192,47072,1,0,0:0:0:0:
192,192,47199,1,0,0:0:0:0:
64,192,47325,1,0,0:0:0:0:
320,192,47325,128,0,47449:0:0:0:0:
448,192,47325,1,0,0:0:0:0:
192,192,47449,1,0,0:0:0:0:
64,192,47574,1,0,0:0:0:0:
448,192,47574,1,0,0:0:0:0:
320,192,47699,1,0,0:0:0:0:
64,192,47824,1,0,0:0:0:0:
192,192,47824,128,0,47948:0:0:0:0:
448,192,47824,1,0,0:0:0:0:
64,192,48074,1,0,0:0:0:0:
192,192,48116,1,0,0:0:0:0:
320,192,48158,1,0,0:0:0:0:
448,192,48200,1,0,0:0:0:0:
64,192,48242,1,0,0:0:0:0:
192,192,48284,1,0,0:0:0:0:
320,192,48326,1,0,0:0:0:0:
448,192,48326,1,0,0:0:0:0:
320,192,48450,1,0,0:0:0:0:
64,192,48575,1,0,0:0:0:0:
448,192,48575,1,0,0:0:0:0:
192,192,48700,1,0,0:0:0:0:
320,192,48825,1,0,0:0:0:0:
448,192,48825,1,0,0:0:0:0:
64,192,48887,1,0,0:0:0:0:
320,192,48949,1,0,0:0:0:0:
64,192,49075,1,0,0:0:0:0:
320,192,49075,1,0,0:0:0:0:
320,192,49199,1,0,0:0:0:0:
64,192,49241,1,0,0:0:0:0:
192,192,49282,1,0,0:0:0:0:
320,192,49324,1,0,0:0:0:0:
448,192,49324,1,0,0:0:0:0:
192,192,49448,1,0,0:0:0:0:
192,192,49573,1,0,0:0:0:0:
448,192,49573,1,0,0:0:0:0:
448,192,49698,1,0,0:0:0:0:
192,192,49823,1,0,0:0:0:0:
448,192,49823,1,0,0:0:0:0:
448,192,49949,1,0,0:0:0:0:
64,192,50075,1,0,0:0:0:0:
320,192,50075,1,0,0:0:0:0:
192,192,50200,1,0,0:0:0:0:
64,192,50325,1,0,0:0:0:0:
448,192,50325,1,0,0:0:0:0:
64,192,50574,1,0,0:0:0:0:
448,192,50574,1,0,0:0:0:0:
192,192,50699,1,0,0:0:0:0:
320,192,50761,1,0,0:0:0:0:
64,192,50782,1,0,0:0:0:0:
448,192,50824,1,0,0:0:0:0:
192,192,50908,1,0,0:0:0:0:
64,192,50950,1,0,0:0:0:0:
320,192,50992,1,0,0:0:0:0:
192,192,51034,1,0,0:0:0:0:
448,192,51076,1,0,0:0:0:0:
320,192,51118,1,0,0:0:0:0:
64,192,51160,1,0,0:0:0:0:
192,192,51201,1,0,0:0:0:0:
320,192,51326,1,0,0:0:0:0:
448,192,51326,1,0,0:0:0:0:
192,192,51388,1,0,0:0:0:0:
448,192,51450,1,0,0:0:0:0:
64,192,51575,1,0,0:0:0:0:
192,192,51575,1,0,0:0:0:0:
192,192,51700,1,0,0:0:0:0:
320,192,51762,1,0,0:0:0:0:
64,192,51825,1,0,0:0:0:0:
448,192,51825,1,0,0:0:0:0:
64,192,51949,1,0,0:0:0:0:
192,192,52075,1,0,0:0:0:0:
320,192,52075,1,0,0:0:0:0:
320,192,52201,1,0,0:0:0:0:
448,192,52327,1,0,0:0:0:0:
320,192,52358,1,0,0:0:0:0:
64,192,52451,1,0,0:0:0:0:
192,192,52482,1,0,0:0:0:0:
320,192,52576,1,0,0:0:0:0:
448,192,52576,1,0,0:0:0:0:
64,192,52701,1,0,0:0:0:0:
192,192,52826,1,0,0:0:0:0:
320,192,52826,1,0,0:0:0:0:
64,192,52950,1,0,0:0:0:0:
448,192,53013,1,0,0:0:0:0:
64,192,53076,1,0,0:0:0:0:
192,192,53076,1,0,0:0:0:0:
320,192,53202,1,0,0:0:0:0:
192,192,53328,1,0,0:0:0:0:
320,192,53328,1,0,0:0:0:0:
448,192,53328,128,0,53452:0:0:0:0:
192,192,53452,1,0,0:0:0:0:
64,192,53575,1,0,0:0:0:0:
320,192,53575,1,0,0:0:0:0:
320,192,53699,1,0,0:0:0:0:
192,192,53762,1,0,0:0:0:0:
64,192,53824,1,0,0:0:0:0:
448,192,53824,1,0,0:0:0:0:
320,192,53949,1,0,0:0:0:0:
192,192,54074,1,0,0:0:0:0:
320,192,54137,1,0,0:0:0:0:
192,192,54200,1,0,0:0:0:0:
320,192,54263,1,0,0:0:0:0:
64,192,54326,1,0,0:0:0:0:
448,192,54326,1,0,0:0:0:0:
64,192,54576,1,0,0:0:0:0:
448,192,54576,1,0,0:0:0:0:
192,192,54701,1,0,0:0:0:0:
320,192,54742,1,0,0:0:0:0:
64,192,54784,1,0,0:0:0:0:
192,192,54826,1,0,0:0:0:0:
320,192,54950,1,0,0:0:0:0:
448,192,55013,1,0,0:0:0:0:
64,192,55075,1,0,0:0:0:0:
320,192,55075,1,0,0:0:0:0:
64,192,55201,1,0,0:0:0:0:
64,192,55327,1,0,0:0:0:0:
320,192,55327,1,0,0:0:0:0:
448,192,55327,128,0,55452:0:0:0:0:
64,192,55577,1,0,0:0:0:0:
448,192,55577,1,0,0:0:0:0:
64,192,55827,128,0,55951:0:0:0:0:
192,192,55827,1,0,0:0:0:0:
448,192,55827,1,0,0:0:0:0:
448,192,56076,1,0,0:0:0:0:
320,192,56117,1,0,0:0:0:0:
192,192,56159,1,0,0:0:0:0:
64,192,56200,1,0,0:0:0:0:
448,192,56242,1,0,0:0:0:0:
320,192,56283,1,0,0:0:0:0:
64,192,56326,1,0,0:0:0:0:
192,192,56326,1,0,0:0:0:0:
320,192,56450,1,0,0:0:0:0:
64,192,56575,1,0,0:0:0:0:
320,192,56575,1,0,0:0:0:0:
320,192,56700,1,0,0:0:0:0:
448,192,56825,1,0,0:0:0:0:
320,192,56825,1,0,0:0:0:0:
192,192,56887,1,0,0:0:0:0:
320,192,56949,1,0,0:0:0:0:
64,192,57075,1,0,0:0:0:0:
192,192,57075,1,0,0:0:0:0:
320,192,57199,1,0,0:0:0:0:
448,192,57241,1,0,0:0:0:0:
192,192,57282,1,0,0:0:0:0:
64,192,57324,1,0,0:0:0:0:
320,192,57324,1,0,0:0:0:0:
320,192,57448,1,0,0:0:0:0:
192,192,57573,1,0,0:0:0:0:
448,192,57573,1,0,0:0:0:0:
192,192,57698,1,0,0:0:0:0:
64,192,57823,1,0,0:0:0:0:
448,192,57823,1,0,0:0:0:0:
448,192,57949,1,0,0:0:0:0:
64,192,58075,1,0,0:0:0:0:
192,192,58075,1,0,0:0:0:0:
320,192,58138,1,0,0:0:0:0:
192,192,58200,1,0,0:0:0:0:
64,192,58325,1,0,0:0:0:0:
448,192,58325,1,0,0:0:0:0:
64,192,58574,1,0,0:0:0:0:
448,192,58574,1,0,0:0:0:0:
320,192,58699,1,0,0:0:0:0:
192,192,58740,1,0,0:0:0:0:
64,192,58782,1,0,0:0:0:0:
448,192,58824,1,0,0:0:0:0:
320,192,58866,1,0,0:0:0:0:
192,192,58909,1,0,0:0:0:0:
64,192,58951,1,0,0:0:0:0:
192,192,58994,1,0,0:0:0:0:
320,192,59079,1,0,0:0:0:0:
448,192,59079,1,0,0:0:0:0:
192,192,59204,1,0,0:0:0:0:
320,192,59329,1,0,0:0:0:0:
448,192,59329,1,0,0:0:0:0:
192,192,59453,1,0,0:0:0:0:
320,192,59579,1,0,0:0:0:0:
448,192,59579,1,0,0:0:0:0:
64,192,59683,1,0,0:0:0:0:
192,192,59996,1,0,0:0:0:0:
320,192,59996,1,0,0:0:0:0:
64,192,60414,1,0,0:0:0:0:
320,192,60785,1,0,0:0:0:0:
448,192,60785,1,0,0:0:0:0:
192,192,61157,1,0,0:0:0:0:
64,192,61526,1,0,0:0:0:0:
320,192,61526,1,0,0:0:0:0:
448,192,61897,1,0,0:0:0:0:
192,192,62268,1,0,0:0:0:0:
320,192,62268,1,0,0:0:0:0:
64,192,62640,1,0,0:0:0:0:
320,192,63012,1,0,0:0:0:0:
448,192,63012,1,0,0:0:0:0:
192,192,63386,1,0,0:0:0:0:
64,192,63755,1,0,0:0:0:0:
448,192,63755,1,0,0:0:0:0:
320,192,64126,1,0,0:0:0:0:
64,192,64500,1,0,0:0:0:0:
192,192,64500,1,0,0:0:0:0:
448,192,64874,1,0,0:0:0:0:
64,192,65242,1,0,0:0:0:0:
320,192,65242,1,0,0:0:0:0:
192,192,65611,1,0,0:0:0:0:
64,192,65982,1,0,0:0:0:0:
448,192,65982,1,0,0:0:0:0:
320,192,66354,1,0,0:0:0:0:
192,192,66725,1,0,0:0:0:0:
448,192,66725,1,0,0:0:0:0:
64,192,67097,1,0,0:0:0:0:
192,192,67468,1,0,0:0:0:0:
320,192,67468,1,0,0:0:0:0:
448,192,67839,1,0,0:0:0:0:
64,192,68211,1,0,0:0:0:0:
192,192,68211,1,0,0:0:0:0:
320,192,68582,1,0,0:0:0:0:
192,192,68954,1,0,0:0:0:0:
448,192,68954,1,0,0:0:0:0:
64,192,69325,1,0,0:0:0:0:
320,192,69697,1,0,0:0:0:0:
448,192,69697,1,0,0:0:0:0:
192,192,70071,1,0,0:0:0:0:
64,192,70442,1,0,0:0:0:0:
320,192,70442,1,0,0:0:0:0:
192,192,70813,1,0,0:0:0:0:
64,192,71185,1,0,0:0:0:0:
448,192,71185,1,0,0:0:0:0:
192,192,71573,1,0,0:0:0:0:
320,192,71857,1,0,0:0:0:0:
64,192,72107,1,0,0:0:0:0:
448,192,72357,1,0,0:0:0:0:
64,192,72575,1,0,0:0:0:0:
320,192,72575,1,0,0:0:0:0:
192,192,72638,1,0,0:0:0:0:
320,192,72701,1,0,0:0:0:0:
192,192,72827,1,0,0:0:0:0:
448,192,72827,1,0,0:0:0:0:
64,192,72952,1,0,0:0:0:0:
320,192,73077,1,0,0:0:0:0:
448,192,73139,1,0,0:0:0:0:
320,192,73201,1,0,0:0:0:0:
192,192,73264,1,0,0:0:0:0:
320,192,73327,1,0,0:0:0:0:
448,192,73327,1,0,0:0:0:0:
64,192,73451,1,0,0:0:0:0:
192,192,73451,1,0,0:0:0:0:
64,192,73576,1,0,0:0:0:0:
192,192,73576,1,0,0:0:0:0:
320,192,73701,1,0,0:0:0:0:
448,192,73701,1,0,0:0:0:0:
64,192,73826,1,0,0:0:0:0:
192,192,73826,1,0,0:0:0:0:
64,192,73950,1,0,0:0:0:0:
192,192,73950,1,0,0:0:0:0:
64,192,74075,1,0,0:0:0:0:
192,192,74075,1,0,0:0:0:0:
320,192,74138,1,0,0:0:0:0:
192,192,74201,1,0,0:0:0:0:
448,192,74327,1,0,0:0:0:0:
64,192,74452,1,0,0:0:0:0:
320,192,74577,1,0,0:0:0:0:
192,192,74639,1,0,0:0:0:0:
320,192,74702,1,0,0:0:0:0:
64,192,74827,1,0,0:0:0:0:
448,192,74951,1,0,0:0:0:0:
192,192,75076,1,0,0:0:0:0:
320,192,75138,1,0,0:0:0:0:
192,192,75200,1,0,0:0:0:0:
448,192,75326,1,0,0:0:0:0:
64,192,75388,1,0,0:0:0:0:
448,192,75450,1,0,0:0:0:0:
64,192,75513,1,0,0:0:0:0:
192,192,75575,1,0,0:0:0:0:
320,192,75575,1,0,0:0:0:0:
448,192,75701,1,0,0:0:0:0:
192,192,75827,1,0,0:0:0:0:
320,192,75827,1,0,0:0:0:0:
192,192,75952,1,0,0:0:0:0:
320,192,75952,1,0,0:0:0:0:
192,192,76077,1,0,0:0:0:0:
320,192,76077,1,0,0:0:0:0:
192,192,76201,1,0,0:0:0:0:
320,192,76201,1,0,0:0:0:0:
64,192,76327,1,0,0:0:0:0:
192,192,76389,1,0,0:0:0:0:
320,192,76451,1,0,0:0:0:0:
448,192,76514,1,0,0:0:0:0:
64,192,76576,1,0,0:0:0:0:
192,192,76638,1,0,0:0:0:0:
320,192,76701,1,0,0:0:0:0:
448,192,76763,1,0,0:0:0:0:
64,192,76826,1,0,0:0:0:0:
192,192,76826,1,0,0:0:0:0:
64,192,76952,1,0,0:0:0:0:
192,192,76952,1,0,0:0:0:0:
320,192,77078,1,0,0:0:0:0:
448,192,77078,1,0,0:0:0:0:
192,192,77140,1,0,0:0:0:0:
320,192,77202,1,0,0:0:0:0:
64,192,77328,1,0,0:0:0:0:
320,192,77452,1,0,0:0:0:0:
448,192,77452,1,0,0:0:0:0:
64,192,77577,1,0,0:0:0:0:
192,192,77577,1,0,0:0:0:0:
64,192,77702,1,0,0:0:0:0:
192,192,77702,1,0,0:0:0:0:
64,192,77827,1,0,0:0:0:0:
192,192,77827,1,0,0:0:0:0:
64,192,77953,1,0,0:0:0:0:
192,192,77953,1,0,0:0:0:0:
320,192,78079,1,0,0:0:0:0:
448,192,78079,1,0,0:0:0:0:
192,192,78142,1,0,0:0:0:0:
320,192,78204,1,0,0:0:0:0:
192,192,78267,1,0,0:0:0:0:
64,192,78329,1,0,0:0:0:0:
448,192,78453,1,0,0:0:0:0:
64,192,78578,1,0,0:0:0:0:
192,192,78578,1,0,0:0:0:0:
320,192,78640,1,0,0:0:0:0:
192,192,78703,1,0,0:0:0:0:
320,192,78828,1,0,0:0:0:0:
448,192,78828,1,0,0:0:0:0:
192,192,78890,1,0,0:0:0:0:
320,192,78952,1,0,0:0:0:0:
64,192,79078,1,0,0:0:0:0:
448,192,79078,1,0,0:0:0:0:
64,192,79202,1,0,0:0:0:0:
448,192,79202,1,0,0:0:0:0:
64,192,79327,1,0,0:0:0:0:
448,192,79327,1,0,0:0:0:0:
64,192,79451,1,0,0:0:0:0:
448,192,79451,1,0,0:0:0:0:
320,192,79576,1,0,0:0:0:0:
448,192,79576,1,0,0:0:0:0:
192,192,79638,1,0,0:0:0:0:
320,192,79701,1,0,0:0:0:0:
64,192,79826,1,0,0:0:0:0:
192,192,79826,1,0,0:0:0:0:
320,192,79888,1,0,0:0:0:0:
192,192,79950,1,0,0:0:0:0:
448,192,80013,1,0,0:0:0:0:
64,192,80076,1,0,0:0:0:0:
320,192,80076,128,0,80263:0:0:0:0:
192,192,80325,1,0,0:0:0:0:
320,192,80366,1,0,0:0:0:0:
448,192,80408,1,0,0:0:0:0:
64,192,80449,1,0,0:0:0:0:
192,192,80491,1,0,0:0:0:0:
320,192,80532,1,0,0:0:0:0:
64,192,80574,1,0,0:0:0:0:
448,192,80574,1,0,0:0:0:0:
320,192,80740,1,0,0:0:0:0:
64,192,80824,1,0,0:0:0:0:
192,192,80824,1,0,0:0:0:0:
64,192,80950,1,0,0:0:0:0:
192,192,81013,1,0,0:0:0:0:
448,192,81076,1,0,0:0:0:0:
320,192,81201,128,0,81284:0:0:0:0:
320,192,81326,128,0,81409:0:0:0:0:
320,192,81450,128,0,81533:0:0:0:0:
320,192,81575,1,0,0:0:0:0:
448,192,81575,1,0,0:0:0:0:
192,192,81700,1,0,0:0:0:0:
320,192,81762,1,0,0:0:0:0:
64,192,81825,1,0,0:0:0:0:
192,192,81825,1,0,0:0:0:0:
448,192,81952,1,0,0:0:0:0:
320,192,82015,1,0,0:0:0:0:
192,192,82078,1,0,0:0:0:0:
64,192,82119,1,0,0:0:0:0:
448,192,82161,1,0,0:0:0:0:
320,192,82202,1,0,0:0:0:0:
448,192,82327,1,0,0:0:0:0:
64,192,82453,1,0,0:0:0:0:
192,192,82495,1,0,0:0:0:0:
320,192,82537,1,0,0:0:0:0:
448,192,82579,1,0,0:0:0:0:
320,192,82746,1,0,0:0:0:0:
64,192,82787,1,0,0:0:0:0:
192,192,82829,1,0,0:0:0:0:
320,192,82912,1,0,0:0:0:0:
448,192,82954,1,0,0:0:0:0:
64,192,82995,1,0,0:0:0:0:
192,192,83037,1,0,0:0:0:0:
320,192,83203,1,0,0:0:0:0:
192,192,83245,1,0,0:0:0:0:
448,192,83286,1,0,0:0:0:0:
320,192,83329,1,0,0:0:0:0:
192,192,83453,1,0,0:0:0:0:
320,192,83495,1,0,0:0:0:0:
64,192,83536,1,0,0:0:0:0:
320,192,83578,1,0,0:0:0:0:
448,192,83578,1,0,0:0:0:0:
320,192,83830,1,0,0:0:0:0:
448,192,83830,1,0,0:0:0:0:
64,192,84080,1,0,0:0:0:0:
192,192,84267,128,0,84517:0:0:0:0:
64,192,84579,1,0,0:0:0:0:
320,192,84766,128,0,85016:0:0:0:0:
192,192,85078,1,0,0:0:0:0:
448,192,85265,128,0,85515:0:0:0:0:
192,192,85577,1,0,0:0:0:0:
320,192,85764,128,0,86016:0:0:0:0:
192,192,86079,1,0,0:0:0:0:
448,192,86266,128,0,86516:0:0:0:0:
64,192,86578,1,0,0:0:0:0:
192,192,86765,128,0,87015:0:0:0:0:
64,192,87077,1,0,0:0:0:0:
320,192,87264,128,0,87514:0:0:0:0:
192,192,87576,1,0,0:0:0:0:
448,192,87763,128,0,88015:0:0:0:0:
64,192,88078,1,0,0:0:0:0:
64,192,88203,1,0,0:0:0:0:
192,192,88328,1,0,0:0:0:0:
448,192,88328,1,0,0:0:0:0:
192,192,88577,1,0,0:0:0:0:
448,192,88577,1,0,0:0:0:0:
64,192,88702,1,0,0:0:0:0:
320,192,88764,1,0,0:0:0:0:
64,192,88827,1,0,0:0:0:0:
448,192,88889,1,0,0:0:0:0:
320,192,88951,1,0,0:0:0:0:
192,192,89014,1,0,0:0:0:0:
64,192,89077,128,0,89201:0:0:0:0:
448,192,89201,128,0,89326:0:0:0:0:
192,192,89326,1,0,0:0:0:0:
320,192,89450,1,0,0:0:0:0:
192,192,89576,1,0,0:0:0:0:
320,192,89639,1,0,0:0:0:0:
448,192,89702,1,0,0:0:0:0:
320,192,89765,1,0,0:0:0:0:
64,192,89828,1,0,0:0:0:0:
192,192,89828,1,0,0:0:0:0:
448,192,89952,1,0,0:0:0:0:
448,192,90078,1,0,0:0:0:0:
320,192,90202,1,0,0:0:0:0:
192,192,90265,1,0,0:0:0:0:
64,192,90327,1,0,0:0:0:0:
448,192,90327,1,0,0:0:0:0:
64,192,90451,1,0,0:0:0:0:
448,192,90451,1,0,0:0:0:0:
320,192,90577,1,0,0:0:0:0:
192,192,90703,1,0,0:0:0:0:
320,192,90766,1,0,0:0:0:0:
192,192,90829,1,0,0:0:0:0:
448,192,90891,1,0,0:0:0:0:
64,192,90953,1,0,0:0:0:0:
192,192,90995,1,0,0:0:0:0:
320,192,91036,1,0,0:0:0:0:
64,192,91079,1,0,0:0:0:0:
448,192,91079,1,0,0:0:0:0:
192,192,91203,1,0,0:0:0:0:
320,192,91203,1,0,0:0:0:0:
192,192,91328,1,0,0:0:0:0:
320,192,91328,1,0,0:0:0:0:
192,192,91452,1,0,0:0:0:0:
320,192,91452,1,0,0:0:0:0:
64,192,91577,1,0,0:0:0:0:
448,192,91639,1,0,0:0:0:0:
64,192,91702,1,0,0:0:0:0:
448,192,91764,1,0,0:0:0:0:
64,192,91827,1,0,0:0:0:0:
192,192,91889,1,0,0:0:0:0:
320,192,91951,1,0,0:0:0:0:
448,192,92014,1,0,0:0:0:0:
64,192,92077,1,0,0:0:0:0:
192,192,92077,1,0,0:0:0:0:
64,192,92201,1,0,0:0:0:0:
192,192,92201,1,0,0:0:0:0:
64,192,92327,1,0,0:0:0:0:
192,192,92327,1,0,0:0:0:0:
64,192,92451,1,0,0:0:0:0:
192,192,92451,1,0,0:0:0:0:
320,192,92576,1,0,0:0:0:0:
448,192,92576,1,0,0:0:0:0:
192,192,92701,1,0,0:0:0:0:
64,192,92826,1,0,0:0:0:0:
320,192,92889,1,0,0:0:0:0:
64,192,92952,1,0,0:0:0:0:
320,192,93015,1,0,0:0:0:0:
64,192,93078,1,0,0:0:0:0:
192,192,93078,1,0,0:0:0:0:
64,192,93202,1,0,0:0:0:0:
192,192,93202,1,0,0:0:0:0:
320,192,93328,1,0,0:0:0:0:
192,192,93390,1,0,0:0:0:0:
64,192,93452,1,0,0:0:0:0:
192,192,93515,1,0,0:0:0:0:
320,192,93577,1,0,0:0:0:0:
448,192,93639,1,0,0:0:0:0:
320,192,93702,1,0,0:0:0:0:
192,192,93920,1,0,0:0:0:0:
64,192,94076,1,0,0:0:0:0:
448,192,94076,1,0,0:0:0:0:
64,192,94200,1,0,0:0:0:0:
448,192,94200,1,0,0:0:0:0:
64,192,94326,1,0,0:0:0:0:
448,192,94326,1,0,0:0:0:0:
192,192,94450,1,0,0:0:0:0:
192,192,94575,1,0,0:0:0:0:
192,192,94700,1,0,0:0:0:0:
192,192,94825,1,0,0:0:0:0:
192,192,94951,1,0,0:0:0:0:
320,192,95077,1,0,0:0:0:0:
448,192,95077,1,0,0:0:0:0:
320,192,95201,1,0,0:0:0:0:
448,192,95201,1,0,0:0:0:0:
320,192,95326,1,0,0:0:0:0:
448,192,95326,1,0,0:0:0:0:
64,192,95451,1,0,0:0:0:0:
448,192,95513,1,0,0:0:0:0:
64,192,95576,1,0,0:0:0:0:
320,192,95638,1,0,0:0:0:0:
64,192,95700,1,0,0:0:0:0:
448,192,95763,1,0,0:0:0:0:
64,192,95825,1,0,0:0:0:0:
320,192,95888,1,0,0:0:0:0:
64,192,95950,1,0,0:0:0:0:
448,192,96012,1,0,0:0:0:0:
64,192,96075,1,0,0:0:0:0:
320,192,96138,1,0,0:0:0:0:
64,192,96201,1,0,0:0:0:0:
448,192,96264,1,0,0:0:0:0:
64,192,96327,128,0,96515:0:0:0:0:
192,192,96577,1,0,0:0:0:0:
448,192,96577,1,0,0:0:0:0:
192,192,96702,1,0,0:0:0:0:
320,192,96702,1,0,0:0:0:0:
192,192,96827,1,0,0:0:0:0:
448,192,96827,1,0,0:0:0:0:
320,192,96951,1,0,0:0:0:0:
448,192,96951,1,0,0:0:0:0:
64,192,97076,1,0,0:0:0:0:
320,192,97076,1,0,0:0:0:0:
192,192,97201,1,0,0:0:0:0:
64,192,97326,1,0,0:0:0:0:
320,192,97326,1,0,0:0:0:0:
448,192,97326,1,0,0:0:0:0:
320,192,97450,1,0,0:0:0:0:
64,192,97575,1,0,0:0:0:0:
192,192,97575,1,0,0:0:0:0:
448,192,97575,1,0,0:0:0:0:
192,192,97700,1,0,0:0:0:0:
64,192,97825,1,0,0:0:0:0:
320,192,97825,1,0,0:0:0:0:
448,192,97825,1,0,0:0:0:0:
320,192,97951,1,0,0:0:0:0:
192,192,98077,1,0,0:0:0:0:
192,192,98235,1,0,0:0:0:0:
64,192,98361,1,0,0:0:0:0:
320,192,98829,1,0,0:0:0:0:
320,192,99265,1,0,0:0:0:0:
448,192,99265,1,0,0:0:0:0:
192,192,99704,1,0,0:0:0:0:
64,192,100162,1,0,0:0:0:0:
192,192,100162,1,0,0:0:0:0:
192,192,100578,1,0,0:0:0:0:
64,192,100999,1,0,0:0:0:0:
448,192,100999,1,0,0:0:0:0:
448,192,101202,1,0,0:0:0:0:
320,192,101412,1,0,0:0:0:0:
64,192,101829,1,0,0:0:0:0:
192,192,101829,1,0,0:0:0:0:
192,192,102371,1,0,0:0:0:0:
320,192,102539,1,0,0:0:0:0:
64,192,102705,1,0,0:0:0:0:
448,192,102705,1,0,0:0:0:0:
64,192,103142,1,0,0:0:0:0:
192,192,103142,1,0,0:0:0:0:
192,192,103579,1,0,0:0:0:0:
448,192,103579,1,0,0:0:0:0:
448,192,104039,1,0,0:0:0:0:
64,192,104247,1,0,0:0:0:0:
192,192,104455,1,0,0:0:0:0:
448,192,104455,1,0,0:0:0:0:
192,192,104868,1,0,0:0:0:0:
448,192,104868,1,0,0:0:0:0:
64,192,105263,1,0,0:0:0:0:
320,192,105263,1,0,0:0:0:0:
192,192,105742,1,0,0:0:0:0:
320,192,105742,1,0,0:0:0:0:
192,192,106074,1,0,0:0:0:0:
448,192,106074,1,0,0:0:0:0:
448,192,106199,1,0,0:0:0:0:
320,192,106261,1,0,0:0:0:0:
64,192,106324,1,0,0:0:0:0:
192,192,106324,1,0,0:0:0:0:
64,192,106449,1,0,0:0:0:0:
448,192,106511,1,0,0:0:0:0:
192,192,106573,1,0,0:0:0:0:
320,192,106573,1,0,0:0:0:0:
192,192,106698,1,0,0:0:0:0:
320,192,106823,1,0,0:0:0:0:
448,192,106823,1,0,0:0:0:0:
320,192,106948,1,0,0:0:0:0:
192,192,107073,1,0,0:0:0:0:
448,192,107073,1,0,0:0:0:0:
64,192,107136,1,0,0:0:0:0:
320,192,107199,1,0,0:0:0:0:
64,192,107262,1,0,0:0:0:0:
448,192,107325,1,0,0:0:0:0:
192,192,107387,1,0,0:0:0:0:
448,192,107449,1,0,0:0:0:0:
192,192,107512,1,0,0:0:0:0:
320,192,107574,1,0,0:0:0:0:
448,192,107574,1,0,0:0:0:0:
320,192,107699,1,0,0:0:0:0:
448,192,107699,1,0,0:0:0:0:
64,192,107824,1,0,0:0:0:0:
192,192,107886,1,0,0:0:0:0:
320,192,107948,1,0,0:0:0:0:
448,192,108011,1,0,0:0:0:0:
64,192,108073,1,0,0:0:0:0:
192,192,108136,1,0,0:0:0:0:
320,192,108198,1,0,0:0:0:0:
448,192,108260,1,0,0:0:0:0:
64,192,108323,1,0,0:0:0:0:
192,192,108323,1,0,0:0:0:0:
64,192,108450,1,0,0:0:0:0:
192,192,108450,1,0,0:0:0:0:
192,192,108576,1,0,0:0:0:0:
448,192,108576,1,0,0:0:0:0:
320,192,108700,1,0,0:0:0:0:
192,192,108763,1,0,0:0:0:0:
320,192,108825,1,0,0:0:0:0:
192,192,108887,1,0,0:0:0:0:
320,192,108950,1,0,0:0:0:0:
192,192,109012,1,0,0:0:0:0:
320,192,109075,1,0,0:0:0:0:
448,192,109075,1,0,0:0:0:0:
320,192,109199,1,0,0:0:0:0:
448,192,109199,1,0,0:0:0:0:
192,192,109324,1,0,0:0:0:0:
320,192,109387,1,0,0:0:0:0:
192,192,109449,1,0,0:0:0:0:
448,192,109511,1,0,0:0:0:0:
64,192,109574,1,0,0:0:0:0:
320,192,109636,1,0,0:0:0:0:
192,192,109698,1,0,0:0:0:0:
448,192,109698,1,0,0:0:0:0:
64,192,109824,1,0,0:0:0:0:
320,192,109824,1,0,0:0:0:0:
448,192,109950,1,0,0:0:0:0:
64,192,110076,1,0,0:0:0:0:
320,192,110076,1,0,0:0:0:0:
192,192,110138,1,0,0:0:0:0:
320,192,110200,1,0,0:0:0:0:
192,192,110263,1,0,0:0:0:0:
320,192,110325,1,0,0:0:0:0:
448,192,110325,1,0,0:0:0:0:
320,192,110450,1,0,0:0:0:0:
448,192,110450,1,0,0:0:0:0:
64,192,110575,128,0,110699:0:0:0:0:
64,192,110762,128,0,110887:0:0:0:0:
320,192,110949,1,0,0:0:0:0:
448,192,110949,1,0,0:0:0:0:
320,192,111074,1,0,0:0:0:0:
448,192,111074,1,0,0:0:0:0:
192,192,111199,1,0,0:0:0:0:
320,192,111199,1,0,0:0:0:0:
