osu file format v14

[General]
AudioFilename: audio.mp3
AudioLeadIn: 0
PreviewTime: 28875
Countdown: 1
SampleSet: Normal
StackLeniency: 0.2
Mode: 0
LetterboxInBreaks: 0
WidescreenStoryboard: 0

[Editor]
Bookmarks: 182475
DistanceSpacing: 1.1
BeatDivisor: 4
GridSize: 4
TimelineZoom: 1

[Metadata]
Title:Sauce
TitleUnicode:Sauce
Artist:Sippinpurpp
ArtistUnicode:Sippinpurpp
Creator:[Takaga]
Version:Tomato Sauce
Source:
Tags:
BeatmapID:1987790
BeatmapSetID:951895

[Difficulty]
HPDrainRate:6
CircleSize:4
OverallDifficulty:8
ApproachRate:9
SliderMultiplier:1.4
SliderTickRate:1

[Events]
//Background and Video events
0,0,"Konachan.com - 278944 sample.jpg",0,0
//Break Periods
2,54675,57075
2,80674,82675
2,118675,121075
2,144475,146675
//Storyboard Layer 0 (Background)
//Storyboard Layer 1 (Fail)
//Storyboard Layer 2 (Pass)
//Storyboard Layer 3 (Foreground)
//Storyboard Sound Samples

[TimingPoints]
3275,400,4,1,0,100,1,0
3275,-100,4,1,0,20,0,0
14475,-133.333333333333,4,1,0,20,0,0
28875,-100,4,1,0,20,0,1
54475,-100,4,1,0,20,0,0
57675,-100,4,1,0,20,0,0
80075,-142.857142857143,4,1,0,20,0,0
83275,-142.857142857143,4,1,0,20,0,0
92875,-100,4,1,0,20,0,1
116875,-100,4,1,0,20,0,0
130875,-333.333333333333,4,1,0,20,0,0
131275,-100,4,1,0,20,0,0
156875,-100,4,1,0,20,0,1
182075,-100,4,1,0,20,0,0

[HitObjects]
91,133,3275,5,0,0:0:0:0:
318,93,3475,1,0,0:0:0:0:
41,37,3675,1,0,0:0:0:0:
177,258,3875,5,0,0:0:0:0:
232,22,4075,1,0,0:0:0:0:
298,190,4275,1,0,0:0:0:0:
44,128,4475,5,0,0:0:0:0:
75,252,4675,1,0,0:0:0:0:
165,18,4875,1,0,0:0:0:0:
247,312,5075,1,0,0:0:0:0:
409,208,5275,6,0,L|423:287,1,70
288,184,5675,6,0,L|302:105,1,70
225,19,6075,1,0,0:0:0:0:
132,107,6275,1,0,0:0:0:0:
131,238,6475,6,0,L|218:259,1,70
372,203,6875,1,0,0:0:0:0:
163,82,7075,1,0,0:0:0:0:
218,329,7275,5,0,0:0:0:0:
301,32,7475,1,0,0:0:0:0:
358,227,7675,1,0,0:0:0:0:
106,165,7875,5,0,0:0:0:0:
438,72,8075,1,0,0:0:0:0:
357,263,8275,1,0,0:0:0:0:
177,59,8475,6,0,L|262:69,1,70
375,152,8875,2,0,L|290:162,1,70
174,256,9275,1,0,0:0:0:0:
311,333,9475,1,0,0:0:0:0:
411,178,9675,6,0,P|411:220|426:263,1,70
508,110,10075,1,0,0:0:0:0:
289,17,10275,1,0,0:0:0:0:
279,234,10475,5,0,0:0:0:0:
151,6,10675,1,0,0:0:0:0:
61,151,10875,1,0,0:0:0:0:
161,310,11075,5,0,0:0:0:0:
291,34,11275,1,0,0:0:0:0:
390,192,11475,1,0,0:0:0:0:
64,72,11675,5,0,0:0:0:0:
326,229,11875,1,0,0:0:0:0:
129,302,12075,1,0,0:0:0:0:
224,31,12275,5,0,0:0:0:0:
336,338,12475,1,0,0:0:0:0:
453,198,12675,1,0,0:0:0:0:
96,191,12875,5,0,0:0:0:0:
159,113,13075,1,0,0:0:0:0:
196,237,13275,1,0,0:0:0:0:
267,71,13475,1,0,0:0:0:0:
307,152,13675,1,0,0:0:0:0:
347,229,13875,1,0,0:0:0:0:
389,305,14075,2,0,L|462:313,1,70
486,230,14475,5,0,0:0:0:0:
491,204,14675,1,0,0:0:0:0:
495,178,14875,1,0,0:0:0:0:
498,152,15075,1,0,0:0:0:0:
501,124,15275,2,0,P|451:106|381:108,1,105.000004005432
269,182,15875,1,0,0:0:0:0:
269,182,16075,6,0,L|256:74,1,105.000004005432
121,17,16675,1,0,0:0:0:0:
36,149,16875,1,0,0:0:0:0:
135,285,17075,5,0,0:0:0:0:
274,48,17275,1,0,0:0:0:0:
347,168,17475,1,0,0:0:0:0:
81,89,17675,5,0,0:0:0:0:
350,336,17875,1,0,0:0:0:0:
458,110,18075,1,0,0:0:0:0:
140,302,18275,5,0,0:0:0:0:
306,26,18475,1,0,0:0:0:0:
384,217,18675,1,0,0:0:0:0:
182,117,18875,1,0,0:0:0:0:
243,297,19075,1,0,0:0:0:0:
426,83,19275,5,0,0:0:0:0:
479,247,19475,1,0,0:0:0:0:
301,32,19675,5,0,0:0:0:0:
201,227,19875,1,0,0:0:0:0:
148,308,20075,5,0,0:0:0:0:
95,144,20275,1,0,0:0:0:0:
273,359,20475,5,0,0:0:0:0:
373,164,20675,1,0,0:0:0:0:
251,232,20875,1,0,0:0:0:0:
409,287,21075,1,0,0:0:0:0:
340,161,21275,5,0,0:0:0:0:
270,257,21475,1,0,0:0:0:0:
381,302,21675,1,0,0:0:0:0:
331,191,21875,1,0,0:0:0:0:
357,285,22075,1,0,0:0:0:0:
296,245,22275,1,0,0:0:0:0:
79,48,22475,5,0,0:0:0:0:
123,312,22675,1,0,0:0:0:0:
79,48,22875,1,0,0:0:0:0:
123,312,23075,1,0,0:0:0:0:
79,48,23275,1,0,0:0:0:0:
123,312,23475,1,0,0:0:0:0:
336,225,23675,5,0,0:0:0:0:
26,177,23875,1,0,0:0:0:0:
336,225,24075,1,0,0:0:0:0:
26,177,24275,1,0,0:0:0:0:
336,225,24475,1,0,0:0:0:0:
26,177,24675,1,0,0:0:0:0:
336,225,24875,1,0,0:0:0:0:
26,177,25075,1,0,0:0:0:0:
336,225,25275,1,0,0:0:0:0:
26,177,25475,1,0,0:0:0:0:
228,116,25675,5,0,0:0:0:0:
341,15,25875,1,0,0:0:0:0:
426,279,26075,1,0,0:0:0:0:
56,303,26275,5,0,0:0:0:0:
174,50,26475,1,0,0:0:0:0:
258,214,26675,1,0,0:0:0:0:
63,111,26875,2,0,L|80:172,1,52.5000020027161
183,309,27275,5,0,0:0:0:0:
191,333,27475,1,0,0:0:0:0:
169,354,27675,1,0,0:0:0:0:
148,339,27875,1,0,0:0:0:0:
151,307,28075,1,0,0:0:0:0:
163,98,28875,6,0,P|199:106|252:90,1,70
335,38,29275,1,0,0:0:0:0:
401,237,29475,1,0,0:0:0:0:
317,68,29675,1,0,0:0:0:0:
246,307,29875,1,0,0:0:0:0:
418,141,30075,2,0,L|492:151,1,70
149,177,30475,5,0,0:0:0:0:
285,208,30675,1,0,0:0:0:0:
421,240,30875,1,0,0:0:0:0:
216,100,31075,1,0,0:0:0:0:
355,312,31275,2,0,L|268:327,1,70
95,259,31675,5,0,0:0:0:0:
95,259,31775,1,0,0:0:0:0:
95,259,31875,2,0,P|99:214|89:181,1,70
165,87,32275,1,0,0:0:0:0:
266,72,32475,2,0,P|216:60|188:65,1,70
336,207,32875,2,0,P|386:219|414:214,1,70
476,49,33275,2,0,L|493:125,1,70
361,19,33675,5,0,0:0:0:0:
458,287,33875,1,0,0:0:0:0:
241,194,34075,1,0,0:0:0:0:
441,257,34275,1,0,0:0:0:0:
261,346,34475,2,0,P|204:346|166:333,1,70
79,171,34875,2,0,L|89:252,1,70
350,132,35275,6,0,P|317:142|277:135,1,70
166,32,35675,1,0,0:0:0:0:
124,130,35875,1,0,0:0:0:0:
124,130,36075,2,0,L|134:46,1,70
28,229,36475,2,0,L|18:313,1,70
222,252,36875,1,0,0:0:0:0:
91,364,37075,1,0,0:0:0:0:
198,343,37275,1,0,0:0:0:0:
136,283,37475,1,0,0:0:0:0:
184,227,37675,6,0,P|192:182|181:135,1,70
109,53,38075,1,0,0:0:0:0:
109,53,38175,1,0,0:0:0:0:
109,53,38275,2,0,L|189:61,1,70
323,156,38675,1,0,0:0:0:0:
466,27,38875,6,0,P|461:67|473:96,1,70
359,278,39275,1,0,0:0:0:0:
307,32,39475,1,0,0:0:0:0:
176,179,39675,1,0,0:0:0:0:
386,261,39875,1,0,0:0:0:0:
196,53,40075,1,0,0:0:0:0:
238,307,40275,1,0,0:0:0:0:
173,82,40475,1,0,0:0:0:0:
267,329,40675,1,0,0:0:0:0:
173,82,40875,6,0,P|126:89|93:81,1,70
30,192,41275,1,0,0:0:0:0:
108,220,41375,1,0,0:0:0:0:
187,247,41475,1,0,0:0:0:0:
382,344,41675,6,0,P|401:304|395:253,1,70
334,146,42075,1,0,0:0:0:0:
440,101,42275,1,0,0:0:0:0:
366,51,42475,1,0,0:0:0:0:
452,205,42675,1,0,0:0:0:0:
367,237,42875,1,0,0:0:0:0:
278,220,43075,1,0,0:0:0:0:
123,70,43275,5,0,0:0:0:0:
169,253,43475,1,0,0:0:0:0:
123,70,43675,1,0,0:0:0:0:
169,253,43875,1,0,0:0:0:0:
37,159,44075,2,0,P|28:209|40:237,1,70
128,339,44475,1,0,0:0:0:0:
211,333,44575,1,0,0:0:0:0:
291,308,44675,2,0,L|336:290,1,35
469,159,44875,6,0,P|477:198|474:234,1,70
283,106,45275,2,0,P|304:139|332:162,1,70
73,158,45675,2,0,L|149:171,1,70
180,203,46075,2,0,L|104:216,1,70
326,353,46475,6,0,P|320:315|326:274,1,70
323,283,46875,2,0,P|329:245|323:204,1,70
241,152,47275,2,0,L|316:136,1,70
398,77,47675,2,0,L|323:61,1,70
135,43,48075,6,0,P|126:85|136:116,1,70
55,348,48475,2,0,P|65:303|56:263,1,70
287,247,48875,2,0,L|207:233,1,70
321,352,49275,2,0,L|401:338,1,70
431,232,49675,5,0,0:0:0:0:
435,211,49875,1,0,0:0:0:0:
440,190,50075,1,0,0:0:0:0:
444,169,50275,1,0,0:0:0:0:
449,148,50475,2,0,L|375:131,1,70
247,57,50875,5,0,0:0:0:0:
247,57,50975,1,0,0:0:0:0:
247,57,51075,2,0,P|240:100|246:133,1,70
295,260,51475,1,0,0:0:0:0:
96,114,51675,1,0,0:0:0:0:
134,300,51875,1,0,0:0:0:0:
119,137,52075,1,0,0:0:0:0:
263,276,52275,1,0,0:0:0:0:
188,43,52475,5,0,0:0:0:0:
280,304,52675,1,0,0:0:0:0:
353,140,52875,1,0,0:0:0:0:
127,197,53075,5,0,0:0:0:0:
399,265,53275,1,0,0:0:0:0:
292,45,53475,1,0,0:0:0:0:
254,348,53675,5,0,0:0:0:0:
377,280,53875,1,0,0:0:0:0:
131,259,54075,1,0,0:0:0:0:
131,259,54175,1,0,0:0:0:0:
307,202,54275,1,0,0:0:0:0:
201,147,54475,1,0,0:0:0:0:
145,138,57675,6,0,P|139:180|146:218,1,70
265,45,58075,1,0,0:0:0:0:
265,45,58175,1,0,0:0:0:0:
265,45,58275,2,0,L|341:55,2,70
310,169,58875,2,0,P|368:184|401:174,1,70
469,46,59275,6,0,L|481:118,1,70
397,297,59675,2,0,L|409:225,1,70
215,325,60075,2,0,P|261:317|301:332,1,70
81,231,60475,2,0,L|155:241,1,70
241,66,60875,6,0,P|248:108|238:144,1,70
367,7,61275,1,0,0:0:0:0:
383,46,61375,1,0,0:0:0:0:
347,45,61475,2,0,L|366:128,1,70
285,296,61875,2,0,L|304:213,2,70
86,367,62475,6,0,P|123:375|175:359,1,70
252,191,62875,1,0,0:0:0:0:
84,102,63075,1,0,0:0:0:0:
211,55,63275,1,0,0:0:0:0:
186,237,63475,1,0,0:0:0:0:
241,93,63675,2,0,L|321:80,1,70
435,162,64075,6,0,P|396:172|363:167,1,70
445,49,64475,1,0,0:0:0:0:
512,275,64675,2,0,P|477:286|440:284,2,70
231,240,65275,2,0,L|308:249,1,70
391,157,65675,6,0,P|356:140|314:142,1,70
119,54,66075,1,0,0:0:0:0:
160,308,66275,1,0,0:0:0:0:
334,51,66475,1,0,0:0:0:0:
61,205,66675,1,0,0:0:0:0:
316,76,66875,1,0,0:0:0:0:
140,349,67075,1,0,0:0:0:0:
160,62,67275,6,0,P|194:71|229:67,1,70
84,147,67675,2,0,P|46:142|9:147,1,70
149,293,68075,2,0,L|137:218,1,70
269,384,68475,6,0,P|283:343|279:311,1,70
329,181,68875,1,0,0:0:0:0:
433,327,69075,1,0,0:0:0:0:
191,236,69275,1,0,0:0:0:0:
472,163,69475,1,0,0:0:0:0:
166,262,69675,1,0,0:0:0:0:
461,317,69875,1,0,0:0:0:0:
278,60,70075,1,0,0:0:0:0:
437,342,70275,1,0,0:0:0:0:
159,133,70475,6,0,P|194:146|246:139,1,70
394,106,70875,1,0,0:0:0:0:
264,323,71075,1,0,0:0:0:0:
357,122,71275,1,0,0:0:0:0:
425,343,71475,1,0,0:0:0:0:
241,293,71675,1,0,0:0:0:0:
470,215,71875,1,0,0:0:0:0:
83,277,72075,5,0,0:0:0:0:
83,277,72175,1,0,0:0:0:0:
83,277,72275,1,0,0:0:0:0:
213,103,72475,1,0,0:0:0:0:
296,229,72675,1,0,0:0:0:0:
75,148,72875,1,0,0:0:0:0:
233,124,73075,1,0,0:0:0:0:
315,322,73275,2,0,P|272:333|241:329,1,70
388,228,73675,6,0,L|467:220,1,70
303,137,74075,2,0,L|224:129,1,70
78,314,74475,2,0,P|66:269|69:231,1,70
341,107,74875,6,0,L|421:120,1,70
432,146,75175,1,0,0:0:0:0:
432,146,75275,1,0,0:0:0:0:
255,330,75475,1,0,0:0:0:0:
256,78,75675,1,0,0:0:0:0:
425,278,75875,1,0,0:0:0:0:
241,364,76075,1,0,0:0:0:0:
140,189,76275,1,0,0:0:0:0:
140,189,76375,1,0,0:0:0:0:
273,231,76475,1,0,0:0:0:0:
193,54,76675,1,0,0:0:0:0:
411,157,76875,6,0,L|396:78,1,70
231,256,77275,2,0,P|271:266|327:255,1,70
143,136,77675,2,0,L|66:120,1,70
228,46,78075,2,0,L|305:30,1,70
314,43,78375,1,0,0:0:0:0:
315,45,78475,1,0,0:0:0:0:
430,335,78675,1,0,0:0:0:0:
97,272,78875,1,0,0:0:0:0:
451,107,79075,1,0,0:0:0:0:
145,103,79275,6,0,P|106:113|52:99,1,70
239,37,79675,1,0,0:0:0:0:
248,55,79775,1,0,0:0:0:0:
256,74,79875,1,0,0:0:0:0:
263,93,79975,1,0,0:0:0:0:
270,112,80075,6,0,L|331:96,2,48.9999985046387
106,204,83275,6,0,P|133:212|162:215,1,48.9999985046387
305,177,83675,2,0,L|254:167,1,48.9999985046387
160,76,84075,1,0,0:0:0:0:
160,76,84275,1,0,0:0:0:0:
286,24,84475,1,0,0:0:0:0:
286,24,84675,1,0,0:0:0:0:
421,168,84875,6,0,L|411:105,1,48.9999985046387
294,272,85275,1,0,0:0:0:0:
294,272,85475,1,0,0:0:0:0:
183,147,85675,1,0,0:0:0:0:
183,147,85875,1,0,0:0:0:0:
74,331,86075,1,0,0:0:0:0:
256,262,86275,1,0,0:0:0:0:
57,206,86475,6,0,P|40:161|45:96,1,97.9999970092774
108,38,87075,2,0,L|212:26,1,97.9999970092774
285,81,87675,2,0,L|297:111,3,24.4999992523194
307,98,88075,6,0,P|357:107|408:99,1,97.9999970092774
466,172,88675,2,0,L|483:237,1,48.9999985046387
401,311,89075,1,0,0:0:0:0:
288,133,89275,1,0,0:0:0:0:
288,133,89375,1,0,0:0:0:0:
288,133,89475,1,0,0:0:0:0:
200,322,89675,6,0,L|190:263,1,48.9999985046387
111,138,90075,1,0,0:0:0:0:
286,237,90275,1,0,0:0:0:0:
91,154,90475,1,0,0:0:0:0:
251,54,90675,1,0,0:0:0:0:
114,188,90875,1,0,0:0:0:0:
356,164,91075,1,0,0:0:0:0:
141,55,91275,6,0,L|81:47,1,48.9999985046387
15,119,91675,2,0,L|7:153,3,24.4999992523194
17,155,92075,2,0,P|72:165|94:159,1,73.4999977569581
99,170,92475,2,0,L|118:197,3,24.4999992523194
130,202,92875,6,0,P|176:218|215:211,1,70
325,127,93275,1,0,0:0:0:0:
404,308,93475,1,0,0:0:0:0:
206,122,93675,1,0,0:0:0:0:
411,276,93875,1,0,0:0:0:0:
216,379,94075,2,0,L|201:306,1,70
376,193,94475,5,0,0:0:0:0:
153,111,94675,1,0,0:0:0:0:
451,66,94875,1,0,0:0:0:0:
238,226,95075,1,0,0:0:0:0:
422,47,95275,2,0,P|377:37|344:44,1,70
209,201,95675,1,0,0:0:0:0:
209,201,95775,1,0,0:0:0:0:
209,201,95875,1,0,0:0:0:0:
397,375,96075,6,0,L|386:294,1,70
448,151,96475,2,0,P|459:186|449:226,1,70
198,245,96875,2,0,P|240:257|281:244,1,70
326,76,97275,2,0,L|340:149,1,70
417,27,97675,5,0,0:0:0:0:
125,161,97875,1,0,0:0:0:0:
242,14,98075,1,0,0:0:0:0:
292,264,98275,1,0,0:0:0:0:
292,264,98475,2,0,P|255:282|214:277,1,70
94,202,98875,2,0,L|108:279,1,70
421,289,99275,6,0,L|345:274,1,70
478,176,99675,1,0,0:0:0:0:
340,57,99875,1,0,0:0:0:0:
229,187,100075,2,0,L|216:103,1,70
107,49,100475,2,0,P|94:90|101:129,1,70
364,248,100875,5,0,0:0:0:0:
267,24,101075,1,0,0:0:0:0:
162,219,101275,1,0,0:0:0:0:
446,189,101475,1,0,0:0:0:0:
282,66,101675,2,0,L|352:50,1,70
225,180,102075,1,0,0:0:0:0:
225,180,102175,1,0,0:0:0:0:
225,180,102275,1,0,0:0:0:0:
333,343,102475,6,0,L|327:263,1,70
66,215,102875,2,0,P|106:230|138:225,1,70
277,65,103275,1,0,0:0:0:0:
417,211,103475,1,0,0:0:0:0:
127,132,103675,1,0,0:0:0:0:
296,93,103875,1,0,0:0:0:0:
191,308,104075,5,0,0:0:0:0:
340,297,104275,1,0,0:0:0:0:
156,281,104475,1,0,0:0:0:0:
316,323,104675,1,0,0:0:0:0:
102,173,104875,2,0,L|177:189,1,70
336,118,105275,1,0,0:0:0:0:
336,118,105375,1,0,0:0:0:0:
336,118,105475,1,0,0:0:0:0:
100,321,105675,6,0,P|135:332|181:328,1,70
312,273,106075,2,0,L|233:258,1,70
61,188,106475,2,0,L|140:173,1,70
275,54,106875,2,0,P|239:53|198:64,1,70
436,337,107275,5,0,0:0:0:0:
317,134,107475,1,0,0:0:0:0:
231,262,107675,1,0,0:0:0:0:
401,310,107875,1,0,0:0:0:0:
341,97,108075,2,0,P|383:88|432:95,1,70
278,214,108475,1,0,0:0:0:0:
278,214,108575,1,0,0:0:0:0:
278,214,108675,1,0,0:0:0:0:
113,293,108875,6,0,P|102:247|110:205,1,70
234,129,109275,2,0,L|161:113,1,70
31,14,109675,2,0,L|41:94,1,70
198,147,110075,2,0,L|208:227,1,70
113,311,110475,5,0,0:0:0:0:
393,239,110675,1,0,0:0:0:0:
229,173,110875,1,0,0:0:0:0:
378,260,111075,1,0,0:0:0:0:
300,47,111275,1,0,0:0:0:0:
456,108,111475,1,0,0:0:0:0:
187,194,111675,1,0,0:0:0:0:
271,17,111875,2,0,L|281:60,1,35
271,70,112075,6,0,P|233:84|191:78,1,70
112,39,112475,2,0,P|78:36|37:46,1,70
137,220,112875,2,0,L|123:149,1,70
227,337,113275,2,0,L|241:266,1,70
395,221,113675,5,0,0:0:0:0:
254,144,113875,1,0,0:0:0:0:
443,147,114075,1,0,0:0:0:0:
224,188,114275,1,0,0:0:0:0:
382,63,114475,2,0,P|418:57|453:65,1,70
336,199,114875,1,0,0:0:0:0:
336,199,114975,1,0,0:0:0:0:
336,199,115075,1,0,0:0:0:0:
149,66,115275,6,0,L|230:52,1,70
132,184,115675,2,0,L|50:207,1,70
281,298,116075,2,0,L|264:214,1,70
397,90,116475,2,0,L|319:120,1,70
65,209,116875,5,0,0:0:0:0:
122,130,117075,1,0,0:0:0:0:
148,268,117275,1,0,0:0:0:0:
220,79,117475,1,0,0:0:0:0:
220,79,117675,1,0,0:0:0:0:
324,168,118075,2,0,L|374:160,2,35
311,185,118475,1,0,0:0:0:0:
174,149,121675,6,0,P|231:157|264:148,1,70
347,98,122075,2,0,L|361:161,3,35
290,226,122475,2,0,L|276:289,3,35
402,348,122875,2,0,P|364:359|307:348,1,70
138,301,123275,2,0,L|208:311,1,70
331,234,123675,5,0,0:0:0:0:
123,106,123875,1,0,0:0:0:0:
337,199,124075,1,0,0:0:0:0:
87,240,124275,1,0,0:0:0:0:
252,45,124475,2,0,P|289:40|336:47,1,70
426,124,124875,6,0,L|331:142,1,70
243,237,125275,1,0,0:0:0:0:
413,306,125475,1,0,0:0:0:0:
261,213,125675,1,0,0:0:0:0:
308,354,125875,1,0,0:0:0:0:
141,205,126075,2,0,L|61:194,1,70
141,102,126475,6,0,P|186:97|211:104,1,70
314,180,126875,1,0,0:0:0:0:
194,15,127075,1,0,0:0:0:0:
138,257,127275,1,0,0:0:0:0:
310,80,127475,1,0,0:0:0:0:
414,246,127675,2,0,L|403:167,1,70
310,329,128075,6,0,P|271:335|219:322,1,70
88,272,128475,1,0,0:0:0:0:
256,224,128675,1,0,0:0:0:0:
137,172,128875,1,0,0:0:0:0:
213,116,129075,1,0,0:0:0:0:
157,61,129275,2,0,L|84:53,1,70
242,0,129675,6,0,P|275:-3|311:0,1,70
434,83,130075,1,0,0:0:0:0:
318,142,130275,1,0,0:0:0:0:
400,184,130475,1,0,0:0:0:0:
345,234,130675,1,0,0:0:0:0:
386,271,130875,2,0,L|397:304,1,31.4999990386963
435,331,131275,6,0,L|353:347,1,70
249,303,131675,2,0,P|241:262|246:204,1,70
153,133,132075,1,0,0:0:0:0:
336,112,132275,1,0,0:0:0:0:
121,99,132475,1,0,0:0:0:0:
121,99,132575,1,0,0:0:0:0:
286,42,132675,1,0,0:0:0:0:
121,220,132875,5,0,0:0:0:0:
201,23,133075,1,0,0:0:0:0:
311,275,133275,1,0,0:0:0:0:
86,126,133475,1,0,0:0:0:0:
284,83,133675,1,0,0:0:0:0:
284,83,134075,5,0,0:0:0:0:
284,83,134475,6,0,L|299:162,1,70
362,270,134875,1,0,0:0:0:0:
343,298,135075,2,0,P|293:311|246:301,2,70
426,169,135675,2,0,L|444:258,1,70
466,270,136075,1,0,0:0:0:0:
66,112,136275,5,0,0:0:0:0:
260,144,136475,1,0,0:0:0:0:
85,85,136675,1,0,0:0:0:0:
169,241,136875,2,0,P|208:257|256:252,1,70
366,190,137275,1,0,0:0:0:0:
184,50,137475,1,0,0:0:0:0:
358,0,137675,6,0,P|363:37|354:69,1,70
222,164,138075,2,0,P|259:174|296:176,1,70
446,133,138475,2,0,L|463:221,1,70
322,296,138875,2,0,P|374:309|404:301,2,70
137,258,139475,5,0,0:0:0:0:
137,258,139575,1,0,0:0:0:0:
137,258,139675,2,0,P|142:218|135:176,1,70
198,35,140075,2,0,L|209:111,1,70
301,259,140475,2,0,L|290:183,1,70
413,75,140875,6,0,P|377:71|342:77,1,70
187,238,141275,1,0,0:0:0:0:
452,232,141475,1,0,0:0:0:0:
188,47,141675,1,0,0:0:0:0:
422,255,141875,1,0,0:0:0:0:
247,329,142075,2,0,P|200:341|162:331,1,70
112,273,142475,6,0,P|156:261|199:267,1,70
316,295,142875,1,0,0:0:0:0:
208,117,143075,1,0,0:0:0:0:
358,172,143275,1,0,0:0:0:0:
306,84,143475,1,0,0:0:0:0:
208,117,143675,1,0,0:0:0:0:
174,125,143775,1,0,0:0:0:0:
141,115,143875,1,0,0:0:0:0:
115,91,144075,2,0,P|104:131|105:164,1,70
297,165,147275,6,0,P|340:178|391:174,1,70
484,94,147675,2,0,L|406:74,1,70
299,19,148075,1,0,0:0:0:0:
299,19,148275,1,0,0:0:0:0:
119,130,148475,1,0,0:0:0:0:
119,130,148675,1,0,0:0:0:0:
209,326,148875,2,0,L|195:245,1,70
341,242,149275,5,0,0:0:0:0:
185,72,149475,1,0,0:0:0:0:
324,278,149675,1,0,0:0:0:0:
214,41,149875,1,0,0:0:0:0:
300,308,150075,1,0,0:0:0:0:
246,12,150275,1,0,0:0:0:0:
346,138,150475,6,0,P|386:147|440:143,1,70
286,59,150875,2,0,P|246:50|192:54,1,70
126,108,151275,2,0,L|136:193,1,70
52,235,151675,2,0,L|62:320,1,70
286,336,152075,6,0,P|248:347|209:337,1,70
375,265,152475,1,0,0:0:0:0:
186,139,152675,1,0,0:0:0:0:
249,263,152875,1,0,0:0:0:0:
366,154,153075,1,0,0:0:0:0:
265,35,153275,1,0,0:0:0:0:
271,69,153375,1,0,0:0:0:0:
277,103,153475,1,0,0:0:0:0:
452,55,153675,6,0,P|408:44|374:55,1,70
150,122,154075,2,0,L|223:134,1,70
429,242,154475,2,0,P|385:231|351:242,1,70
127,309,154875,2,0,L|200:321,1,70
364,340,155275,5,0,0:0:0:0:
302,84,155475,1,0,0:0:0:0:
301,290,155675,5,0,0:0:0:0:
369,120,155875,1,0,0:0:0:0:
211,222,156075,5,0,0:0:0:0:
153,41,156275,1,0,0:0:0:0:
149,173,156475,5,0,0:0:0:0:
178,137,156575,1,0,0:0:0:0:
207,97,156675,1,0,0:0:0:0:
373,42,156875,6,0,L|278:28,1,70
156,112,157275,1,0,0:0:0:0:
285,238,157475,1,0,0:0:0:0:
159,338,157675,1,0,0:0:0:0:
266,206,157875,1,0,0:0:0:0:
76,152,158075,2,0,L|60:238,1,70
99,327,158475,5,0,0:0:0:0:
233,159,158675,1,0,0:0:0:0:
329,362,158875,1,0,0:0:0:0:
142,216,159075,1,0,0:0:0:0:
315,331,159275,2,0,P|360:335|388:329,1,70
450,242,159675,1,0,0:0:0:0:
450,242,159775,1,0,0:0:0:0:
450,242,159875,1,0,0:0:0:0:
316,160,160075,6,0,P|281:159|248:148,1,70
120,39,160475,2,0,L|131:122,1,70
79,302,160875,2,0,L|68:219,1,70
258,369,161275,2,0,P|213:378|183:372,1,70
286,270,161675,5,0,0:0:0:0:
400,249,161875,1,0,0:0:0:0:
201,196,162075,5,0,0:0:0:0:
87,175,162275,1,0,0:0:0:0:
273,106,162475,5,0,0:0:0:0:
387,85,162675,1,0,0:0:0:0:
201,25,162875,5,0,0:0:0:0:
87,4,163075,1,0,0:0:0:0:
26,93,163275,6,0,P|16:142|21:193,1,70
187,262,163675,1,0,0:0:0:0:
47,322,163875,1,0,0:0:0:0:
131,159,164075,2,0,P|172:151|227:158,1,70
344,269,164475,2,0,L|263:286,1,70
302,157,164875,5,0,0:0:0:0:
341,42,165075,1,0,0:0:0:0:
419,140,165275,5,0,0:0:0:0:
458,255,165475,1,0,0:0:0:0:
299,329,165675,2,0,P|336:341|394:338,1,70
208,231,166075,1,0,0:0:0:0:
208,231,166175,1,0,0:0:0:0:
208,231,166275,1,0,0:0:0:0:
58,310,166475,6,0,L|131:292,1,70
86,114,166875,2,0,P|75:158|87:202,1,70
267,103,167275,2,0,L|193:83,1,70
354,24,167675,1,0,0:0:0:0:
235,140,167875,1,0,0:0:0:0:
390,258,168075,5,0,0:0:0:0:
342,110,168275,1,0,0:0:0:0:
222,367,168475,5,0,0:0:0:0:
270,219,168675,1,0,0:0:0:0:
90,104,168875,2,0,L|109:196,1,70
205,277,169275,1,0,0:0:0:0:
205,277,169375,1,0,0:0:0:0:
205,277,169475,1,0,0:0:0:0:
437,173,169675,6,0,P|393:169|353:170,1,70
299,90,170075,2,0,P|264:89|229:86,1,70
156,163,170475,2,0,L|171:248,1,70
281,357,170875,2,0,L|266:272,1,70
87,72,171275,5,0,0:0:0:0:
233,91,171475,1,0,0:0:0:0:
450,166,171675,5,0,0:0:0:0:
304,185,171875,1,0,0:0:0:0:
103,261,172075,2,0,P|143:274|182:269,1,70
272,148,172475,1,0,0:0:0:0:
272,148,172575,1,0,0:0:0:0:
272,148,172675,1,0,0:0:0:0:
409,338,172875,6,0,L|398:257,1,70
312,230,173275,2,0,L|323:149,1,70
419,47,173675,2,0,P|380:38|345:40,1,70
216,81,174075,2,0,L|226:153,1,70
175,351,174475,5,0,0:0:0:0:
140,214,174675,1,0,0:0:0:0:
60,115,174875,5,0,0:0:0:0:
25,252,175075,1,0,0:0:0:0:
212,301,175275,2,0,P|164:319|130:309,1,70
272,202,175675,1,0,0:0:0:0:
272,202,175775,1,0,0:0:0:0:
272,202,175875,1,0,0:0:0:0:
402,339,176075,6,0,L|387:260,1,70
297,114,176475,2,0,L|312:193,1,70
155,290,176875,2,0,P|191:298|235:292,1,70
96,195,177275,2,0,P|60:187|16:193,1,70
161,68,177675,5,0,0:0:0:0:
336,107,177875,1,0,0:0:0:0:
436,237,178075,5,0,0:0:0:0:
261,198,178275,1,0,0:0:0:0:
154,346,178475,2,0,P|135:292|141:260,1,70
46,158,178875,1,0,0:0:0:0:
46,158,178975,1,0,0:0:0:0:
46,158,179075,1,0,0:0:0:0:
131,53,179275,6,0,L|204:64,1,70
296,251,179675,2,0,L|285:181,1,70
400,80,180075,2,0,P|412:120|405:157,1,70
248,218,180475,2,0,P|236:178|243:141,1,70
101,113,180875,5,0,0:0:0:0:
110,146,181075,1,0,0:0:0:0:
122,178,181275,1,0,0:0:0:0:
132,211,181475,1,0,0:0:0:0:
109,326,181675,5,0,0:0:0:0:
287,236,181875,1,0,0:0:0:0:
207,356,182075,1,0,0:0:0:0:
207,356,182175,1,0,0:0:0:0:
207,356,182275,1,0,0:0:0:0:
