osu file format v14

[General]
AudioFilename: audio.mp3
AudioLeadIn: 0
PreviewTime: 28875
Countdown: 1
SampleSet: Normal
StackLeniency: 0.2
Mode: 0
LetterboxInBreaks: 0
WidescreenStoryboard: 1

[Editor]
Bookmarks: 182475
DistanceSpacing: 1
BeatDivisor: 4
GridSize: 4
TimelineZoom: 1

[Metadata]
Title:Sauce
TitleUnicode:Sauce
Artist:Sippinpurpp
ArtistUnicode:Sippinpurpp
Creator:[Takaga]
Version:AI PRIMU
Source:
Tags:
BeatmapID:2041221
BeatmapSetID:951895

[Difficulty]
HPDrainRate:6
CircleSize:4
OverallDifficulty:8
ApproachRate:9
SliderMultiplier:1.4
SliderTickRate:1

[Events]
//Background and Video events
0,0,"Konachan.com - 278944 sample.jpg",0,0
//Break Periods
2,54675,57075
2,80275,81875
2,118675,121075
2,144275,146275
//Storyboard Layer 0 (Background)
//Storyboard Layer 1 (Fail)
//Storyboard Layer 2 (Pass)
//Storyboard Layer 3 (Foreground)
//Storyboard Sound Samples

[TimingPoints]
3275,400,4,1,0,100,1,0
3275,-100,4,1,0,20,0,0
14475,-133.333333333333,4,1,0,20,0,0
16375,-222.222222222221,4,1,0,20,0,0
28875,-100,4,1,0,20,0,1
54475,-100,4,1,0,20,0,0
57675,-100,4,1,0,20,0,0
80075,-142.857142857143,4,1,0,20,0,0
83275,-142.857142857143,4,1,0,20,0,0
92875,-100,4,1,0,20,0,1
116875,-100,4,1,0,20,0,0
126075,-153.846153846154,4,1,0,20,0,0
126475,-100,4,1,0,20,0,0
128475,-66.6666666666667,4,1,0,20,0,0
128875,-100,4,1,0,20,0,0
130875,-333.333333333333,4,1,0,20,0,0
131275,-100,4,1,0,20,0,0
138475,-200,4,1,0,20,0,0
139475,-100,4,1,0,20,0,0
156875,-100,4,1,0,20,0,1
182075,-100,4,1,0,20,0,0

[HitObjects]
99,90,3275,5,0,0:0:0:0:
134,105,3475,1,0,0:0:0:0:
172,100,3675,1,0,0:0:0:0:
208,87,3875,1,0,0:0:0:0:
245,77,4075,1,0,0:0:0:0:
283,81,4275,1,0,0:0:0:0:
320,87,4475,1,0,0:0:0:0:
357,78,4675,1,0,0:0:0:0:
387,54,4875,1,0,0:0:0:0:
422,39,5075,1,0,0:0:0:0:
460,36,5275,6,0,L|469:109,1,70
445,292,5675,2,0,P|488:326|489:222,1,210
413,165,6475,5,0,0:0:0:0:
378,148,6675,1,0,0:0:0:0:
339,151,6875,1,0,0:0:0:0:
304,167,7075,1,0,0:0:0:0:
274,191,7275,1,0,0:0:0:0:
244,215,7475,1,0,0:0:0:0:
208,229,7675,1,0,0:0:0:0:
169,227,7875,1,0,0:0:0:0:
132,213,8075,1,0,0:0:0:0:
102,188,8275,1,0,0:0:0:0:
81,155,8475,6,0,L|70:79,1,70
157,12,8875,2,0,B|226:-12|252:20|282:52|369:-2,1,210
484,42,9675,5,0,0:0:0:0:
488,76,9875,1,0,0:0:0:0:
492,111,10075,1,0,0:0:0:0:
417,183,10275,5,0,0:0:0:0:
412,148,10475,1,0,0:0:0:0:
408,113,10675,1,0,0:0:0:0:
313,51,10875,5,0,0:0:0:0:
317,85,11075,1,0,0:0:0:0:
321,120,11275,1,0,0:0:0:0:
246,192,11475,5,0,0:0:0:0:
241,157,11675,1,0,0:0:0:0:
237,122,11875,1,0,0:0:0:0:
123,59,12075,5,0,0:0:0:0:
163,51,12275,1,0,0:0:0:0:
204,48,12475,1,0,0:0:0:0:
247,39,12675,1,0,0:0:0:0:
284,30,12875,2,0,P|325:23|382:29,1,70
435,84,13275,5,0,0:0:0:0:
202,174,13475,1,0,0:0:0:0:
430,292,13675,1,0,0:0:0:0:
265,63,13875,1,0,0:0:0:0:
325,339,14075,2,0,P|285:337|248:321,1,70
114,214,14475,5,0,0:0:0:0:
333,172,14675,1,0,0:0:0:0:
52,93,14875,1,0,0:0:0:0:
328,253,15075,5,0,0:0:0:0:
80,78,15275,1,0,0:0:0:0:
169,273,15475,1,0,0:0:0:0:
108,96,15675,1,0,0:0:0:0:
346,232,15875,1,0,0:0:0:0:
225,39,16075,6,0,L|235:104,1,52.5000020027161
257,110,16475,1,0,0:0:0:0:
285,123,16675,1,0,0:0:0:0:
316,127,16875,1,0,0:0:0:0:
347,124,17075,1,0,0:0:0:0:
377,115,17275,1,0,0:0:0:0:
404,100,17475,1,0,0:0:0:0:
428,80,17675,1,0,0:0:0:0:
447,55,17875,1,0,0:0:0:0:
352,2,18075,5,0,0:0:0:0:
345,32,18275,1,0,0:0:0:0:
350,63,18475,1,0,0:0:0:0:
359,93,18675,1,0,0:0:0:0:
366,123,18875,1,0,0:0:0:0:
360,154,19075,1,0,0:0:0:0:
258,221,19275,5,0,0:0:0:0:
237,196,19475,1,0,0:0:0:0:
231,164,19675,1,0,0:0:0:0:
241,134,19875,1,0,0:0:0:0:
248,103,20075,1,0,0:0:0:0:
239,72,20275,1,0,0:0:0:0:
218,48,20475,1,0,0:0:0:0:
188,36,20675,1,0,0:0:0:0:
156,41,20875,1,0,0:0:0:0:
127,55,21075,1,0,0:0:0:0:
220,130,21275,5,0,0:0:0:0:
233,161,21475,1,0,0:0:0:0:
232,195,21675,1,0,0:0:0:0:
215,225,21875,1,0,0:0:0:0:
190,249,22075,1,0,0:0:0:0:
159,265,22275,1,0,0:0:0:0:
28,335,22475,5,0,0:0:0:0:
58,350,22675,1,0,0:0:0:0:
92,354,22875,1,0,0:0:0:0:
125,347,23075,1,0,0:0:0:0:
158,339,23275,1,0,0:0:0:0:
189,343,23475,1,0,0:0:0:0:
218,354,23675,1,0,0:0:0:0:
248,362,23875,1,0,0:0:0:0:
279,360,24075,5,0,0:0:0:0:
308,349,24275,1,0,0:0:0:0:
337,339,24475,1,0,0:0:0:0:
368,340,24675,1,0,0:0:0:0:
398,347,24875,1,0,0:0:0:0:
429,352,25075,1,0,0:0:0:0:
459,342,25275,1,0,0:0:0:0:
480,318,25475,1,0,0:0:0:0:
491,288,25675,6,0,P|494:267|492:246,1,31.4999990386963
354,186,26075,2,0,P|374:192|395:194,1,31.4999990386963
464,64,26475,2,0,P|445:75|431:90,1,31.4999990386963
284,33,26875,2,0,L|296:76,1,31.4999990386963
141,152,27275,5,0,0:0:0:0:
141,152,27475,1,0,0:0:0:0:
141,152,27675,1,0,0:0:0:0:
141,152,27875,1,0,0:0:0:0:
141,152,28075,1,0,0:0:0:0:
380,70,28875,6,0,L|390:157,1,70
329,223,29275,1,0,0:0:0:0:
404,342,29475,1,0,0:0:0:0:
221,278,29675,2,0,P|176:270|145:274,1,70
78,217,30075,2,0,L|66:142,1,70
236,68,30475,5,0,0:0:0:0:
66,23,30675,1,0,0:0:0:0:
201,179,30875,1,0,0:0:0:0:
99,13,31075,1,0,0:0:0:0:
281,0,31275,2,0,L|371:-8,1,70
214,98,31675,1,0,0:0:0:0:
214,98,31775,1,0,0:0:0:0:
214,98,31875,1,0,0:0:0:0:
352,253,32075,6,0,P|387:263|427:264,1,70
282,155,32475,2,0,L|196:142,1,70
98,281,32875,2,0,L|184:268,1,70
12,186,33275,2,0,L|2:108,1,70
234,12,33675,5,0,0:0:0:0:
93,167,33875,1,0,0:0:0:0:
286,299,34075,1,0,0:0:0:0:
77,52,34275,5,0,0:0:0:0:
413,121,34475,1,0,0:0:0:0:
77,52,34675,1,0,0:0:0:0:
413,121,34875,1,0,0:0:0:0:
416,155,34975,1,0,0:0:0:0:
418,189,35075,1,0,0:0:0:0:
420,223,35175,1,0,0:0:0:0:
423,257,35275,6,0,L|352:273,1,70
249,214,35675,1,0,0:0:0:0:
337,104,35875,1,0,0:0:0:0:
162,47,36075,2,0,L|246:40,1,70
80,151,36475,2,0,L|-4:144,1,70
257,18,36875,5,0,0:0:0:0:
167,259,37075,1,0,0:0:0:0:
226,0,37275,5,0,0:0:0:0:
316,241,37475,1,0,0:0:0:0:
447,92,37675,2,0,L|461:168,1,70
420,283,38075,1,0,0:0:0:0:
420,283,38175,1,0,0:0:0:0:
420,283,38275,1,0,0:0:0:0:
251,360,38475,6,0,P|298:369|342:354,1,70
231,251,38875,2,0,L|153:241,1,70
74,167,39275,1,0,0:0:0:0:
265,132,39475,1,0,0:0:0:0:
114,78,39675,1,0,0:0:0:0:
202,29,39875,1,0,0:0:0:0:
202,29,40075,1,0,0:0:0:0:
114,78,40275,1,0,0:0:0:0:
265,132,40475,1,0,0:0:0:0:
74,167,40675,1,0,0:0:0:0:
330,216,40875,6,0,L|342:292,1,70
47,349,41275,1,0,0:0:0:0:
47,349,41375,1,0,0:0:0:0:
47,349,41475,1,0,0:0:0:0:
181,160,41675,6,0,P|211:176|276:171,1,70
402,86,42075,2,0,P|372:70|307:75,1,70
433,213,42475,2,0,L|442:292,1,70
372,339,42875,2,0,L|296:356,1,70
105,83,43275,5,0,0:0:0:0:
204,346,43475,1,0,0:0:0:0:
192,36,43675,5,0,0:0:0:0:
134,304,43875,1,0,0:0:0:0:
316,127,44075,2,0,P|364:132|402:125,1,70
261,18,44475,1,0,0:0:0:0:
261,18,44575,1,0,0:0:0:0:
261,18,44675,1,0,0:0:0:0:
188,243,44875,6,0,P|235:256|271:253,1,70
157,151,45275,2,0,P|110:138|74:141,1,70
0,242,45675,5,0,0:0:0:0:
397,147,46075,5,0,0:0:0:0:
125,95,46475,5,0,0:0:0:0:
304,135,46675,1,0,0:0:0:0:
190,42,46875,1,0,0:0:0:0:
234,242,47075,1,0,0:0:0:0:
289,32,47275,2,0,L|359:40,1,70
449,110,47675,2,0,B|483:117,3,35
415,135,48075,6,0,L|428:229,1,70
346,333,48475,2,0,L|333:239,1,70
235,34,48875,5,0,0:0:0:0:
101,363,49275,5,0,0:0:0:0:
346,182,49675,5,0,0:0:0:0:
122,149,49875,1,0,0:0:0:0:
346,182,50075,1,0,0:0:0:0:
201,101,50275,1,0,0:0:0:0:
278,276,50475,2,0,L|267:356,1,70
145,312,50875,6,0,L|151:361,3,35
114,285,51275,2,0,L|21:304,1,70
210,199,51675,2,0,L|303:218,1,70
122,117,52075,5,0,0:0:0:0:
502,35,52475,5,0,0:0:0:0:
342,12,52675,1,0,0:0:0:0:
429,162,52875,5,0,0:0:0:0:
269,236,53075,1,0,0:0:0:0:
319,137,53275,5,0,0:0:0:0:
159,63,53475,1,0,0:0:0:0:
36,195,53675,1,0,0:0:0:0:
159,63,53875,1,0,0:0:0:0:
319,137,54075,1,0,0:0:0:0:
319,137,54175,1,0,0:0:0:0:
36,195,54475,1,0,0:0:0:0:
327,133,57675,6,0,L|340:209,1,70
286,286,58075,2,0,P|248:297|209:293,1,70
100,216,58475,2,0,P|138:205|177:209,1,70
260,146,58875,1,0,0:0:0:0:
62,68,59275,1,0,0:0:0:0:
252,24,59675,6,0,P|304:14|331:16,1,70
410,75,60075,2,0,L|423:149,1,70
311,150,60475,2,0,L|323:218,1,70
275,316,60875,6,0,P|237:326|185:316,1,70
122,250,61275,1,0,0:0:0:0:
242,162,61475,1,0,0:0:0:0:
41,106,61675,1,0,0:0:0:0:
242,162,61875,1,0,0:0:0:0:
147,0,62075,2,0,L|153:70,1,70
282,53,62475,2,0,L|277:12,2,35
362,146,62875,5,0,0:0:0:0:
439,349,63075,1,0,0:0:0:0:
397,126,63275,5,0,0:0:0:0:
320,329,63475,1,0,0:0:0:0:
249,177,63675,2,0,P|208:160|170:158,1,70
109,224,64075,6,0,L|120:313,1,70
186,358,64408,1,0,0:0:0:0:
321,315,64541,1,0,0:0:0:0:
186,358,64675,1,0,0:0:0:0:
333,285,64875,1,0,0:0:0:0:
289,152,65208,5,0,0:0:0:0:
333,285,65341,1,0,0:0:0:0:
289,152,65475,1,0,0:0:0:0:
360,304,65675,1,0,0:0:0:0:
360,304,66075,5,0,0:0:0:0:
108,224,66275,1,0,0:0:0:0:
415,223,66475,5,0,0:0:0:0:
158,300,66675,1,0,0:0:0:0:
298,82,66875,5,0,0:0:0:0:
347,346,67075,1,0,0:0:0:0:
87,182,67275,2,0,L|181:171,1,70
236,99,67675,1,0,0:0:0:0:
284,271,67875,1,0,0:0:0:0:
421,72,68075,5,0,0:0:0:0:
67,28,68475,5,0,0:0:0:0:
148,140,68875,5,0,0:0:0:0:
152,158,69008,1,0,0:0:0:0:
157,175,69141,1,0,0:0:0:0:
161,193,69275,1,0,0:0:0:0:
230,237,69408,5,0,0:0:0:0:
226,255,69541,1,0,0:0:0:0:
221,272,69674,1,0,0:0:0:0:
217,290,69808,1,0,0:0:0:0:
143,338,69941,5,0,0:0:0:0:
124,339,70074,1,0,0:0:0:0:
105,340,70207,1,0,0:0:0:0:
87,342,70340,1,0,0:0:0:0:
68,343,70475,6,0,L|55:254,1,70
7,193,70875,1,0,0:0:0:0:
94,94,71075,1,0,0:0:0:0:
181,203,71275,2,0,L|261:182,1,70
353,92,71675,1,0,0:0:0:0:
353,92,72075,5,0,0:0:0:0:
407,260,72208,1,0,0:0:0:0:
353,68,72341,1,0,0:0:0:0:
281,252,72475,2,0,L|204:264,1,70
74,173,72875,2,0,L|151:185,1,70
257,131,73275,2,0,P|220:87|133:87,1,140
297,27,73875,5,0,0:0:0:0:
324,22,74075,1,0,0:0:0:0:
351,17,74275,1,0,0:0:0:0:
378,11,74475,2,0,L|393:89,1,70
267,189,74875,2,0,L|345:174,1,70
248,88,75275,5,0,0:0:0:0:
193,73,75408,1,0,0:0:0:0:
140,92,75541,1,0,0:0:0:0:
103,134,75675,1,0,0:0:0:0:
99,189,75808,1,0,0:0:0:0:
124,239,75941,5,0,0:0:0:0:
156,193,76075,1,0,0:0:0:0:
161,137,76208,1,0,0:0:0:0:
134,87,76341,1,0,0:0:0:0:
141,31,76475,1,0,0:0:0:0:
190,4,76608,1,0,0:0:0:0:
245,12,76741,1,0,0:0:0:0:
291,42,76875,6,0,P|324:48|377:39,1,70
381,26,77275,2,0,L|394:113,1,70
295,218,77675,2,0,P|332:230|372:228,1,70
172,126,78075,2,0,P|135:140|106:167,1,70
233,272,78475,5,0,0:0:0:0:
267,237,78608,1,0,0:0:0:0:
284,191,78741,1,0,0:0:0:0:
283,143,78875,1,0,0:0:0:0:
263,98,79008,1,0,0:0:0:0:
230,73,79141,5,0,0:0:0:0:
208,113,79274,1,0,0:0:0:0:
216,158,79407,1,0,0:0:0:0:
251,188,79540,1,0,0:0:0:0:
300,191,79675,5,0,0:0:0:0:
334,185,79775,1,0,0:0:0:0:
369,180,79875,1,0,0:0:0:0:
209,308,80075,1,0,0:0:0:0:
34,36,82475,5,0,0:0:0:0:
300,106,82875,5,0,0:0:0:0:
300,106,82975,1,0,0:0:0:0:
300,106,83075,1,0,0:0:0:0:
165,328,83275,6,0,L|158:265,1,48.9999985046387
228,180,83675,2,0,L|235:243,1,48.9999985046387
301,296,84075,2,0,L|368:285,1,48.9999985046387
449,190,84475,5,0,0:0:0:0:
449,190,84541,1,0,0:0:0:0:
449,190,84608,2,0,P|413:182|386:188,1,48.9999985046387
378,204,84875,2,0,L|371:145,1,48.9999985046387
285,90,85275,1,0,0:0:0:0:
444,41,85475,1,0,0:0:0:0:
186,10,85675,1,0,0:0:0:0:
419,47,85875,1,0,0:0:0:0:
221,144,86075,2,0,L|153:152,1,48.9999985046387
55,211,86475,6,0,P|60:268|142:278,1,146.999995513916
212,173,87275,2,0,P|222:206|219:232,1,48.9999985046387
65,58,87675,2,0,P|120:97|196:90,1,146.999995513916
296,31,88475,6,0,P|327:37|352:35,1,48.9999985046387
460,96,88875,2,0,P|429:102|404:100,1,48.9999985046387
298,148,89275,1,0,0:0:0:0:
298,148,89375,1,0,0:0:0:0:
298,148,89475,1,0,0:0:0:0:
365,235,89675,2,0,L|374:298,1,48.9999985046387
262,326,90075,5,0,0:0:0:0:
114,354,90275,1,0,0:0:0:0:
262,326,90475,5,0,0:0:0:0:
114,354,90675,1,0,0:0:0:0:
262,326,90875,5,0,0:0:0:0:
114,354,91075,1,0,0:0:0:0:
294,246,91275,2,0,P|270:237|234:237,1,48.9999985046387
166,299,91675,2,0,L|151:240,1,48.9999985046387
72,233,92075,2,0,L|87:174,1,48.9999985046387
150,113,92475,1,0,0:0:0:0:
174,109,92575,1,0,0:0:0:0:
198,106,92675,1,0,0:0:0:0:
198,106,92875,6,0,L|210:185,1,70
286,265,93275,1,0,0:0:0:0:
120,235,93475,1,0,0:0:0:0:
315,130,93675,1,0,0:0:0:0:
380,341,93875,1,0,0:0:0:0:
341,100,94075,2,0,L|266:90,1,70
153,50,94475,5,0,0:0:0:0:
411,145,94675,1,0,0:0:0:0:
102,222,94875,5,0,0:0:0:0:
383,117,95075,1,0,0:0:0:0:
57,88,95275,5,0,0:0:0:0:
403,233,95475,1,0,0:0:0:0:
32,227,95675,5,0,0:0:0:0:
32,227,95775,1,0,0:0:0:0:
32,227,95875,1,0,0:0:0:0:
236,101,96075,2,0,L|247:173,1,70
328,286,96475,6,0,P|369:294|423:281,1,70
215,137,96875,2,0,P|174:129|120:142,1,70
66,199,97275,2,0,L|53:276,1,70
315,302,97675,5,0,0:0:0:0:
138,262,97875,1,0,0:0:0:0:
374,246,98075,5,0,0:0:0:0:
181,321,98275,1,0,0:0:0:0:
412,128,98475,5,0,0:0:0:0:
307,316,98675,1,0,0:0:0:0:
336,36,98875,5,0,0:0:0:0:
409,259,99075,1,0,0:0:0:0:
267,142,99275,2,0,L|183:127,1,70
100,206,99675,5,0,0:0:0:0:
263,244,99875,1,0,0:0:0:0:
100,206,100075,2,0,P|88:247|93:284,1,70
150,340,100475,2,0,L|223:330,1,70
348,274,100875,5,0,0:0:0:0:
220,51,101075,1,0,0:0:0:0:
348,274,101275,1,0,0:0:0:0:
466,45,101475,1,0,0:0:0:0:
348,274,101675,1,0,0:0:0:0:
347,40,101875,1,0,0:0:0:0:
348,274,102075,1,0,0:0:0:0:
348,274,102175,1,0,0:0:0:0:
348,274,102275,1,0,0:0:0:0:
253,171,102475,6,0,L|174:163,1,70
68,255,102875,2,0,L|147:247,1,70
276,145,103275,1,0,0:0:0:0:
339,319,103475,1,0,0:0:0:0:
159,217,103675,1,0,0:0:0:0:
391,177,103875,1,0,0:0:0:0:
159,217,104075,1,0,0:0:0:0:
391,177,104275,1,0,0:0:0:0:
253,87,104475,5,0,0:0:0:0:
293,295,104675,1,0,0:0:0:0:
253,87,104875,1,0,0:0:0:0:
293,295,105075,1,0,0:0:0:0:
127,190,105275,1,0,0:0:0:0:
127,190,105375,1,0,0:0:0:0:
127,190,105475,1,0,0:0:0:0:
348,135,105675,6,0,L|428:131,1,70
253,62,106075,2,0,L|173:58,1,70
72,116,106475,5,0,0:0:0:0:
365,218,106875,5,0,0:0:0:0:
131,196,107275,5,0,0:0:0:0:
345,91,107475,1,0,0:0:0:0:
326,320,107675,1,0,0:0:0:0:
210,77,107875,5,0,0:0:0:0:
171,319,108075,1,0,0:0:0:0:
417,224,108275,1,0,0:0:0:0:
114,167,108475,5,0,0:0:0:0:
371,81,108675,1,0,0:0:0:0:
304,341,108875,2,0,L|282:271,1,70
101,251,109275,2,0,L|171:229,1,70
278,149,109675,5,0,0:0:0:0:
43,46,110075,5,0,0:0:0:0:
312,40,110475,5,0,0:0:0:0:
371,222,110675,1,0,0:0:0:0:
337,4,110875,5,0,0:0:0:0:
283,190,111075,1,0,0:0:0:0:
440,88,111275,5,0,0:0:0:0:
243,179,111475,1,0,0:0:0:0:
123,57,111675,1,0,0:0:0:0:
118,91,111775,1,0,0:0:0:0:
114,126,111875,1,0,0:0:0:0:
110,161,111975,1,0,0:0:0:0:
105,195,112075,6,0,L|96:268,1,70
143,343,112475,2,0,P|181:353|218:348,1,70
292,286,112875,5,0,0:0:0:0:
35,97,113275,5,0,0:0:0:0:
361,115,113675,5,0,0:0:0:0:
152,167,113875,1,0,0:0:0:0:
416,186,114075,5,0,0:0:0:0:
198,101,114275,1,0,0:0:0:0:
381,275,114475,5,0,0:0:0:0:
277,64,114675,1,0,0:0:0:0:
173,275,114875,5,0,0:0:0:0:
173,275,114975,1,0,0:0:0:0:
173,275,115075,1,0,0:0:0:0:
51,165,115275,5,0,0:0:0:0:
288,129,115475,1,0,0:0:0:0:
51,165,115675,5,0,0:0:0:0:
288,201,115875,1,0,0:0:0:0:
13,165,116075,5,0,0:0:0:0:
410,98,116475,5,0,0:0:0:0:
212,40,116875,5,0,0:0:0:0:
213,74,117075,1,0,0:0:0:0:
215,108,117275,1,0,0:0:0:0:
217,142,117475,1,0,0:0:0:0:
218,176,117675,1,0,0:0:0:0:
167,290,118075,1,0,0:0:0:0:
167,290,118175,1,0,0:0:0:0:
167,290,118275,1,0,0:0:0:0:
372,173,118475,1,0,0:0:0:0:
107,93,121675,6,0,L|118:182,1,70
179,240,122075,1,0,0:0:0:0:
201,245,122208,1,0,0:0:0:0:
223,250,122341,1,0,0:0:0:0:
245,256,122475,1,0,0:0:0:0:
267,339,122608,1,0,0:0:0:0:
245,334,122741,1,0,0:0:0:0:
221,328,122875,2,0,L|149:313,1,70
119,325,123275,6,0,P|113:289|121:243,1,70
186,173,123675,1,0,0:0:0:0:
226,151,123808,1,0,0:0:0:0:
271,161,123941,1,0,0:0:0:0:
312,182,124075,1,0,0:0:0:0:
356,173,124208,1,0,0:0:0:0:
395,148,124341,1,0,0:0:0:0:
441,146,124475,2,0,L|454:256,1,105
471,280,124875,6,0,P|426:293|398:288,1,70
342,224,125275,1,0,0:0:0:0:
330,179,125408,1,0,0:0:0:0:
339,133,125541,1,0,0:0:0:0:
362,92,125675,2,0,P|372:58|364:8,1,70
236,76,126075,6,0,P|226:110|234:157,1,68.2499968757631
248,171,126475,6,0,P|195:182|156:173,1,70
79,144,126875,1,0,0:0:0:0:
63,187,127008,1,0,0:0:0:0:
73,232,127141,1,0,0:0:0:0:
76,278,127275,2,0,L|62:364,1,70
201,276,127675,2,0,L|215:190,1,70
313,108,128075,6,0,P|349:101|393:114,1,70
397,213,128475,5,0,0:0:0:0:
329,228,128608,1,0,0:0:0:0:
259,222,128741,1,0,0:0:0:0:
196,194,128875,2,0,P|150:188|96:195,1,70
23,285,129275,2,0,P|69:291|123:284,1,70
236,232,129675,6,0,L|226:134,1,70
302,74,130075,1,0,0:0:0:0:
346,62,130208,1,0,0:0:0:0:
388,79,130341,1,0,0:0:0:0:
412,118,130475,2,0,L|419:196,1,70
405,204,130875,2,0,L|398:254,1,41.9999987182618
329,314,131541,6,0,L|276:307,1,46.6666666666667
200,251,131875,1,0,0:0:0:0:
101,88,132075,5,0,0:0:0:0:
173,72,132208,1,0,0:0:0:0:
206,103,132341,5,0,0:0:0:0:
134,119,132474,1,0,0:0:0:0:
111,160,132608,5,0,0:0:0:0:
183,144,132741,1,0,0:0:0:0:
216,175,132874,5,0,0:0:0:0:
144,191,133007,1,0,0:0:0:0:
115,228,133141,5,0,0:0:0:0:
187,212,133274,1,0,0:0:0:0:
220,243,133407,5,0,0:0:0:0:
148,259,133540,1,0,0:0:0:0:
75,279,133675,1,0,0:0:0:0:
347,61,134475,6,0,L|355:139,1,70
227,204,134875,2,0,P|266:212|301:207,1,70
201,93,135275,2,0,P|162:85|127:90,1,70
61,157,135675,2,0,L|71:234,1,70
247,343,136075,6,0,P|211:348|177:342,1,70
241,243,136475,1,0,0:0:0:0:
284,227,136608,1,0,0:0:0:0:
330,233,136741,1,0,0:0:0:0:
368,260,136875,2,0,L|380:337,1,70
461,221,137275,1,0,0:0:0:0:
457,197,137408,1,0,0:0:0:0:
454,174,137541,1,0,0:0:0:0:
449,150,137675,6,0,L|439:77,1,70
341,32,138075,5,0,0:0:0:0:
295,21,138208,1,0,0:0:0:0:
248,27,138341,1,0,0:0:0:0:
210,55,138475,2,0,L|222:132,2,70
111,122,139475,6,0,L|105:169,6,35
182,213,140175,2,0,L|188:260,6,35
274,325,140875,6,0,P|312:333|365:321,1,70
415,265,141275,1,0,0:0:0:0:
419,218,141408,1,0,0:0:0:0:
423,172,141541,1,0,0:0:0:0:
430,125,141675,2,0,L|435:33,1,70
316,0,142075,2,0,L|311:92,1,70
236,144,142475,1,0,0:0:0:0:
112,81,142675,5,0,0:0:0:0:
102,114,142775,1,0,0:0:0:0:
98,148,142875,2,0,L|111:217,1,70
280,284,143275,2,0,L|211:297,1,70
245,170,143675,1,0,0:0:0:0:
275,152,143775,1,0,0:0:0:0:
309,150,143875,1,0,0:0:0:0:
406,223,144075,5,0,0:0:0:0:
98,104,146875,5,0,0:0:0:0:
98,104,146975,1,0,0:0:0:0:
98,104,147075,1,0,0:0:0:0:
217,191,147275,2,0,P|238:137|231:97,1,70
313,77,147675,1,0,0:0:0:0:
347,84,147775,1,0,0:0:0:0:
381,82,147875,1,0,0:0:0:0:
413,70,147975,1,0,0:0:0:0:
443,52,148075,6,0,L|463:139,1,70
340,217,148475,2,0,P|377:229|424:221,1,70
252,148,148875,2,0,L|235:52,1,70
146,21,149275,5,0,0:0:0:0:
52,194,149475,1,0,0:0:0:0:
181,4,149675,5,0,0:0:0:0:
216,271,149875,1,0,0:0:0:0:
301,1,150075,5,0,0:0:0:0:
236,305,150275,1,0,0:0:0:0:
366,189,150475,2,0,L|512:177,2,140
335,170,151475,1,0,0:0:0:0:
305,151,151675,2,0,P|239:141|212:266,1,210
232,333,152475,5,0,0:0:0:0:
278,338,152608,1,0,0:0:0:0:
324,342,152741,1,0,0:0:0:0:
370,346,152875,1,0,0:0:0:0:
416,350,153008,1,0,0:0:0:0:
462,352,153141,1,0,0:0:0:0:
508,356,153275,1,0,0:0:0:0:
503,321,153375,1,0,0:0:0:0:
499,286,153475,1,0,0:0:0:0:
385,138,153675,6,0,P|380:185|397:224,1,70
486,98,154075,2,0,P|491:50|474:12,1,70
363,19,154475,2,0,P|320:26|280:20,1,70
201,0,154875,2,0,P|166:-2|131:4,1,70
54,66,155275,6,0,L|65:146,1,70
163,141,155675,2,0,L|152:221,1,70
66,304,156075,2,0,P|99:317|163:310,1,70
240,277,156475,1,0,0:0:0:0:
240,277,156575,1,0,0:0:0:0:
240,277,156675,1,0,0:0:0:0:
315,183,156875,6,0,L|303:100,1,70
204,44,157275,1,0,0:0:0:0:
298,331,157475,1,0,0:0:0:0:
125,127,157675,5,0,0:0:0:0:
405,254,157875,1,0,0:0:0:0:
142,237,158075,6,0,L|61:255,1,70
208,144,158475,1,0,0:0:0:0:
298,113,158675,1,0,0:0:0:0:
395,91,158875,1,0,0:0:0:0:
313,32,159075,1,0,0:0:0:0:
223,63,159275,1,0,0:0:0:0:
126,85,159475,1,0,0:0:0:0:
39,112,159675,1,0,0:0:0:0:
39,112,159775,1,0,0:0:0:0:
39,112,159875,1,0,0:0:0:0:
130,197,160075,6,0,P|168:204|206:201,1,70
360,142,160475,2,0,P|322:149|284:146,1,70
178,84,160875,1,0,0:0:0:0:
321,14,161075,1,0,0:0:0:0:
256,276,161275,1,0,0:0:0:0:
422,213,161475,1,0,0:0:0:0:
147,50,161675,5,0,0:0:0:0:
231,312,161875,1,0,0:0:0:0:
362,0,162075,1,0,0:0:0:0:
446,262,162275,1,0,0:0:0:0:
147,50,162475,5,0,0:0:0:0:
231,312,162675,1,0,0:0:0:0:
362,0,162875,1,0,0:0:0:0:
446,262,163075,1,0,0:0:0:0:
149,153,163275,6,0,L|52:145,1,70
159,239,163675,1,0,0:0:0:0:
240,252,163875,1,0,0:0:0:0:
323,262,164075,2,0,L|403:270,1,70
426,260,164475,2,0,P|436:223|431:168,1,70
344,131,164875,5,0,0:0:0:0:
512,95,165075,1,0,0:0:0:0:
215,69,165275,5,0,0:0:0:0:
383,105,165475,1,0,0:0:0:0:
164,162,165675,2,0,L|72:175,1,70
244,251,166075,1,0,0:0:0:0:
244,251,166175,1,0,0:0:0:0:
244,251,166275,1,0,0:0:0:0:
354,160,166475,6,0,P|370:105|366:68,1,70
311,13,166875,2,0,L|226:2,1,70
156,44,167275,2,0,L|69:39,1,70
228,114,167675,2,0,L|315:109,1,70
391,166,168075,5,0,0:0:0:0:
90,231,168275,1,0,0:0:0:0:
454,270,168475,5,0,0:0:0:0:
52,142,168675,1,0,0:0:0:0:
240,78,168875,2,0,L|314:67,1,70
185,180,169275,1,0,0:0:0:0:
185,180,169375,1,0,0:0:0:0:
185,180,169475,1,0,0:0:0:0:
257,259,169675,6,0,L|270:342,1,70
329,191,170075,2,0,L|316:108,1,70
408,250,170475,5,0,0:0:0:0:
84,175,170875,5,0,0:0:0:0:
219,48,171275,5,0,0:0:0:0:
258,264,171475,1,0,0:0:0:0:
217,137,171675,5,0,0:0:0:0:
178,353,171875,1,0,0:0:0:0:
286,237,172075,2,0,L|370:224,1,70
426,155,172475,1,0,0:0:0:0:
426,155,172575,1,0,0:0:0:0:
426,155,172675,1,0,0:0:0:0:
252,46,172875,6,0,L|335:52,1,70
171,117,173275,2,0,L|88:123,1,70
354,190,173675,5,0,0:0:0:0:
49,305,174075,5,0,0:0:0:0:
224,304,174475,5,0,0:0:0:0:
368,113,174675,1,0,0:0:0:0:
397,357,174875,5,0,0:0:0:0:
176,139,175075,1,0,0:0:0:0:
463,194,175275,5,0,0:0:0:0:
121,248,175475,1,0,0:0:0:0:
281,44,175675,5,0,0:0:0:0:
347,357,175875,1,0,0:0:0:0:
164,122,176075,2,0,L|74:103,1,70
239,202,176475,2,0,L|329:183,1,70
394,117,176875,5,0,0:0:0:0:
39,41,177275,5,0,0:0:0:0:
384,163,177675,5,0,0:0:0:0:
90,237,177875,1,0,0:0:0:0:
444,258,178075,5,0,0:0:0:0:
57,154,178275,1,0,0:0:0:0:
445,142,178475,5,0,0:0:0:0:
33,289,178675,1,0,0:0:0:0:
444,258,178875,5,0,0:0:0:0:
57,154,179075,1,0,0:0:0:0:
251,69,179275,2,0,L|260:155,1,70
348,277,179675,2,0,L|339:191,1,70
392,114,180075,5,0,0:0:0:0:
53,240,180475,5,0,0:0:0:0:
198,70,180875,5,0,0:0:0:0:
236,237,181075,1,0,0:0:0:0:
314,131,181275,1,0,0:0:0:0:
117,117,181475,1,0,0:0:0:0:
321,207,181675,1,0,0:0:0:0:
199,29,181875,1,0,0:0:0:0:
369,0,182075,1,0,0:0:0:0:
375,34,182175,1,0,0:0:0:0:
381,68,182275,1,0,0:0:0:0:
