osu file format v14

[General]
AudioFilename: audio.mp3
AudioLeadIn: 0
PreviewTime: 18251
Countdown: 1
SampleSet: Normal
StackLeniency: 0.7
Mode: 1
LetterboxInBreaks: 0
WidescreenStoryboard: 0

[Editor]
Bookmarks: 15031,25698,39030,49697,71030,81697,92696,104696,114029,124696,129029,135363,145862,161696,193862,204529,215028,220361,252361,257693,262697,279027,295027,300360,305696,323695,331029
DistanceSpacing: 5.6
BeatDivisor: 4
GridSize: 4
TimelineZoom: 3.199998

[Metadata]
Title::::_!_:::
TitleUnicode::::_!_:::
Artist:Sincroide
ArtistUnicode:Sincroide
Creator:vrnl
Version:Endgame
Source:
Tags:breakcore electronic instrumental
BeatmapID:1631380
BeatmapSetID:776437

[Difficulty]
HPDrainRate:4
CircleSize:5
OverallDifficulty:8
ApproachRate:5
SliderMultiplier:1.6
SliderTickRate:1

[Events]
//Background and Video events
0,0,"Haunted-woods-taken-at-Hoar-Cross-National-Forest-Leicestershire.jpg",0,0
//Break Periods
//Storyboard Layer 0 (Background)
//Storyboard Layer 1 (Fail)
//Storyboard Layer 2 (Pass)
//Storyboard Layer 3 (Foreground)
//Storyboard Layer 4 (Overlay)
//Storyboard Sound Samples

[TimingPoints]
3090,333.333333333333,4,1,0,30,1,0
3090,-133.333333333333,4,1,0,30,0,0
15084,333.333333333333,4,1,0,35,1,0
15084,-117.647058823529,4,1,0,35,0,0
25750,-105.263157894737,4,1,0,35,0,0
28417,-100,4,1,0,65,0,0
107834,-100,4,1,0,35,0,0
108334,-100,4,1,0,65,0,0
113168,-100,4,1,0,35,0,0
113668,-100,4,1,0,65,0,0
156376,-100,4,1,0,50,0,0
157376,-100,4,1,0,20,0,0
157709,-100,4,1,0,50,0,0
161376,-100,4,1,0,20,0,0
161750,-100,4,1,0,50,0,1
197417,-100,4,1,0,50,0,0
199083,-100,4,1,0,50,0,1
220417,-100,4,1,0,50,0,0
252418,-100,4,1,0,30,0,0
257751,-100,4,1,0,50,0,0
262751,-100,4,1,0,30,0,0
264418,-100,4,1,0,50,0,0
278751,-99.009900990099,4,1,0,50,0,0
278807,-98.0392156862745,4,1,0,50,0,0
278862,-97.0873786407767,4,1,0,30,0,0
278918,-96.1538461538461,4,1,0,60,0,0
278973,-95.2380952380952,4,1,0,60,0,0
279029,-94.3396226415094,4,1,0,60,0,0
279084,-93.4579439252336,4,1,0,60,0,0
294584,-92.5925925925926,4,1,0,60,0,0
294668,-91.743119266055,4,1,0,60,0,0
294751,-90.9090909090909,4,1,0,60,0,0
294834,-90.0900900900901,4,1,0,60,0,0
294918,-89.2857142857143,4,1,0,60,0,0
295083,-87.719298245614,4,1,0,60,0,1
305750,-86.9565217391304,4,1,0,5,0,0
307084,-90.9090909090909,4,1,0,5,0,0
308418,-100,4,1,0,5,0,0
309751,-111.111111111111,4,1,0,5,0,0
311084,-133.333333333333,4,1,0,5,0,0
323751,-133.333333333333,4,1,0,5,0,0

[HitObjects]
140,196,3090,5,0,0:0:0:0:
140,208,3256,1,0,0:0:0:0:
184,192,3423,1,2,0:0:0:0:
140,208,3589,1,2,0:0:0:0:
184,192,3756,1,0,0:0:0:0:
184,192,3923,1,2,0:0:0:0:
184,192,4089,1,2,0:0:0:0:
184,192,4256,1,2,0:0:0:0:
184,192,4423,1,0,0:0:0:0:
140,208,4589,1,2,0:0:0:0:
184,192,4756,1,2,0:0:0:0:
140,208,4923,1,2,0:0:0:0:
184,192,5089,1,0,0:0:0:0:
184,192,5256,1,2,0:0:0:0:
184,192,5423,1,2,0:0:0:0:
184,192,5589,1,2,0:0:0:0:
184,192,5756,1,0,0:0:0:0:
184,216,5923,1,0,0:0:0:0:
184,192,6089,1,2,0:0:0:0:
60,152,6256,1,0,0:0:0:0:
184,192,6589,1,0,0:0:0:0:
184,192,6756,1,2,0:0:0:0:
184,192,6839,1,2,0:0:0:0:
112,112,7006,1,2,0:0:0:0:
184,192,7089,1,0,0:0:0:0:
140,104,7256,1,0,0:0:0:0:
140,104,7423,1,2,0:0:0:0:
40,112,7589,1,0,0:0:0:0:
108,116,7923,1,0,0:0:0:0:
108,116,8089,1,2,0:0:0:0:
108,116,8256,1,2,0:0:0:0:
120,104,8423,1,0,0:0:0:0:
108,116,8589,1,0,0:0:0:0:
108,116,8756,1,2,0:0:0:0:
108,116,8923,1,0,0:0:0:0:
108,116,9256,1,0,0:0:0:0:
176,100,9423,1,2,0:0:0:0:
176,100,9589,1,2,0:0:0:0:
176,100,9756,1,0,0:0:0:0:
176,100,9839,1,2,0:0:0:0:
176,100,9923,1,0,0:0:0:0:
176,100,10089,1,0,0:0:0:0:
176,100,10173,1,2,0:0:0:0:
176,100,10256,1,2,0:0:0:0:
176,100,10423,1,2,0:0:0:0:
176,100,10589,1,0,0:0:0:0:
128,136,11089,1,0,0:0:0:0:
128,136,11173,1,0,0:0:0:0:
128,136,11256,1,2,0:0:0:0:
128,136,11673,1,2,0:0:0:0:
128,136,11756,1,0,0:0:0:0:
128,136,11923,1,2,0:0:0:0:
152,136,12089,1,0,0:0:0:0:
152,136,12173,1,2,0:0:0:0:
152,136,12256,1,0,0:0:0:0:
148,132,12423,1,0,0:0:0:0:
148,132,12506,1,0,0:0:0:0:
148,132,12589,1,2,0:0:0:0:
152,152,13006,1,2,0:0:0:0:
152,152,13089,1,0,0:0:0:0:
152,152,13256,1,2,0:0:0:0:
116,144,13423,1,0,0:0:0:0:
116,144,13506,1,2,0:0:0:0:
116,144,13589,1,0,0:0:0:0:
116,144,13756,1,0,0:0:0:0:
116,144,13839,1,0,0:0:0:0:
116,144,13923,1,2,0:0:0:0:
116,144,14339,1,2,0:0:0:0:
116,144,14423,1,0,0:0:0:0:
116,144,14589,1,2,0:0:0:0:
116,144,14756,1,0,0:0:0:0:
116,144,14839,1,2,0:0:0:0:
116,144,14923,1,0,0:0:0:0:
116,144,15084,1,0,0:0:0:0:
60,116,15168,1,0,0:0:0:0:
116,144,15251,1,0,0:0:0:0:
116,144,15418,1,0,0:0:0:0:
116,144,15584,1,0,0:0:0:0:
48,148,15668,1,2,0:0:0:0:
116,144,15751,1,0,0:0:0:0:
116,144,15918,1,0,0:0:0:0:
116,144,16084,1,2,0:0:0:0:
116,132,16168,1,2,0:0:0:0:
116,144,16251,1,0,0:0:0:0:
116,144,16418,1,0,0:0:0:0:
116,144,16584,1,0,0:0:0:0:
116,144,16751,1,0,0:0:0:0:
116,144,16918,1,0,0:0:0:0:
116,144,17084,1,0,0:0:0:0:
116,144,17251,1,0,0:0:0:0:
116,144,17418,1,0,0:0:0:0:
116,144,17584,1,0,0:0:0:0:
116,144,17751,1,0,0:0:0:0:
116,144,17918,1,0,0:0:0:0:
116,144,18084,1,0,0:0:0:0:
116,144,18251,1,0,0:0:0:0:
116,144,18584,1,0,0:0:0:0:
116,144,18751,1,0,0:0:0:0:
116,144,18918,1,0,0:0:0:0:
116,144,19084,1,0,0:0:0:0:
116,144,19251,1,0,0:0:0:0:
116,144,19418,1,0,0:0:0:0:
116,144,19584,1,0,0:0:0:0:
116,144,19918,1,0,0:0:0:0:
116,144,20084,1,0,0:0:0:0:
116,144,20251,1,0,0:0:0:0:
116,144,20418,1,2,0:0:0:0:
116,144,20584,1,0,0:0:0:0:
116,144,20751,1,0,0:0:0:0:
116,144,20918,1,0,0:0:0:0:
116,144,21251,1,0,0:0:0:0:
116,144,21418,1,0,0:0:0:0:
116,144,21584,1,0,0:0:0:0:
116,144,21751,1,0,0:0:0:0:
116,144,21918,1,0,0:0:0:0:
116,144,22084,1,0,0:0:0:0:
116,144,22251,1,0,0:0:0:0:
116,144,22584,1,0,0:0:0:0:
116,144,22751,1,0,0:0:0:0:
116,144,22918,1,0,0:0:0:0:
116,144,23084,1,0,0:0:0:0:
116,144,23251,1,0,0:0:0:0:
116,144,23418,1,0,0:0:0:0:
116,144,23584,1,0,0:0:0:0:
116,144,23918,1,0,0:0:0:0:
116,144,24084,1,0,0:0:0:0:
116,144,24251,1,0,0:0:0:0:
116,144,24418,1,0,0:0:0:0:
116,144,24584,1,0,0:0:0:0:
116,144,24751,1,0,0:0:0:0:
116,144,24918,1,0,0:0:0:0:
116,144,25251,1,0,0:0:0:0:
116,144,25418,1,0,0:0:0:0:
116,144,25584,1,0,0:0:0:0:
116,144,25750,1,2,0:0:0:0:
112,128,25918,1,0,0:0:0:0:
112,128,26084,1,2,0:0:0:0:
112,128,26251,1,0,0:0:0:0:
112,128,26418,1,0,0:0:0:0:
112,128,26584,1,2,0:0:0:0:
112,128,26751,1,0,0:0:0:0:
120,128,27084,1,0,0:0:0:0:
120,128,27251,1,2,0:0:0:0:
120,128,27418,1,0,0:0:0:0:
120,128,27584,1,0,0:0:0:0:
120,128,27751,1,2,0:0:0:0:
120,128,28084,1,0,0:0:0:0:
144,132,28418,1,0,0:0:0:0:
144,132,28501,1,0,0:0:0:0:
144,132,28584,1,2,0:0:0:0:
144,132,28668,1,0,0:0:0:0:
160,104,28751,1,2,0:0:0:0:
168,60,28918,1,0,0:0:0:0:
168,60,29001,1,0,0:0:0:0:
168,60,29084,1,2,0:0:0:0:
168,60,29168,1,0,0:0:0:0:
168,60,29251,1,2,0:0:0:0:
168,60,29418,1,2,0:0:0:0:
160,64,29584,1,2,0:0:0:0:
160,64,29668,1,0,0:0:0:0:
160,64,29751,1,2,0:0:0:0:
160,64,29834,1,0,0:0:0:0:
160,64,29918,1,0,0:0:0:0:
248,164,30084,1,2,0:0:0:0:
248,164,30167,1,0,0:0:0:0:
248,164,30251,1,2,0:0:0:0:
248,164,30334,1,0,0:0:0:0:
248,164,30417,1,0,0:0:0:0:
248,164,30584,1,2,0:0:0:0:
248,164,30667,1,0,0:0:0:0:
248,164,30751,1,2,0:0:0:0:
248,164,30834,1,0,0:0:0:0:
248,164,30917,1,0,0:0:0:0:
248,164,31084,1,2,0:0:0:0:
248,164,31167,1,2,0:0:0:0:
248,164,31251,1,2,0:0:0:0:
168,48,31417,1,2,0:0:0:0:
168,48,31584,1,2,0:0:0:0:
168,48,31667,1,0,0:0:0:0:
168,48,31751,1,0,0:0:0:0:
68,128,31917,1,0,0:0:0:0:
104,124,32084,1,2,0:0:0:0:
104,124,32167,1,2,0:0:0:0:
104,124,32251,1,2,0:0:0:0:
104,124,32334,1,0,0:0:0:0:
104,124,32417,1,0,0:0:0:0:
104,124,32501,1,2,0:0:0:0:
104,124,32584,1,0,0:0:0:0:
104,124,32751,1,2,0:0:0:0:
112,112,32917,1,2,0:0:0:0:
112,112,33001,1,2,0:0:0:0:
112,108,33251,1,2,0:0:0:0:
112,108,33334,1,0,0:0:0:0:
112,108,33417,1,2,0:0:0:0:
112,108,33501,1,2,0:0:0:0:
112,108,33584,1,0,0:0:0:0:
112,108,33751,1,0,0:0:0:0:
112,112,33834,1,0,0:0:0:0:
104,108,33917,1,2,0:0:0:0:
104,108,34084,1,2,0:0:0:0:
104,108,34167,1,0,0:0:0:0:
104,108,34251,1,0,0:0:0:0:
104,108,34417,1,2,0:0:0:0:
184,104,34501,1,0,0:0:0:0:
184,104,34584,1,2,0:0:0:0:
184,104,34667,1,0,0:0:0:0:
184,104,34751,1,2,0:0:0:0:
184,104,34917,1,2,0:0:0:0:
184,104,35001,1,0,0:0:0:0:
184,104,35084,1,2,0:0:0:0:
184,104,35167,1,0,0:0:0:0:
184,104,35251,1,0,0:0:0:0:
88,156,35417,1,0,0:0:0:0:
120,152,35584,1,2,0:0:0:0:
120,152,35667,1,0,0:0:0:0:
120,152,35917,1,0,0:0:0:0:
120,152,36084,1,2,0:0:0:0:
120,152,36167,1,0,0:0:0:0:
120,152,36251,1,2,0:0:0:0:
120,152,36334,1,0,0:0:0:0:
116,160,36417,1,2,0:0:0:0:
116,160,36501,1,0,0:0:0:0:
116,160,36584,1,2,0:0:0:0:
116,160,36667,1,0,0:0:0:0:
306,170,36751,1,0,0:0:0:0:
116,160,36917,1,2,0:0:0:0:
116,160,37001,1,0,0:0:0:0:
116,160,37084,1,2,0:0:0:0:
116,160,37167,1,0,0:0:0:0:
116,160,37251,1,0,0:0:0:0:
116,160,37417,1,2,0:0:0:0:
116,160,37501,1,0,0:0:0:0:
116,160,37584,1,2,0:0:0:0:
116,160,37667,1,0,0:0:0:0:
116,160,37751,1,0,0:0:0:0:
116,160,37917,1,2,0:0:0:0:
116,160,38001,1,0,0:0:0:0:
116,160,38084,1,2,0:0:0:0:
116,160,38167,1,0,0:0:0:0:
116,160,38251,1,2,0:0:0:0:
116,160,38584,1,2,0:0:0:0:
116,160,38667,1,0,0:0:0:0:
116,160,38751,1,2,0:0:0:0:
136,120,38834,1,0,0:0:0:0:
88,148,38917,1,0,0:0:0:0:
88,148,38973,1,0,0:0:0:0:
88,148,39029,1,0,0:0:0:0:
180,108,39084,1,0,0:0:0:0:
88,148,39167,1,2,0:0:0:0:
180,108,39251,1,2,0:0:0:0:
180,108,39334,1,0,0:0:0:0:
180,108,39417,1,2,0:0:0:0:
168,104,39584,1,0,0:0:0:0:
168,104,39667,1,0,0:0:0:0:
168,104,39751,1,2,0:0:0:0:
168,104,39806,1,0,0:0:0:0:
168,104,39862,1,0,0:0:0:0:
168,104,39917,1,2,0:0:0:0:
212,84,40084,1,2,0:0:0:0:
356,108,40167,1,0,0:0:0:0:
356,108,40251,1,0,0:0:0:0:
356,108,40306,1,2,0:0:0:0:
156,96,40362,1,0,0:0:0:0:
156,96,40417,1,2,0:0:0:0:
156,96,40473,1,0,0:0:0:0:
100,108,40529,1,0,0:0:0:0:
156,96,40584,1,0,0:0:0:0:
108,104,40751,1,2,0:0:0:0:
128,128,40917,1,2,0:0:0:0:
128,128,41001,1,0,0:0:0:0:
128,128,41084,1,2,0:0:0:0:
128,128,41140,1,2,0:0:0:0:
128,128,41195,1,2,0:0:0:0:
128,128,41251,1,2,0:0:0:0:
248,124,41417,1,2,0:0:0:0:
248,124,41501,1,0,0:0:0:0:
248,124,41584,1,0,0:0:0:0:
248,124,41667,1,0,0:0:0:0:
248,124,41751,1,2,0:0:0:0:
184,88,41834,1,0,0:0:0:0:
184,88,41917,1,2,0:0:0:0:
184,88,42001,1,0,0:0:0:0:
184,88,42084,1,0,0:0:0:0:
184,92,42251,1,2,0:0:0:0:
184,92,42334,1,0,0:0:0:0:
184,92,42417,1,2,0:0:0:0:
184,92,42501,1,0,0:0:0:0:
184,92,42584,1,0,0:0:0:0:
184,92,42751,1,2,0:0:0:0:
184,92,42834,1,0,0:0:0:0:
184,92,42917,1,2,0:0:0:0:
184,92,43001,1,0,0:0:0:0:
184,92,43084,1,0,0:0:0:0:
184,92,43167,1,2,0:0:0:0:
184,92,43251,1,2,0:0:0:0:
184,92,43334,1,2,0:0:0:0:
184,92,43417,1,2,0:0:0:0:
184,92,43584,1,2,0:0:0:0:
184,92,43667,1,0,0:0:0:0:
184,92,43917,1,0,0:0:0:0:
184,92,44001,1,0,0:0:0:0:
184,92,44084,1,2,0:0:0:0:
184,92,44167,1,2,0:0:0:0:
116,132,44251,1,0,0:0:0:0:
116,132,44306,1,0,0:0:0:0:
116,132,44362,1,0,0:0:0:0:
116,132,44417,1,0,0:0:0:0:
164,136,44584,1,2,0:0:0:0:
164,136,44667,1,0,0:0:0:0:
164,136,44751,1,2,0:0:0:0:
164,136,44834,1,2,0:0:0:0:
164,136,44917,1,0,0:0:0:0:
180,112,45251,1,2,0:0:0:0:
180,112,45334,1,0,0:0:0:0:
216,112,45417,1,2,0:0:0:0:
216,112,45473,1,2,0:0:0:0:
216,112,45529,1,2,0:0:0:0:
216,112,45584,1,0,0:0:0:0:
216,36,45640,1,0,0:0:0:0:
117,236,45695,1,0,0:0:0:0:
392,72,45751,1,0,0:0:0:0:
208,48,45917,1,0,0:0:0:0:
208,48,46001,1,0,0:0:0:0:
208,48,46084,1,0,0:0:0:0:
208,48,46167,1,0,0:0:0:0:
208,48,46251,1,2,0:0:0:0:
152,120,46584,1,0,0:0:0:0:
152,120,46667,1,0,0:0:0:0:
152,120,46751,1,2,0:0:0:0:
152,120,46834,1,0,0:0:0:0:
300,160,46917,1,0,0:0:0:0:
300,160,46973,1,2,0:0:0:0:
300,160,47029,1,0,0:0:0:0:
300,160,47084,1,2,0:0:0:0:
248,124,47167,1,0,0:0:0:0:
248,124,47251,1,2,0:0:0:0:
68,112,47417,1,2,0:0:0:0:
144,112,47584,1,0,0:0:0:0:
144,112,47667,1,0,0:0:0:0:
144,112,47917,1,2,0:0:0:0:
144,112,48084,1,0,0:0:0:0:
144,112,48167,1,2,0:0:0:0:
264,88,48251,1,0,0:0:0:0:
264,88,48334,1,0,0:0:0:0:
264,88,48417,1,0,0:0:0:0:
208,184,48584,1,2,0:0:0:0:
208,184,48667,1,0,0:0:0:0:
208,184,48751,1,2,0:0:0:0:
208,184,48834,1,0,0:0:0:0:
208,184,48917,1,2,0:0:0:0:
212,188,49251,1,2,0:0:0:0:
212,188,49334,1,0,0:0:0:0:
212,188,49417,1,2,0:0:0:0:
212,188,49501,1,2,0:0:0:0:
356,180,49584,1,0,0:0:0:0:
356,180,49640,1,0,0:0:0:0:
356,180,49695,1,0,0:0:0:0:
116,160,49751,1,0,0:0:0:0:
356,180,49834,1,2,0:0:0:0:
116,160,49917,1,0,0:0:0:0:
116,160,50084,1,2,0:0:0:0:
108,112,50251,1,2,0:0:0:0:
108,112,50334,1,2,0:0:0:0:
172,56,50584,1,0,0:0:0:0:
172,56,50751,1,2,0:0:0:0:
172,56,50834,1,0,0:0:0:0:
172,56,50917,1,0,0:0:0:0:
172,56,51001,1,2,0:0:0:0:
172,56,51084,1,2,0:0:0:0:
172,56,51167,1,0,0:0:0:0:
172,56,51251,1,2,0:0:0:0:
172,56,51417,1,2,0:0:0:0:
172,56,51584,1,0,0:0:0:0:
172,56,51667,1,2,0:0:0:0:
172,56,51917,1,2,0:0:0:0:
172,56,52084,1,2,0:0:0:0:
172,56,52167,1,0,0:0:0:0:
172,56,52251,1,2,0:0:0:0:
300,120,52306,1,0,0:0:0:0:
300,120,52362,1,0,0:0:0:0:
300,120,52417,1,2,0:0:0:0:
300,120,52501,1,0,0:0:0:0:
300,120,52584,1,2,0:0:0:0:
300,120,52667,1,0,0:0:0:0:
300,120,52751,1,2,0:0:0:0:
300,120,52834,1,0,0:0:0:0:
300,120,52917,1,0,0:0:0:0:
300,120,53251,1,2,0:0:0:0:
116,124,53417,1,0,0:0:0:0:
116,124,53501,1,2,0:0:0:0:
116,124,53584,1,2,0:0:0:0:
116,124,53667,1,2,0:0:0:0:
116,124,53751,1,0,0:0:0:0:
116,124,53834,1,2,0:0:0:0:
116,124,53917,1,0,0:0:0:0:
116,124,54084,1,2,0:0:0:0:
116,124,54251,1,2,0:0:0:0:
116,124,54334,1,2,0:0:0:0:
116,124,54584,1,0,0:0:0:0:
116,124,54751,1,2,0:0:0:0:
116,124,54834,1,0,0:0:0:0:
116,124,54917,1,0,0:0:0:0:
116,124,55001,1,2,0:0:0:0:
116,124,55084,1,2,0:0:0:0:
116,124,55167,1,0,0:0:0:0:
116,124,55251,1,2,0:0:0:0:
128,112,55417,1,2,0:0:0:0:
128,112,55584,1,2,0:0:0:0:
128,112,55667,1,0,0:0:0:0:
200,96,55917,1,0,0:0:0:0:
200,96,56084,1,2,0:0:0:0:
200,96,56167,1,0,0:0:0:0:
136,164,56251,1,2,0:0:0:0:
136,164,56306,1,2,0:0:0:0:
136,164,56362,1,2,0:0:0:0:
136,164,56417,1,2,0:0:0:0:
276,112,56501,1,2,0:0:0:0:
276,112,56584,1,2,0:0:0:0:
276,112,56751,1,2,0:0:0:0:
276,112,56834,1,0,0:0:0:0:
276,112,56917,1,2,0:0:0:0:
276,112,57001,1,0,0:0:0:0:
276,112,57251,1,0,0:0:0:0:
276,112,57417,1,2,0:0:0:0:
276,112,57501,1,2,0:0:0:0:
276,112,57584,1,2,0:0:0:0:
276,112,57640,1,0,0:0:0:0:
276,112,57695,1,0,0:0:0:0:
68,124,57751,1,0,0:0:0:0:
264,92,57834,1,2,0:0:0:0:
264,88,57917,1,0,0:0:0:0:
56,128,58084,1,2,0:0:0:0:
80,128,58251,1,2,0:0:0:0:
80,128,58334,1,2,0:0:0:0:
124,116,58584,1,2,0:0:0:0:
124,116,58751,1,2,0:0:0:0:
264,120,58834,1,2,0:0:0:0:
264,120,58918,1,0,0:0:0:0:
264,120,59001,1,0,0:0:0:0:
264,120,59084,1,2,0:0:0:0:
256,112,59251,1,0,0:0:0:0:
132,104,59417,1,2,0:0:0:0:
132,104,59501,1,0,0:0:0:0:
132,104,59584,1,2,0:0:0:0:
132,104,59667,1,0,0:0:0:0:
76,200,59751,1,0,0:0:0:0:
132,104,59917,1,2,0:0:0:0:
132,104,60084,1,2,0:0:0:0:
192,132,60167,1,2,0:0:0:0:
192,132,60251,1,2,0:0:0:0:
184,128,60306,1,2,0:0:0:0:
184,128,60362,1,2,0:0:0:0:
184,128,60417,1,0,0:0:0:0:
96,116,60501,1,2,0:0:0:0:
92,100,60584,1,0,0:0:0:0:
92,100,60640,1,0,0:0:0:0:
92,100,60695,1,0,0:0:0:0:
92,100,60751,1,2,0:0:0:0:
92,100,60917,1,2,0:0:0:0:
92,100,61001,1,0,0:0:0:0:
116,112,61251,1,2,0:0:0:0:
140,112,61417,1,2,0:0:0:0:
140,112,61501,1,2,0:0:0:0:
144,108,61667,1,2,0:0:0:0:
144,108,61751,1,0,0:0:0:0:
128,112,61834,1,2,0:0:0:0:
128,112,61917,1,0,0:0:0:0:
104,116,61973,1,0,0:0:0:0:
156,221,62029,1,0,0:0:0:0:
128,112,62084,1,2,0:0:0:0:
120,112,62167,1,0,0:0:0:0:
120,112,62251,1,2,0:0:0:0:
120,112,62334,1,0,0:0:0:0:
152,64,62584,1,0,0:0:0:0:
152,64,62667,1,2,0:0:0:0:
152,64,62751,1,0,0:0:0:0:
288,116,62834,1,0,0:0:0:0:
288,116,62917,1,0,0:0:0:0:
339,221,63001,1,0,0:0:0:0:
260,120,63084,1,2,0:0:0:0:
84,120,63167,1,0,0:0:0:0:
84,120,63251,1,2,0:0:0:0:
84,120,63306,1,0,0:0:0:0:
160,80,63362,1,0,0:0:0:0:
84,120,63417,1,2,0:0:0:0:
84,120,63501,1,2,0:0:0:0:
84,120,63584,1,0,0:0:0:0:
84,120,63667,1,0,0:0:0:0:
124,112,63917,1,2,0:0:0:0:
124,112,64001,1,0,0:0:0:0:
124,112,64084,1,0,0:0:0:0:
124,112,64167,1,2,0:0:0:0:
124,112,64251,1,2,0:0:0:0:
124,112,64334,1,2,0:0:0:0:
124,112,64501,1,2,0:0:0:0:
280,120,64584,1,0,0:0:0:0:
280,120,64640,1,0,0:0:0:0:
280,120,64695,1,0,0:0:0:0:
280,120,64751,1,2,0:0:0:0:
280,120,64917,1,2,0:0:0:0:
280,120,65001,1,2,0:0:0:0:
100,120,65251,1,2,0:0:0:0:
100,120,65334,1,0,0:0:0:0:
100,120,65417,1,0,0:0:0:0:
100,120,65501,1,2,0:0:0:0:
100,120,65584,1,0,0:0:0:0:
100,120,65751,1,2,0:0:0:0:
100,120,65834,1,0,0:0:0:0:
232,104,65917,1,0,0:0:0:0:
232,104,65973,1,2,0:0:0:0:
232,104,66029,1,2,0:0:0:0:
232,104,66084,1,2,0:0:0:0:
248,112,66251,1,2,0:0:0:0:
248,112,66334,1,0,0:0:0:0:
218,261,66584,1,0,0:0:0:0:
218,261,66668,1,0,0:0:0:0:
268,120,66751,1,2,0:0:0:0:
268,120,66834,1,0,0:0:0:0:
268,120,66917,1,2,0:0:0:0:
268,120,67001,1,0,0:0:0:0:
268,120,67084,1,2,0:0:0:0:
268,120,67167,1,2,0:0:0:0:
296,112,67251,1,2,0:0:0:0:
296,112,67306,1,2,0:0:0:0:
296,112,67362,1,2,0:0:0:0:
296,112,67417,1,0,0:0:0:0:
296,112,67584,1,2,0:0:0:0:
296,112,67667,1,0,0:0:0:0:
296,112,67751,1,2,0:0:0:0:
296,112,67834,1,0,0:0:0:0:
296,112,67917,1,0,0:0:0:0:
76,148,68001,1,0,0:0:0:0:
108,152,68084,1,2,0:0:0:0:
304,108,68167,1,0,0:0:0:0:
304,108,68251,1,2,0:0:0:0:
304,108,68417,1,0,0:0:0:0:
304,108,68501,1,0,0:0:0:0:
324,76,68584,1,2,0:0:0:0:
324,76,68640,1,0,0:0:0:0:
324,76,68695,1,0,0:0:0:0:
324,76,68751,1,2,0:0:0:0:
140,152,68917,1,2,0:0:0:0:
140,152,69001,1,0,0:0:0:0:
144,148,69084,1,2,0:0:0:0:
144,148,69167,1,2,0:0:0:0:
144,148,69251,1,2,0:0:0:0:
88,120,69417,1,0,0:0:0:0:
140,128,69501,1,0,0:0:0:0:
140,128,69584,1,2,0:0:0:0:
140,128,69667,1,0,0:0:0:0:
140,128,69751,1,2,0:0:0:0:
140,128,69834,1,0,0:0:0:0:
140,128,69917,1,0,0:0:0:0:
132,132,70084,1,0,0:0:0:0:
132,132,70140,1,0,0:0:0:0:
132,132,70195,1,0,0:0:0:0:
132,132,70251,1,2,0:0:0:0:
132,132,70306,1,2,0:0:0:0:
132,132,70362,1,2,0:0:0:0:
132,132,70417,1,2,0:0:0:0:
208,132,70501,1,0,0:0:0:0:
208,132,70584,1,2,0:0:0:0:
112,124,70751,1,0,0:0:0:0:
208,64,70917,1,2,0:0:0:0:
208,64,71001,1,0,0:0:0:0:
208,64,71084,1,0,0:0:0:0:
193,194,71140,1,0,0:0:0:0:
324,84,71196,1,2,0:0:0:0:
324,84,71251,1,2,0:0:0:0:
252,104,71334,1,0,0:0:0:0:
252,104,71417,1,2,0:0:0:0:
252,104,71584,1,0,0:0:0:0:
252,104,71667,1,0,0:0:0:0:
352,124,71751,1,2,0:0:0:0:
352,124,71806,1,2,0:0:0:0:
352,124,71862,1,2,0:0:0:0:
352,124,71917,1,2,0:0:0:0:
364,124,72001,1,0,0:0:0:0:
192,64,72084,1,2,0:0:0:0:
192,64,72167,1,0,0:0:0:0:
276,120,72251,1,0,0:0:0:0:
276,120,72306,1,2,0:0:0:0:
276,120,72362,1,0,0:0:0:0:
276,120,72417,1,2,0:0:0:0:
276,120,72473,1,0,0:0:0:0:
276,120,72529,1,0,0:0:0:0:
276,120,72584,1,0,0:0:0:0:
264,120,72751,1,0,0:0:0:0:
264,120,72917,1,2,0:0:0:0:
264,120,73001,1,0,0:0:0:0:
264,120,73084,1,2,0:0:0:0:
264,120,73140,1,2,0:0:0:0:
264,120,73195,1,2,0:0:0:0:
264,120,73251,1,2,0:0:0:0:
144,108,73417,1,2,0:0:0:0:
144,108,73501,1,0,0:0:0:0:
144,108,73584,1,2,0:0:0:0:
144,108,73667,1,0,0:0:0:0:
144,108,73751,1,2,0:0:0:0:
144,108,73834,1,2,0:0:0:0:
144,108,73917,1,2,0:0:0:0:
144,108,74001,1,2,0:0:0:0:
136,108,74084,1,0,0:0:0:0:
136,108,74251,1,2,0:0:0:0:
136,108,74334,1,0,0:0:0:0:
268,128,74417,1,0,0:0:0:0:
268,128,74473,1,0,0:0:0:0:
268,128,74529,1,0,0:0:0:0:
268,128,74584,1,2,0:0:0:0:
336,104,74667,1,2,0:0:0:0:
336,104,74751,1,2,0:0:0:0:
336,104,74917,1,0,0:0:0:0:
336,104,75001,1,0,0:0:0:0:
336,104,75084,1,0,0:0:0:0:
144,104,75167,1,2,0:0:0:0:
208,48,75251,1,0,0:0:0:0:
208,48,75334,1,0,0:0:0:0:
208,48,75417,1,2,0:0:0:0:
204,56,75584,1,2,0:0:0:0:
204,56,75667,1,0,0:0:0:0:
316,96,75751,1,2,0:0:0:0:
316,96,75806,1,2,0:0:0:0:
316,96,75862,1,2,0:0:0:0:
316,96,75917,1,2,0:0:0:0:
404,104,76001,1,0,0:0:0:0:
356,128,76084,1,2,0:0:0:0:
356,128,76167,1,0,0:0:0:0:
328,136,76251,1,0,0:0:0:0:
328,136,76306,1,2,0:0:0:0:
328,136,76362,1,0,0:0:0:0:
328,136,76417,1,2,0:0:0:0:
328,136,76473,1,0,0:0:0:0:
328,136,76529,1,0,0:0:0:0:
328,136,76584,1,0,0:0:0:0:
320,136,76751,1,0,0:0:0:0:
320,136,76917,1,0,0:0:0:0:
320,136,77001,1,0,0:0:0:0:
188,88,77084,1,2,0:0:0:0:
188,88,77140,1,2,0:0:0:0:
188,88,77195,1,2,0:0:0:0:
188,88,77251,1,2,0:0:0:0:
204,100,77417,1,2,0:0:0:0:
204,100,77501,1,0,0:0:0:0:
204,100,77584,1,2,0:0:0:0:
204,100,77667,1,0,0:0:0:0:
204,100,77751,1,2,0:0:0:0:
204,100,77806,1,2,0:0:0:0:
144,92,77862,1,2,0:0:0:0:
144,92,77917,1,0,0:0:0:0:
240,140,78001,1,0,0:0:0:0:
240,140,78084,1,2,0:0:0:0:
228,136,78251,1,0,0:0:0:0:
291,272,78334,1,2,0:0:0:0:
264,116,78417,1,2,0:0:0:0:
264,116,78473,1,2,0:0:0:0:
264,116,78529,1,2,0:0:0:0:
264,116,78584,1,2,0:0:0:0:
136,108,78751,1,0,0:0:0:0:
136,108,78834,1,2,0:0:0:0:
136,108,78917,1,0,0:0:0:0:
136,108,79001,1,0,0:0:0:0:
136,108,79084,1,0,0:0:0:0:
136,108,79167,1,2,0:0:0:0:
136,108,79251,1,2,0:0:0:0:
136,108,79334,1,0,0:0:0:0:
136,108,79417,1,0,0:0:0:0:
136,108,79501,1,2,0:0:0:0:
200,240,79584,1,2,0:0:0:0:
136,108,79667,1,2,0:0:0:0:
236,124,79751,1,2,0:0:0:0:
236,124,79806,1,0,0:0:0:0:
236,124,79862,1,0,0:0:0:0:
236,124,79917,1,2,0:0:0:0:
192,112,80084,1,2,0:0:0:0:
192,112,80167,1,2,0:0:0:0:
176,148,80251,1,0,0:0:0:0:
176,148,80334,1,2,0:0:0:0:
176,148,80417,1,2,0:0:0:0:
176,148,80473,1,0,0:0:0:0:
176,148,80529,1,0,0:0:0:0:
176,148,80584,1,0,0:0:0:0:
124,108,80751,1,0,0:0:0:0:
176,108,80917,1,2,0:0:0:0:
176,108,81001,1,0,0:0:0:0:
256,108,81084,1,2,0:0:0:0:
256,108,81140,1,2,0:0:0:0:
256,108,81195,1,2,0:0:0:0:
256,108,81251,1,2,0:0:0:0:
256,108,81417,1,2,0:0:0:0:
256,108,81501,1,0,0:0:0:0:
356,116,81584,1,0,0:0:0:0:
356,116,81640,1,0,0:0:0:0:
356,116,81695,1,0,0:0:0:0:
356,116,81751,1,2,0:0:0:0:
172,144,81834,1,2,0:0:0:0:
172,144,81917,1,0,0:0:0:0:
172,144,82001,1,0,0:0:0:0:
172,144,82084,1,2,0:0:0:0:
164,140,82251,1,2,0:0:0:0:
164,140,82306,1,2,0:0:0:0:
164,140,82362,1,2,0:0:0:0:
164,140,82417,1,0,0:0:0:0:
168,128,82501,1,2,0:0:0:0:
168,128,82584,1,2,0:0:0:0:
168,128,82667,1,2,0:0:0:0:
164,128,82751,1,0,0:0:0:0:
292,188,82917,1,0,0:0:0:0:
292,188,82973,1,2,0:0:0:0:
292,188,83029,1,0,0:0:0:0:
292,188,83084,1,2,0:0:0:0:
344,120,83167,1,0,0:0:0:0:
344,120,83251,1,2,0:0:0:0:
312,168,83334,1,0,0:0:0:0:
272,160,83417,1,2,0:0:0:0:
308,128,83473,1,0,0:0:0:0:
308,128,83529,1,0,0:0:0:0:
308,128,83584,1,0,0:0:0:0:
308,128,83640,1,0,0:0:0:0:
308,128,83695,1,0,0:0:0:0:
308,128,83751,1,2,0:0:0:0:
308,128,83917,1,2,0:0:0:0:
308,128,84001,1,2,0:0:0:0:
308,128,84084,1,0,0:0:0:0:
200,92,84251,1,2,0:0:0:0:
200,92,84334,1,0,0:0:0:0:
200,92,84417,1,2,0:0:0:0:
200,92,84501,1,2,0:0:0:0:
200,92,84584,1,0,0:0:0:0:
200,92,84667,1,0,0:0:0:0:
200,92,84751,1,2,0:0:0:0:
328,108,84806,1,0,0:0:0:0:
328,108,84862,1,0,0:0:0:0:
328,108,84917,1,2,0:0:0:0:
328,108,84973,1,2,0:0:0:0:
328,108,85029,1,2,0:0:0:0:
328,108,85084,1,2,0:0:0:0:
148,116,85251,1,2,0:0:0:0:
148,116,85334,1,0,0:0:0:0:
148,116,85501,1,2,0:0:0:0:
148,116,85584,1,2,0:0:0:0:
148,116,85667,1,0,0:0:0:0:
148,116,85751,1,0,0:0:0:0:
148,116,85834,1,2,0:0:0:0:
148,116,85917,1,2,0:0:0:0:
192,132,86084,1,2,0:0:0:0:
376,120,86251,1,2,0:0:0:0:
376,120,86306,1,2,0:0:0:0:
376,120,86362,1,2,0:0:0:0:
300,120,86417,1,0,0:0:0:0:
264,124,86501,1,2,0:0:0:0:
264,124,86584,1,0,0:0:0:0:
264,124,86667,1,2,0:0:0:0:
264,124,86751,1,2,0:0:0:0:
156,124,86834,1,0,0:0:0:0:
288,152,86917,1,0,0:0:0:0:
288,152,86973,1,0,0:0:0:0:
288,152,87029,1,0,0:0:0:0:
288,152,87084,1,2,0:0:0:0:
156,124,87251,1,0,0:0:0:0:
160,120,87417,1,0,0:0:0:0:
284,104,87473,1,0,0:0:0:0:
284,104,87529,1,0,0:0:0:0:
284,104,87584,1,2,0:0:0:0:
284,104,87640,1,2,0:0:0:0:
284,104,87695,1,2,0:0:0:0:
284,104,87751,1,2,0:0:0:0:
260,96,87917,1,0,0:0:0:0:
260,96,88001,1,0,0:0:0:0:
260,96,88084,1,2,0:0:0:0:
116,112,88167,1,0,0:0:0:0:
120,112,88251,1,0,0:0:0:0:
120,112,88306,1,0,0:0:0:0:
120,112,88362,1,0,0:0:0:0:
120,112,88417,1,2,0:0:0:0:
148,136,88501,1,0,0:0:0:0:
148,136,88584,1,2,0:0:0:0:
148,136,88667,1,0,0:0:0:0:
304,128,88751,1,0,0:0:0:0:
248,152,88807,1,0,0:0:0:0:
192,108,88862,1,0,0:0:0:0:
248,152,88917,1,2,0:0:0:0:
248,152,88973,1,2,0:0:0:0:
248,152,89029,1,2,0:0:0:0:
248,152,89084,1,2,0:0:0:0:
192,108,89167,1,0,0:0:0:0:
192,108,89251,1,2,0:0:0:0:
80,144,89334,1,0,0:0:0:0:
120,132,89501,1,2,0:0:0:0:
120,132,89584,1,2,0:0:0:0:
120,132,89667,1,0,0:0:0:0:
120,132,89751,1,0,0:0:0:0:
120,132,89834,1,2,0:0:0:0:
120,132,89917,1,2,0:0:0:0:
120,132,90084,1,2,0:0:0:0:
160,132,90167,1,0,0:0:0:0:
160,156,90251,1,0,0:0:0:0:
160,156,90306,1,0,0:0:0:0:
160,156,90362,1,0,0:0:0:0:
160,156,90417,1,2,0:0:0:0:
304,132,90501,1,0,0:0:0:0:
304,132,90584,1,2,0:0:0:0:
304,132,90667,1,0,0:0:0:0:
304,132,90751,1,0,0:0:0:0:
304,132,90834,1,2,0:0:0:0:
304,132,90917,1,0,0:0:0:0:
304,132,91001,1,2,0:0:0:0:
304,132,91084,1,2,0:0:0:0:
304,132,91167,1,2,0:0:0:0:
304,132,91251,1,0,0:0:0:0:
304,132,91417,1,2,0:0:0:0:
304,132,91501,1,0,0:0:0:0:
356,128,91584,1,2,0:0:0:0:
356,128,91640,1,0,0:0:0:0:
356,128,91695,1,0,0:0:0:0:
108,144,91751,1,2,0:0:0:0:
240,112,91834,1,0,0:0:0:0:
240,112,91917,1,2,0:0:0:0:
240,112,92001,1,0,0:0:0:0:
240,112,92084,1,2,0:0:0:0:
324,104,92251,1,0,0:0:0:0:
324,104,92306,1,0,0:0:0:0:
324,104,92362,1,0,0:0:0:0:
180,24,92417,1,2,0:0:0:0:
132,156,92501,1,2,0:0:0:0:
132,156,92584,1,2,0:0:0:0:
256,172,92751,1,2,0:0:0:0:
256,172,92807,1,2,0:0:0:0:
256,172,92862,1,2,0:0:0:0:
180,152,92917,1,2,0:0:0:0:
252,176,93001,1,0,0:0:0:0:
252,176,93084,1,2,0:0:0:0:
224,132,93251,1,2,0:0:0:0:
224,132,93334,1,0,0:0:0:0:
224,132,93417,1,0,0:0:0:0:
224,132,93501,1,2,0:0:0:0:
332,152,93584,1,0,0:0:0:0:
332,152,93668,1,0,0:0:0:0:
332,152,93751,1,2,0:0:0:0:
260,148,93834,1,0,0:0:0:0:
260,148,93917,1,2,0:0:0:0:
260,148,94001,1,0,0:0:0:0:
260,148,94084,1,0,0:0:0:0:
260,148,94140,1,0,0:0:0:0:
260,148,94196,1,0,0:0:0:0:
260,148,94251,1,0,0:0:0:0:
220,100,94334,1,2,0:0:0:0:
224,184,94584,1,0,0:0:0:0:
224,184,94667,1,0,0:0:0:0:
376,136,94751,1,2,0:0:0:0:
376,136,94807,1,2,0:0:0:0:
376,136,94862,1,2,0:0:0:0:
320,160,94917,1,2,0:0:0:0:
232,204,95084,1,2,0:0:0:0:
232,204,95167,1,2,0:0:0:0:
232,204,95251,1,2,0:0:0:0:
232,204,95334,1,2,0:0:0:0:
92,140,95417,1,0,0:0:0:0:
120,136,95584,5,2,0:0:0:0:
120,136,95667,1,0,0:0:0:0:
120,136,95751,1,2,0:0:0:0:
120,136,95917,1,2,0:0:0:0:
120,136,96001,1,2,0:0:0:0:
120,136,96084,1,2,0:0:0:0:
120,136,96140,1,2,0:0:0:0:
156,120,96196,1,0,0:0:0:0:
156,120,96251,1,2,0:0:0:0:
160,132,96417,1,2,0:0:0:0:
184,128,96501,1,0,0:0:0:0:
184,128,96584,1,2,0:0:0:0:
184,128,96667,1,2,0:0:0:0:
192,128,96751,1,2,0:0:0:0:
328,160,96807,1,2,0:0:0:0:
328,160,96862,1,2,0:0:0:0:
328,160,96917,1,2,0:0:0:0:
328,160,97001,1,2,0:0:0:0:
72,160,97251,1,2,0:0:0:0:
104,160,97334,1,0,0:0:0:0:
104,160,97417,1,2,0:0:0:0:
292,168,97473,1,0,0:0:0:0:
292,168,97529,1,0,0:0:0:0:
292,168,97584,1,0,0:0:0:0:
292,168,97640,1,0,0:0:0:0:
292,168,97695,1,0,0:0:0:0:
292,168,97751,1,2,0:0:0:0:
296,184,97834,1,0,0:0:0:0:
296,184,97917,1,2,0:0:0:0:
296,184,98001,1,0,0:0:0:0:
296,184,98084,1,2,0:0:0:0:
296,184,98140,1,2,0:0:0:0:
296,184,98196,1,2,0:0:0:0:
296,184,98251,1,2,0:0:0:0:
184,128,98334,1,2,0:0:0:0:
148,148,98584,1,0,0:0:0:0:
160,152,98667,1,0,0:0:0:0:
160,148,98751,1,0,0:0:0:0:
160,148,98807,1,0,0:0:0:0:
160,148,98862,1,0,0:0:0:0:
160,148,98917,1,2,0:0:0:0:
328,168,99084,1,2,0:0:0:0:
192,160,99167,1,2,0:0:0:0:
192,160,99251,1,2,0:0:0:0:
192,160,99334,1,2,0:0:0:0:
192,160,99417,1,0,0:0:0:0:
192,160,99584,1,2,0:0:0:0:
192,160,99667,1,0,0:0:0:0:
192,160,99751,1,0,0:0:0:0:
192,160,99917,1,0,0:0:0:0:
192,160,100001,1,0,0:0:0:0:
288,108,100084,1,2,0:0:0:0:
288,108,100140,1,2,0:0:0:0:
288,108,100196,1,2,0:0:0:0:
288,108,100251,1,0,0:0:0:0:
288,108,100307,1,0,0:0:0:0:
288,108,100362,1,0,0:0:0:0:
240,140,100417,1,2,0:0:0:0:
240,140,100501,1,0,0:0:0:0:
240,140,100584,1,0,0:0:0:0:
240,140,100667,1,0,0:0:0:0:
140,124,100751,1,2,0:0:0:0:
140,124,100807,1,2,0:0:0:0:
140,124,100862,1,2,0:0:0:0:
140,124,100917,1,2,0:0:0:0:
140,124,101001,1,2,0:0:0:0:
208,88,101251,1,2,0:0:0:0:
208,88,101334,1,0,0:0:0:0:
200,88,101417,1,2,0:0:0:0:
200,88,101473,1,0,0:0:0:0:
160,152,101529,1,0,0:0:0:0:
160,152,101584,1,0,0:0:0:0:
160,152,101640,1,0,0:0:0:0:
160,152,101695,1,0,0:0:0:0:
160,152,101751,1,2,0:0:0:0:
152,148,101834,1,0,0:0:0:0:
152,148,101917,1,2,0:0:0:0:
292,148,102084,1,2,0:0:0:0:
292,148,102140,1,2,0:0:0:0:
292,148,102196,1,2,0:0:0:0:
292,148,102251,1,0,0:0:0:0:
144,112,102334,1,2,0:0:0:0:
144,104,102584,1,0,0:0:0:0:
144,104,102667,1,0,0:0:0:0:
144,112,102751,1,2,0:0:0:0:
144,112,102807,1,2,0:0:0:0:
144,112,102862,1,2,0:0:0:0:
144,112,102917,1,2,0:0:0:0:
144,112,103001,1,0,0:0:0:0:
144,112,103084,1,0,0:0:0:0:
144,112,103167,1,2,0:0:0:0:
160,136,103251,1,0,0:0:0:0:
160,136,103306,1,0,0:0:0:0:
160,136,103362,1,0,0:0:0:0:
160,136,103417,1,2,0:0:0:0:
184,108,103584,1,2,0:0:0:0:
176,112,103667,1,2,0:0:0:0:
180,96,103751,1,0,0:0:0:0:
180,96,103834,1,0,0:0:0:0:
176,96,103917,1,2,0:0:0:0:
176,96,104084,1,0,0:0:0:0:
176,96,104167,1,2,0:0:0:0:
176,96,104251,1,0,0:0:0:0:
340,108,104417,1,2,0:0:0:0:
340,108,104501,1,0,0:0:0:0:
232,120,104584,1,0,0:0:0:0:
232,120,104640,1,0,0:0:0:0:
232,120,104695,1,0,0:0:0:0:
232,120,104751,1,2,0:0:0:0:
232,120,104917,1,2,0:0:0:0:
164,144,105001,1,2,0:0:0:0:
164,144,105084,1,0,0:0:0:0:
164,144,105251,1,0,0:0:0:0:
164,144,105334,1,2,0:0:0:0:
164,144,105417,1,0,0:0:0:0:
80,108,105501,1,0,0:0:0:0:
80,108,105584,1,2,0:0:0:0:
80,108,105751,1,2,0:0:0:0:
80,108,105834,1,2,0:0:0:0:
156,108,105917,1,0,0:0:0:0:
156,108,105973,1,2,0:0:0:0:
186,238,106029,1,2,0:0:0:0:
352,96,106084,1,0,0:0:0:0:
92,136,106167,1,0,0:0:0:0:
68,136,106251,1,0,0:0:0:0:
68,136,106306,1,0,0:0:0:0:
68,136,106362,1,2,0:0:0:0:
68,136,106417,1,2,0:0:0:0:
272,152,106584,1,2,0:0:0:0:
272,152,106667,1,0,0:0:0:0:
272,152,106751,1,2,0:0:0:0:
272,152,106834,1,2,0:0:0:0:
272,152,106917,1,0,0:0:0:0:
268,144,107084,1,0,0:0:0:0:
268,144,107167,1,0,0:0:0:0:
248,108,107251,1,0,0:0:0:0:
248,108,107306,1,0,0:0:0:0:
248,108,107362,1,0,0:0:0:0:
248,108,107417,1,2,0:0:0:0:
240,108,107584,1,2,0:0:0:0:
240,108,107667,1,2,0:0:0:0:
240,108,107751,1,2,0:0:0:0:
88,128,107918,1,2,0:0:0:0:
232,272,108001,1,2,0:0:0:0:
232,272,108084,1,2,0:0:0:0:
232,272,108168,1,0,0:0:0:0:
248,144,108251,1,2,0:0:0:0:
76,160,108418,1,2,0:0:0:0:
76,160,108501,1,0,0:0:0:0:
288,148,108584,1,0,0:0:0:0:
288,148,108640,1,2,0:0:0:0:
288,148,108695,1,0,0:0:0:0:
288,148,108751,1,2,0:0:0:0:
276,148,108917,1,2,0:0:0:0:
276,148,109001,1,2,0:0:0:0:
276,148,109084,1,0,0:0:0:0:
144,96,109167,1,2,0:0:0:0:
144,96,109251,1,0,0:0:0:0:
144,96,109334,1,2,0:0:0:0:
144,96,109417,1,0,0:0:0:0:
144,96,109501,1,2,0:0:0:0:
156,52,109584,1,2,0:0:0:0:
144,96,109667,1,0,0:0:0:0:
156,52,109751,1,2,0:0:0:0:
212,104,109834,1,2,0:0:0:0:
320,168,109917,1,0,0:0:0:0:
320,168,109973,1,0,0:0:0:0:
320,168,110029,1,0,0:0:0:0:
320,168,110084,1,2,0:0:0:0:
124,120,110167,1,2,0:0:0:0:
124,120,110251,1,2,0:0:0:0:
48,144,110417,1,0,0:0:0:0:
48,144,110584,1,0,0:0:0:0:
184,28,110667,1,0,0:0:0:0:
184,28,110751,1,2,0:0:0:0:
216,56,110834,1,2,0:0:0:0:
412,140,110917,1,0,0:0:0:0:
412,140,110973,1,0,0:0:0:0:
412,140,111029,1,0,0:0:0:0:
412,140,111084,1,2,0:0:0:0:
344,96,111167,1,2,0:0:0:0:
368,96,111251,1,2,0:0:0:0:
368,96,111306,1,2,0:0:0:0:
368,96,111362,1,2,0:0:0:0:
368,96,111417,1,0,0:0:0:0:
280,148,111584,1,2,0:0:0:0:
304,80,111667,1,0,0:0:0:0:
304,80,111751,1,2,0:0:0:0:
304,80,111917,1,2,0:0:0:0:
304,80,112001,1,0,0:0:0:0:
296,84,112084,1,0,0:0:0:0:
296,84,112167,1,2,0:0:0:0:
296,84,112251,1,0,0:0:0:0:
292,128,112417,1,2,0:0:0:0:
292,128,112501,1,0,0:0:0:0:
292,128,112584,1,2,0:0:0:0:
292,128,112640,1,2,0:0:0:0:
292,128,112695,1,2,0:0:0:0:
68,132,112751,1,2,0:0:0:0:
216,156,112917,1,2,0:0:0:0:
216,156,113001,1,0,0:0:0:0:
216,156,113084,1,2,0:0:0:0:
116,140,113251,1,2,0:0:0:0:
116,140,113333,1,0,0:0:0:0:
116,140,113417,1,2,0:0:0:0:
216,156,113500,1,2,0:0:0:0:
216,156,113583,1,2,0:0:0:0:
216,156,113751,1,0,0:0:0:0:
216,156,113834,1,2,0:0:0:0:
216,156,113917,1,0,0:0:0:0:
216,156,114001,1,0,0:0:0:0:
216,156,114084,1,2,0:0:0:0:
188,48,114251,1,2,0:0:0:0:
188,48,114334,1,2,0:0:0:0:
188,48,114417,1,2,0:0:0:0:
44,128,114584,1,2,0:0:0:0:
52,128,114751,1,0,0:0:0:0:
52,128,114834,1,2,0:0:0:0:
52,128,114917,1,0,0:0:0:0:
52,128,115084,1,2,0:0:0:0:
296,128,115167,1,0,0:0:0:0:
296,128,115251,1,0,0:0:0:0:
296,128,115417,1,2,0:0:0:0:
192,120,115473,1,0,0:0:0:0:
186,229,115529,1,0,0:0:0:0:
192,120,115584,1,2,0:0:0:0:
192,120,115640,1,0,0:0:0:0:
192,120,115695,1,0,0:0:0:0:
192,120,115751,1,2,0:0:0:0:
196,112,115834,1,0,0:0:0:0:
196,112,115917,1,2,0:0:0:0:
196,112,116001,1,2,0:0:0:0:
196,112,116084,1,0,0:0:0:0:
200,104,116251,1,2,0:0:0:0:
200,104,116334,1,0,0:0:0:0:
200,104,116417,1,2,0:0:0:0:
200,104,116501,1,2,0:0:0:0:
200,104,116584,1,2,0:0:0:0:
200,104,116667,1,0,0:0:0:0:
200,104,116751,1,2,0:0:0:0:
200,104,116834,1,0,0:0:0:0:
92,128,116917,1,0,0:0:0:0:
284,112,116973,1,0,0:0:0:0:
284,112,117029,1,2,0:0:0:0:
276,112,117084,1,2,0:0:0:0:
124,116,117167,1,0,0:0:0:0:
276,112,117251,1,2,0:0:0:0:
152,148,117417,1,2,0:0:0:0:
168,148,117473,1,2,0:0:0:0:
128,152,117529,1,2,0:0:0:0:
128,152,117584,1,2,0:0:0:0:
128,152,117640,1,2,0:0:0:0:
128,152,117695,1,2,0:0:0:0:
128,152,117751,1,0,0:0:0:0:
228,152,117834,1,2,0:0:0:0:
228,152,117917,1,0,0:0:0:0:
228,152,118001,1,0,0:0:0:0:
228,152,118084,1,2,0:0:0:0:
160,124,118251,1,2,0:0:0:0:
160,124,118334,1,2,0:0:0:0:
160,124,118417,1,0,0:0:0:0:
160,124,118584,1,2,0:0:0:0:
160,124,118751,1,0,0:0:0:0:
160,124,118834,1,2,0:0:0:0:
160,124,118917,1,0,0:0:0:0:
176,136,119084,1,2,0:0:0:0:
176,136,119167,1,0,0:0:0:0:
176,136,119251,1,0,0:0:0:0:
160,124,119417,1,2,0:0:0:0:
160,124,119473,1,0,0:0:0:0:
161,82,119529,1,0,0:0:0:0:
308,128,119584,1,2,0:0:0:0:
308,128,119640,1,0,0:0:0:0:
308,128,119695,1,0,0:0:0:0:
308,128,119751,1,2,0:0:0:0:
272,96,119834,1,0,0:0:0:0:
272,96,119917,1,2,0:0:0:0:
112,116,120001,1,2,0:0:0:0:
112,116,120084,1,0,0:0:0:0:
112,116,120251,1,2,0:0:0:0:
112,116,120334,1,0,0:0:0:0:
112,116,120417,1,2,0:0:0:0:
112,116,120501,1,2,0:0:0:0:
112,116,120584,1,2,0:0:0:0:
112,116,120667,1,0,0:0:0:0:
248,144,120751,1,2,0:0:0:0:
248,144,120834,1,0,0:0:0:0:
280,96,120917,1,0,0:0:0:0:
72,144,120973,1,0,0:0:0:0:
72,144,121029,1,0,0:0:0:0:
72,144,121084,1,2,0:0:0:0:
84,128,121251,1,2,0:0:0:0:
216,104,121417,1,0,0:0:0:0:
216,104,121473,1,0,0:0:0:0:
216,104,121529,1,0,0:0:0:0:
216,104,121584,1,2,0:0:0:0:
216,104,121640,1,2,0:0:0:0:
64,128,121695,1,2,0:0:0:0:
112,136,121751,1,0,0:0:0:0:
112,136,121834,1,2,0:0:0:0:
112,136,121917,1,0,0:0:0:0:
112,136,122084,1,2,0:0:0:0:
112,136,122251,1,2,0:0:0:0:
112,136,122334,1,2,0:0:0:0:
112,136,122417,1,0,0:0:0:0:
104,136,122584,1,2,0:0:0:0:
156,124,122751,1,0,0:0:0:0:
156,124,122834,1,2,0:0:0:0:
156,124,123001,1,0,0:0:0:0:
156,124,123084,1,2,0:0:0:0:
156,124,123167,1,0,0:0:0:0:
156,124,123251,1,2,0:0:0:0:
156,124,123417,1,2,0:0:0:0:
156,124,123584,1,0,0:0:0:0:
156,124,123667,1,2,0:0:0:0:
100,104,123751,1,0,0:0:0:0:
100,104,123834,1,2,0:0:0:0:
100,104,123917,1,2,0:0:0:0:
100,104,124001,1,0,0:0:0:0:
100,104,124084,1,0,0:0:0:0:
100,104,124251,1,2,0:0:0:0:
100,104,124334,1,0,0:0:0:0:
100,104,124417,1,0,0:0:0:0:
100,104,124501,1,0,0:0:0:0:
100,104,124584,1,2,0:0:0:0:
208,136,124751,1,0,0:0:0:0:
208,136,124792,1,2,0:0:0:0:
228,128,124917,1,0,0:0:0:0:
140,124,125084,1,2,0:0:0:0:
140,124,125126,1,2,0:0:0:0:
140,124,125251,1,0,0:0:0:0:
260,115,125334,1,2,0:0:0:0:
260,115,125417,1,0,0:0:0:0:
36,136,125584,1,0,0:0:0:0:
80,136,125751,1,2,0:0:0:0:
80,136,125806,1,2,0:0:0:0:
80,136,125862,1,2,0:0:0:0:
80,136,125917,1,0,0:0:0:0:
100,128,126001,1,0,0:0:0:0:
100,128,126084,1,2,0:0:0:0:
96,128,126140,1,2,0:0:0:0:
96,128,126195,1,2,0:0:0:0:
96,128,126251,1,2,0:0:0:0:
104,100,126334,1,2,0:0:0:0:
368,80,126417,1,0,0:0:0:0:
368,80,126459,1,0,0:0:0:0:
368,80,126501,1,0,0:0:0:0:
368,80,126584,1,2,0:0:0:0:
48,148,126626,1,2,0:0:0:0:
216,112,126667,1,2,0:0:0:0:
216,112,126751,1,0,0:0:0:0:
216,112,126834,1,0,0:0:0:0:
216,112,126917,1,2,0:0:0:0:
344,124,127084,1,2,0:0:0:0:
344,124,127126,1,2,0:0:0:0:
344,124,127167,1,2,0:0:0:0:
344,124,127251,1,0,0:0:0:0:
344,124,127292,1,0,0:0:0:0:
344,124,127334,1,0,0:0:0:0:
344,124,127417,1,0,0:0:0:0:
224,88,127584,1,2,0:0:0:0:
280,100,127667,1,0,0:0:0:0:
304,116,127751,1,2,0:0:0:0:
304,116,127806,1,2,0:0:0:0:
304,116,127862,1,2,0:0:0:0:
304,116,127917,1,2,0:0:0:0:
304,116,127973,1,2,0:0:0:0:
304,116,128029,1,2,0:0:0:0:
304,116,128084,1,2,0:0:0:0:
180,112,128251,1,0,0:0:0:0:
280,128,128334,1,0,0:0:0:0:
280,128,128417,1,0,0:0:0:0:
96,124,128584,1,2,0:0:0:0:
96,124,128626,1,2,0:0:0:0:
208,136,128751,1,2,0:0:0:0:
208,136,128792,1,2,0:0:0:0:
148,211,128917,1,0,0:0:0:0:
140,124,129084,1,2,0:0:0:0:
140,124,129126,1,2,0:0:0:0:
140,124,129251,1,0,0:0:0:0:
148,211,129417,1,0,0:0:0:0:
36,136,129584,1,2,0:0:0:0:
80,136,129751,1,2,0:0:0:0:
80,136,129806,1,2,0:0:0:0:
80,136,129862,1,2,0:0:0:0:
80,136,129917,1,0,0:0:0:0:
100,128,130001,1,0,0:0:0:0:
100,128,130084,1,2,0:0:0:0:
96,128,130140,1,2,0:0:0:0:
96,128,130195,1,2,0:0:0:0:
96,128,130251,1,2,0:0:0:0:
104,100,130334,1,2,0:0:0:0:
368,80,130417,1,0,0:0:0:0:
368,80,130459,1,0,0:0:0:0:
368,80,130501,1,0,0:0:0:0:
368,80,130584,1,2,0:0:0:0:
120,64,130626,1,2,0:0:0:0:
216,112,130667,1,2,0:0:0:0:
216,112,130751,1,0,0:0:0:0:
216,112,130834,1,0,0:0:0:0:
216,112,130917,1,2,0:0:0:0:
344,124,131084,1,2,0:0:0:0:
344,124,131126,1,2,0:0:0:0:
344,124,131167,1,2,0:0:0:0:
344,124,131251,1,0,0:0:0:0:
344,124,131292,1,0,0:0:0:0:
344,124,131334,1,0,0:0:0:0:
344,124,131417,1,0,0:0:0:0:
224,88,131584,1,2,0:0:0:0:
280,100,131667,1,0,0:0:0:0:
304,116,131751,1,2,0:0:0:0:
304,116,131806,1,2,0:0:0:0:
304,116,131862,1,2,0:0:0:0:
304,116,131917,1,2,0:0:0:0:
304,116,131973,1,2,0:0:0:0:
304,116,132029,1,2,0:0:0:0:
304,116,132084,1,2,0:0:0:0:
180,112,132251,1,0,0:0:0:0:
280,128,132334,1,0,0:0:0:0:
280,128,132417,1,0,0:0:0:0:
96,124,132584,1,2,0:0:0:0:
96,124,132626,1,2,0:0:0:0:
96,124,132751,1,2,0:0:0:0:
96,124,132792,1,2,0:0:0:0:
204,226,132917,1,0,0:0:0:0:
104,136,133084,1,0,0:0:0:0:
104,136,133126,1,2,0:0:0:0:
96,124,133251,1,2,0:0:0:0:
204,226,133417,1,0,0:0:0:0:
128,172,133584,1,2,0:0:0:0:
128,172,133626,1,2,0:0:0:0:
128,172,133751,1,2,0:0:0:0:
124,120,133792,1,2,0:0:0:0:
204,226,133917,1,0,0:0:0:0:
124,120,134084,1,2,0:0:0:0:
124,120,134126,1,2,0:0:0:0:
124,120,134251,1,0,0:0:0:0:
216,168,134417,1,2,0:0:0:0:
188,68,134584,1,2,0:0:0:0:
188,68,134667,1,2,0:0:0:0:
188,68,134751,1,0,0:0:0:0:
188,68,134917,1,0,0:0:0:0:
188,68,135084,1,0,0:0:0:0:
284,140,135251,1,0,0:0:0:0:
284,140,135292,1,2,0:0:0:0:
184,144,135417,1,0,0:0:0:0:
224,144,135473,1,0,0:0:0:0:
224,144,135529,1,0,0:0:0:0:
224,144,135584,1,2,0:0:0:0:
224,144,135640,1,2,0:0:0:0:
224,144,135695,1,2,0:0:0:0:
224,144,135751,1,2,0:0:0:0:
224,144,135917,1,2,0:0:0:0:
224,144,136084,1,2,0:0:0:0:
224,144,136126,1,2,0:0:0:0:
80,144,136251,1,0,0:0:0:0:
80,144,136334,1,0,0:0:0:0:
80,144,136417,1,2,0:0:0:0:
80,144,136473,1,2,0:0:0:0:
80,144,136529,1,2,0:0:0:0:
80,144,136584,1,0,0:0:0:0:
44,180,136667,1,0,0:0:0:0:
44,180,136751,1,2,0:0:0:0:
44,180,136806,1,2,0:0:0:0:
44,180,136862,1,2,0:0:0:0:
44,180,136917,1,2,0:0:0:0:
112,164,137001,1,2,0:0:0:0:
244,128,137084,1,0,0:0:0:0:
164,144,137126,1,0,0:0:0:0:
164,144,137167,1,0,0:0:0:0:
164,144,137251,1,2,0:0:0:0:
168,120,137292,1,2,0:0:0:0:
168,120,137334,1,2,0:0:0:0:
168,120,137417,1,0,0:0:0:0:
168,120,137501,1,0,0:0:0:0:
168,120,137584,1,2,0:0:0:0:
192,120,137751,1,2,0:0:0:0:
192,120,137792,1,2,0:0:0:0:
84,128,137834,1,2,0:0:0:0:
192,120,137917,1,0,0:0:0:0:
192,120,137959,1,0,0:0:0:0:
84,128,138001,1,0,0:0:0:0:
84,128,138084,1,0,0:0:0:0:
84,128,138167,1,0,0:0:0:0:
104,120,138251,1,2,0:0:0:0:
104,120,138334,1,0,0:0:0:0:
96,120,138417,1,2,0:0:0:0:
104,152,138473,1,2,0:0:0:0:
104,152,138529,1,2,0:0:0:0:
104,152,138584,1,2,0:0:0:0:
104,152,138640,1,2,0:0:0:0:
104,152,138695,1,2,0:0:0:0:
104,152,138751,1,2,0:0:0:0:
164,104,138917,1,0,0:0:0:0:
164,104,139001,1,0,0:0:0:0:
164,104,139084,1,0,0:0:0:0:
116,108,139167,1,0,0:0:0:0:
120,108,139251,1,2,0:0:0:0:
116,108,139417,1,2,0:0:0:0:
124,104,139501,1,0,0:0:0:0:
124,104,139584,1,2,0:0:0:0:
124,104,139640,1,2,0:0:0:0:
124,104,139695,1,0,0:0:0:0:
124,104,139751,1,2,0:0:0:0:
104,144,139834,1,0,0:0:0:0:
104,144,139917,1,2,0:0:0:0:
100,140,140084,1,0,0:0:0:0:
100,140,140126,1,2,0:0:0:0:
120,164,140251,1,0,0:0:0:0:
120,164,140334,1,0,0:0:0:0:
120,164,140417,1,2,0:0:0:0:
120,164,140584,1,0,0:0:0:0:
120,164,140751,1,2,0:0:0:0:
120,164,140917,1,0,0:0:0:0:
120,164,141001,1,0,0:0:0:0:
124,136,141084,1,2,0:0:0:0:
124,140,141167,1,2,0:0:0:0:
124,140,141251,1,0,0:0:0:0:
124,140,141417,1,2,0:0:0:0:
294,210,141584,1,0,0:0:0:0:
188,92,141751,1,2,0:0:0:0:
188,92,141792,1,2,0:0:0:0:
188,92,141834,1,2,0:0:0:0:
188,92,141917,1,0,0:0:0:0:
188,92,141959,1,0,0:0:0:0:
188,92,142001,1,0,0:0:0:0:
188,92,142084,1,0,0:0:0:0:
188,92,142167,1,0,0:0:0:0:
188,92,142251,1,2,0:0:0:0:
188,92,142334,1,0,0:0:0:0:
188,92,142417,1,2,0:0:0:0:
188,92,142473,1,2,0:0:0:0:
188,92,142529,1,2,0:0:0:0:
188,92,142584,1,2,0:0:0:0:
188,92,142640,1,2,0:0:0:0:
188,92,142695,1,2,0:0:0:0:
188,92,142751,1,2,0:0:0:0:
52,144,142917,1,0,0:0:0:0:
52,144,142959,1,0,0:0:0:0:
80,144,143084,1,0,0:0:0:0:
100,144,143251,1,0,0:0:0:0:
100,144,143334,1,0,0:0:0:0:
152,64,143417,1,2,0:0:0:0:
152,64,143473,1,2,0:0:0:0:
152,64,143529,1,2,0:0:0:0:
152,64,143584,1,0,0:0:0:0:
152,64,143667,1,0,0:0:0:0:
152,64,143751,1,2,0:0:0:0:
152,64,143792,1,2,0:0:0:0:
152,64,143834,1,2,0:0:0:0:
256,68,143917,1,0,0:0:0:0:
256,68,143959,1,0,0:0:0:0:
236,128,144001,1,0,0:0:0:0:
8,148,144084,1,2,0:0:0:0:
8,148,144167,1,0,0:0:0:0:
8,148,144251,1,2,0:0:0:0:
8,148,144417,1,2,0:0:0:0:
72,148,144584,1,0,0:0:0:0:
72,148,144751,1,2,0:0:0:0:
72,148,144917,1,0,0:0:0:0:
72,148,145001,1,2,0:0:0:0:
72,148,145084,1,0,0:0:0:0:
72,148,145251,1,0,0:0:0:0:
72,148,145417,1,2,0:0:0:0:
72,148,145501,1,2,0:0:0:0:
72,148,145584,1,2,0:0:0:0:
0,140,145751,1,0,0:0:0:0:
144,144,145834,5,2,0:0:0:0:
164,144,146084,1,2,0:0:0:0:
164,144,146251,1,2,0:0:0:0:
164,144,146334,1,0,0:0:0:0:
164,144,146584,1,0,0:0:0:0:
56,128,146834,1,0,0:0:0:0:
64,124,146917,1,0,0:0:0:0:
204,144,147084,1,2,0:0:0:0:
204,144,147140,1,0,0:0:0:0:
204,144,147195,1,2,0:0:0:0:
204,144,147251,1,0,0:0:0:0:
204,144,147306,1,2,0:0:0:0:
204,144,147362,1,0,0:0:0:0:
204,144,147417,1,2,0:0:0:0:
264,104,147459,1,2,0:0:0:0:
264,104,147501,1,2,0:0:0:0:
264,104,147584,1,0,0:0:0:0:
264,104,147667,1,0,0:0:0:0:
188,124,147751,1,2,0:0:0:0:
188,124,147806,1,2,0:0:0:0:
188,124,147862,1,2,0:0:0:0:
188,124,147917,1,2,0:0:0:0:
188,124,147973,1,2,0:0:0:0:
188,124,148029,1,2,0:0:0:0:
188,124,148084,1,0,0:0:0:0:
236,148,148251,1,2,0:0:0:0:
68,124,148334,1,0,0:0:0:0:
236,148,148417,1,0,0:0:0:0:
104,160,148473,1,2,0:0:0:0:
104,160,148529,1,0,0:0:0:0:
104,160,148584,1,2,0:0:0:0:
104,160,148640,1,0,0:0:0:0:
104,160,148695,1,2,0:0:0:0:
104,160,148751,1,2,0:0:0:0:
160,152,148834,1,0,0:0:0:0:
208,96,148917,1,2,0:0:0:0:
160,152,149001,1,2,0:0:0:0:
336,136,149084,1,2,0:0:0:0:
336,136,149140,1,2,0:0:0:0:
336,136,149195,1,2,0:0:0:0:
336,136,149251,1,2,0:0:0:0:
336,136,149306,1,2,0:0:0:0:
336,136,149362,1,2,0:0:0:0:
336,136,149417,1,2,0:0:0:0:
336,136,149584,1,2,0:0:0:0:
148,156,149626,1,2,0:0:0:0:
148,156,149667,1,2,0:0:0:0:
148,156,149751,1,0,0:0:0:0:
148,156,149834,1,2,0:0:0:0:
148,156,149917,1,0,0:0:0:0:
104,136,150084,1,2,0:0:0:0:
112,136,150251,1,2,0:0:0:0:
112,136,150334,1,0,0:0:0:0:
200,132,150584,1,2,0:0:0:0:
184,140,150751,1,0,0:0:0:0:
184,140,150834,1,2,0:0:0:0:
184,140,150917,1,0,0:0:0:0:
204,144,151084,1,2,0:0:0:0:
204,144,151140,1,0,0:0:0:0:
204,144,151195,1,2,0:0:0:0:
204,144,151251,1,0,0:0:0:0:
204,144,151306,1,2,0:0:0:0:
204,144,151362,1,0,0:0:0:0:
204,144,151417,1,2,0:0:0:0:
264,104,151459,1,2,0:0:0:0:
264,104,151501,1,2,0:0:0:0:
264,104,151584,1,0,0:0:0:0:
264,104,151667,1,0,0:0:0:0:
188,124,151751,1,2,0:0:0:0:
188,124,151806,1,2,0:0:0:0:
188,124,151862,1,2,0:0:0:0:
188,124,151917,1,2,0:0:0:0:
188,124,151973,1,2,0:0:0:0:
188,124,152029,1,2,0:0:0:0:
188,124,152084,1,0,0:0:0:0:
236,148,152251,1,2,0:0:0:0:
68,124,152334,1,0,0:0:0:0:
236,148,152417,1,0,0:0:0:0:
104,160,152473,1,2,0:0:0:0:
104,160,152529,1,0,0:0:0:0:
104,160,152584,1,2,0:0:0:0:
104,160,152640,1,0,0:0:0:0:
104,160,152695,1,2,0:0:0:0:
104,160,152751,1,2,0:0:0:0:
160,112,152834,1,0,0:0:0:0:
160,152,152918,1,2,0:0:0:0:
160,152,153001,1,2,0:0:0:0:
336,136,153084,1,2,0:0:0:0:
336,136,153140,1,2,0:0:0:0:
336,136,153195,1,2,0:0:0:0:
336,136,153251,1,2,0:0:0:0:
336,136,153306,1,2,0:0:0:0:
336,136,153362,1,2,0:0:0:0:
336,136,153417,1,2,0:0:0:0:
336,136,153584,1,2,0:0:0:0:
148,156,153626,1,2,0:0:0:0:
148,156,153667,1,2,0:0:0:0:
148,156,153751,1,0,0:0:0:0:
148,156,153834,1,2,0:0:0:0:
148,156,153917,1,0,0:0:0:0:
92,112,154084,1,2,0:0:0:0:
96,112,154251,1,2,0:0:0:0:
96,112,154334,1,0,0:0:0:0:
96,112,154584,1,2,0:0:0:0:
96,112,154751,1,0,0:0:0:0:
96,112,154834,1,2,0:0:0:0:
96,112,154917,1,0,0:0:0:0:
204,144,155084,1,2,0:0:0:0:
204,144,155140,1,0,0:0:0:0:
204,144,155195,1,2,0:0:0:0:
204,144,155251,1,0,0:0:0:0:
204,144,155306,1,2,0:0:0:0:
204,144,155362,1,0,0:0:0:0:
204,144,155417,1,2,0:0:0:0:
264,104,155459,1,2,0:0:0:0:
264,104,155501,1,2,0:0:0:0:
264,104,155584,1,0,0:0:0:0:
264,104,155667,1,0,0:0:0:0:
188,124,155751,1,2,0:0:0:0:
188,124,155806,1,2,0:0:0:0:
188,124,155862,1,2,0:0:0:0:
188,124,155917,1,2,0:0:0:0:
188,124,155973,1,2,0:0:0:0:
188,124,156029,1,2,0:0:0:0:
188,124,156084,1,0,0:0:0:0:
168,112,156251,1,2,0:0:0:0:
168,112,156292,1,2,0:0:0:0:
168,112,156334,1,2,0:0:0:0:
116,120,156417,1,0,0:0:0:0:
181,48,156501,1,0,0:0:0:0:
88,104,156751,1,0,0:0:0:0:
144,96,156917,1,0,0:0:0:0:
244,136,157001,1,0,0:0:0:0:
244,136,157251,1,0,0:0:0:0:
164,168,157418,1,0,0:0:0:0:
164,168,157501,1,0,0:0:0:0:
164,168,157584,1,0,0:0:0:0:
244,136,157751,1,2,0:0:0:0:
244,136,157834,1,2,0:0:0:0:
200,204,158084,1,0,0:0:0:0:
200,204,158251,1,2,0:0:0:0:
200,204,158334,1,2,0:0:0:0:
116,116,158584,1,0,0:0:0:0:
128,120,158751,1,2,0:0:0:0:
248,160,158806,1,2,0:0:0:0:
248,160,158862,1,2,0:0:0:0:
248,160,158917,1,2,0:0:0:0:
292,128,159001,1,2,0:0:0:0:
276,128,159084,1,0,0:0:0:0:
276,128,159167,1,2,0:0:0:0:
92,104,159417,1,2,0:0:0:0:
96,104,159584,1,0,0:0:0:0:
96,104,159668,1,2,0:0:0:0:
96,104,159917,1,2,0:0:0:0:
288,124,160084,1,0,0:0:0:0:
288,124,160140,1,0,0:0:0:0:
288,124,160195,1,0,0:0:0:0:
288,124,160251,1,0,0:0:0:0:
92,128,160334,1,2,0:0:0:0:
92,128,160417,1,0,0:0:0:0:
76,121,160501,1,0,0:0:0:0:
92,128,160751,1,0,0:0:0:0:
92,128,160917,1,0,0:0:0:0:
92,128,161001,1,0,0:0:0:0:
92,128,161251,1,0,0:0:0:0:
279,119,161418,1,0,0:0:0:0:
104,208,161501,1,0,0:0:0:0:
104,208,161584,1,0,0:0:0:0:
92,128,161750,1,0,0:0:0:0:
92,128,161834,1,2,0:0:0:0:
92,128,161917,1,2,0:0:0:0:
92,128,162001,1,0,0:0:0:0:
152,112,162084,1,2,0:0:0:0:
152,112,162251,1,2,0:0:0:0:
132,140,162334,1,0,0:0:0:0:
132,140,162417,1,0,0:0:0:0:
132,140,162584,1,2,0:0:0:0:
300,112,162751,1,0,0:0:0:0:
300,112,162806,1,0,0:0:0:0:
300,112,162862,1,0,0:0:0:0:
300,112,162917,1,2,0:0:0:0:
300,112,162973,1,0,0:0:0:0:
300,112,163029,1,0,0:0:0:0:
300,112,163084,1,2,0:0:0:0:
296,80,163167,1,0,0:0:0:0:
296,80,163251,1,2,0:0:0:0:
296,80,163334,1,0,0:0:0:0:
296,80,163417,1,0,0:0:0:0:
280,84,163501,1,0,0:0:0:0:
280,84,163584,1,2,0:0:0:0:
280,84,163667,1,2,0:0:0:0:
280,84,163751,1,2,0:0:0:0:
280,84,163917,1,0,0:0:0:0:
280,84,164001,1,2,0:0:0:0:
280,84,164084,1,0,0:0:0:0:
280,72,164140,1,0,0:0:0:0:
280,72,164195,1,0,0:0:0:0:
280,72,164251,1,0,0:0:0:0:
280,72,164306,1,0,0:0:0:0:
280,72,164362,1,0,0:0:0:0:
280,72,164417,1,2,0:0:0:0:
112,112,164501,1,2,0:0:0:0:
112,112,164584,1,2,0:0:0:0:
112,112,164667,1,2,0:0:0:0:
112,112,164751,1,0,0:0:0:0:
112,112,164834,1,2,0:0:0:0:
112,112,164917,1,2,0:0:0:0:
112,112,165001,1,2,0:0:0:0:
120,112,165251,1,2,0:0:0:0:
120,112,165334,1,2,0:0:0:0:
288,104,165417,1,0,0:0:0:0:
288,104,165473,1,0,0:0:0:0:
288,104,165529,1,0,0:0:0:0:
288,104,165584,1,2,0:0:0:0:
288,104,165640,1,0,0:0:0:0:
288,104,165695,1,0,0:0:0:0:
288,104,165751,1,2,0:0:0:0:
320,84,165834,1,2,0:0:0:0:
320,84,165917,1,0,0:0:0:0:
320,84,166001,1,2,0:0:0:0:
320,84,166084,1,2,0:0:0:0:
312,84,166251,1,2,0:0:0:0:
132,112,166334,1,0,0:0:0:0:
132,112,166417,1,0,0:0:0:0:
124,112,166584,1,2,0:0:0:0:
124,112,166751,1,0,0:0:0:0:
124,112,166806,1,0,0:0:0:0:
124,112,166862,1,0,0:0:0:0:
124,112,166917,1,0,0:0:0:0:
124,112,166973,1,0,0:0:0:0:
124,112,167029,1,0,0:0:0:0:
124,112,167084,1,2,0:0:0:0:
124,112,167167,1,2,0:0:0:0:
76,112,167251,1,2,0:0:0:0:
76,112,167334,1,0,0:0:0:0:
76,112,167417,1,2,0:0:0:0:
76,112,167501,1,2,0:0:0:0:
76,112,167584,1,0,0:0:0:0:
100,132,167667,1,2,0:0:0:0:
112,104,167751,1,2,0:0:0:0:
92,144,167834,1,2,0:0:0:0:
112,104,167917,1,2,0:0:0:0:
184,200,168001,1,0,0:0:0:0:
160,128,168084,1,2,0:0:0:0:
160,128,168167,1,2,0:0:0:0:
168,128,168251,1,0,0:0:0:0:
168,128,168306,1,0,0:0:0:0:
168,128,168362,1,0,0:0:0:0:
344,176,168417,1,2,0:0:0:0:
344,176,168501,1,2,0:0:0:0:
344,176,168584,1,2,0:0:0:0:
344,176,168667,1,2,0:0:0:0:
344,176,168751,1,0,0:0:0:0:
344,176,168917,1,2,0:0:0:0:
344,176,169001,1,2,0:0:0:0:
336,176,169251,1,2,0:0:0:0:
336,176,169334,1,2,0:0:0:0:
336,176,169417,1,2,0:0:0:0:
308,104,169473,1,0,0:0:0:0:
308,104,169529,1,0,0:0:0:0:
308,104,169584,1,2,0:0:0:0:
308,104,169640,1,2,0:0:0:0:
308,104,169695,1,2,0:0:0:0:
308,104,169751,1,0,0:0:0:0:
116,124,169834,1,2,0:0:0:0:
116,124,169917,1,0,0:0:0:0:
116,124,170001,1,0,0:0:0:0:
116,124,170084,1,2,0:0:0:0:
116,124,170251,1,2,0:0:0:0:
116,124,170334,1,0,0:0:0:0:
104,120,170584,1,2,0:0:0:0:
104,120,170667,1,0,0:0:0:0:
256,136,170751,1,0,0:0:0:0:
256,136,170806,1,0,0:0:0:0:
256,136,170862,1,0,0:0:0:0:
256,136,170917,1,2,0:0:0:0:
256,136,170973,1,0,0:0:0:0:
256,136,171029,1,0,0:0:0:0:
256,136,171084,1,2,0:0:0:0:
272,100,171167,1,2,0:0:0:0:
272,100,171251,1,0,0:0:0:0:
272,100,171334,1,0,0:0:0:0:
272,100,171417,1,2,0:0:0:0:
104,128,171501,1,0,0:0:0:0:
104,128,171584,1,0,0:0:0:0:
104,128,171667,1,2,0:0:0:0:
120,108,171751,1,2,0:0:0:0:
216,180,171834,1,0,0:0:0:0:
120,108,171917,1,2,0:0:0:0:
120,108,172001,1,0,0:0:0:0:
116,108,172084,1,0,0:0:0:0:
264,200,172140,1,0,0:0:0:0:
264,200,172195,1,0,0:0:0:0:
264,200,172251,1,2,0:0:0:0:
264,200,172306,1,2,0:0:0:0:
264,200,172362,1,2,0:0:0:0:
264,200,172417,1,0,0:0:0:0:
200,112,172501,1,2,0:0:0:0:
200,112,172584,1,0,0:0:0:0:
200,112,172667,1,2,0:0:0:0:
76,140,172751,1,2,0:0:0:0:
100,140,172834,1,2,0:0:0:0:
100,140,172917,1,0,0:0:0:0:
100,140,173001,1,2,0:0:0:0:
152,152,173084,1,2,0:0:0:0:
120,148,173251,1,0,0:0:0:0:
124,148,173334,1,2,0:0:0:0:
124,148,173417,1,2,0:0:0:0:
304,128,173473,1,0,0:0:0:0:
304,128,173529,1,0,0:0:0:0:
304,128,173584,1,2,0:0:0:0:
304,128,173640,1,2,0:0:0:0:
304,128,173695,1,2,0:0:0:0:
304,128,173751,1,2,0:0:0:0:
240,128,173834,1,0,0:0:0:0:
240,128,173917,1,2,0:0:0:0:
216,176,174001,1,0,0:0:0:0:
240,128,174084,1,2,0:0:0:0:
240,128,174251,1,0,0:0:0:0:
240,128,174334,1,2,0:0:0:0:
240,128,174417,1,2,0:0:0:0:
240,128,174584,1,2,0:0:0:0:
240,128,174667,1,0,0:0:0:0:
296,156,174751,1,0,0:0:0:0:
296,156,174806,1,0,0:0:0:0:
296,156,174862,1,0,0:0:0:0:
296,156,174917,1,2,0:0:0:0:
296,156,174973,1,0,0:0:0:0:
296,156,175029,1,0,0:0:0:0:
296,156,175084,1,2,0:0:0:0:
80,136,175167,1,2,0:0:0:0:
96,136,175251,1,0,0:0:0:0:
216,176,175334,1,2,0:0:0:0:
96,136,175417,1,0,0:0:0:0:
96,136,175501,1,2,0:0:0:0:
92,132,175584,1,0,0:0:0:0:
92,132,175667,1,0,0:0:0:0:
92,132,175751,1,2,0:0:0:0:
88,120,175834,1,0,0:0:0:0:
88,120,175917,1,0,0:0:0:0:
216,176,176001,1,0,0:0:0:0:
236,100,176084,1,0,0:0:0:0:
236,100,176140,1,0,0:0:0:0:
236,100,176195,1,0,0:0:0:0:
236,100,176251,1,2,0:0:0:0:
236,100,176306,1,0,0:0:0:0:
236,100,176362,1,0,0:0:0:0:
236,100,176417,1,0,0:0:0:0:
192,104,176501,1,2,0:0:0:0:
160,124,176584,1,0,0:0:0:0:
160,124,176667,1,2,0:0:0:0:
160,124,176751,1,2,0:0:0:0:
160,124,176834,1,2,0:0:0:0:
160,124,176917,1,0,0:0:0:0:
160,124,177001,1,2,0:0:0:0:
160,124,177084,1,0,0:0:0:0:
160,124,177251,1,0,0:0:0:0:
160,124,177334,1,2,0:0:0:0:
136,116,177417,1,2,0:0:0:0:
140,116,177473,1,0,0:0:0:0:
207,78,177529,1,0,0:0:0:0:
288,144,177584,1,2,0:0:0:0:
288,144,177640,1,2,0:0:0:0:
288,144,177695,1,2,0:0:0:0:
288,144,177751,1,2,0:0:0:0:
340,132,177834,1,0,0:0:0:0:
340,132,177917,1,2,0:0:0:0:
216,176,178001,1,0,0:0:0:0:
340,132,178084,1,2,0:0:0:0:
220,244,178251,1,2,0:0:0:0:
220,244,178334,1,0,0:0:0:0:
220,244,178417,1,2,0:0:0:0:
220,244,178584,1,2,0:0:0:0:
220,244,178667,1,2,0:0:0:0:
220,244,178751,1,0,0:0:0:0:
300,172,178806,1,0,0:0:0:0:
300,172,178862,1,0,0:0:0:0:
300,172,178917,1,2,0:0:0:0:
300,172,178973,1,2,0:0:0:0:
300,172,179029,1,2,0:0:0:0:
300,172,179084,1,2,0:0:0:0:
64,124,179167,1,2,0:0:0:0:
64,124,179251,1,0,0:0:0:0:
216,176,179334,1,2,0:0:0:0:
72,124,179417,1,0,0:0:0:0:
112,128,179501,1,2,0:0:0:0:
152,132,179584,1,0,0:0:0:0:
152,132,179667,1,0,0:0:0:0:
152,132,179751,1,2,0:0:0:0:
148,136,179834,1,0,0:0:0:0:
148,136,179917,1,0,0:0:0:0:
148,136,180001,1,0,0:0:0:0:
148,136,180084,1,0,0:0:0:0:
114,217,180168,1,0,0:0:0:0:
288,120,180251,1,0,0:0:0:0:
288,120,180306,1,0,0:0:0:0:
288,120,180362,1,0,0:0:0:0:
208,68,180417,1,0,0:0:0:0:
208,68,180501,1,2,0:0:0:0:
208,68,180584,1,0,0:0:0:0:
208,68,180667,1,2,0:0:0:0:
208,68,180751,1,2,0:0:0:0:
208,68,180834,1,2,0:0:0:0:
208,68,180917,1,0,0:0:0:0:
208,68,181001,1,2,0:0:0:0:
208,68,181084,1,0,0:0:0:0:
208,68,181167,1,2,0:0:0:0:
208,68,181251,1,0,0:0:0:0:
208,68,181334,1,2,0:0:0:0:
208,68,181417,1,2,0:0:0:0:
284,108,181501,1,2,0:0:0:0:
284,108,181584,1,0,0:0:0:0:
284,108,181640,1,0,0:0:0:0:
284,108,181695,1,0,0:0:0:0:
284,108,181751,1,2,0:0:0:0:
256,140,181834,1,0,0:0:0:0:
256,140,181917,1,2,0:0:0:0:
256,140,182001,1,0,0:0:0:0:
256,140,182084,1,2,0:0:0:0:
256,140,182167,1,0,0:0:0:0:
256,140,182251,1,2,0:0:0:0:
256,140,182334,1,0,0:0:0:0:
256,140,182417,1,2,0:0:0:0:
252,144,182501,1,0,0:0:0:0:
252,144,182584,1,2,0:0:0:0:
216,176,182667,1,0,0:0:0:0:
252,144,182751,1,2,0:0:0:0:
252,144,182834,1,0,0:0:0:0:
144,144,182917,1,2,0:0:0:0:
144,144,182973,1,2,0:0:0:0:
144,144,183029,1,2,0:0:0:0:
144,144,183084,1,0,0:0:0:0:
200,116,183167,1,2,0:0:0:0:
200,116,183251,1,2,0:0:0:0:
116,140,183334,1,2,0:0:0:0:
116,140,183417,1,2,0:0:0:0:
116,140,183501,1,0,0:0:0:0:
100,136,183584,1,0,0:0:0:0:
116,140,183667,1,2,0:0:0:0:
116,140,183751,1,0,0:0:0:0:
116,140,183834,1,2,0:0:0:0:
116,140,183917,1,2,0:0:0:0:
216,56,184001,1,2,0:0:0:0:
216,56,184084,1,2,0:0:0:0:
216,56,184167,1,2,0:0:0:0:
216,56,184251,1,0,0:0:0:0:
116,140,184306,1,0,0:0:0:0:
116,140,184362,1,0,0:0:0:0:
116,140,184417,1,0,0:0:0:0:
120,148,184501,1,0,0:0:0:0:
120,148,184584,1,2,0:0:0:0:
120,148,184667,1,0,0:0:0:0:
120,148,184751,1,2,0:0:0:0:
120,148,184834,1,0,0:0:0:0:
80,132,184917,1,2,0:0:0:0:
80,132,185001,1,0,0:0:0:0:
80,132,185084,1,0,0:0:0:0:
80,132,185251,1,2,0:0:0:0:
80,132,185334,1,0,0:0:0:0:
80,132,185417,1,2,0:0:0:0:
80,132,185501,1,2,0:0:0:0:
156,108,185584,1,0,0:0:0:0:
229,69,185640,1,0,0:0:0:0:
160,132,185695,1,0,0:0:0:0:
168,108,185751,1,2,0:0:0:0:
168,108,185834,1,2,0:0:0:0:
168,104,185917,1,2,0:0:0:0:
168,104,186001,1,2,0:0:0:0:
168,104,186084,1,0,0:0:0:0:
168,104,186251,1,2,0:0:0:0:
116,120,186584,1,2,0:0:0:0:
116,120,186667,1,2,0:0:0:0:
116,120,186751,1,2,0:0:0:0:
116,120,186834,1,0,0:0:0:0:
176,124,186917,1,0,0:0:0:0:
176,124,186973,1,0,0:0:0:0:
176,124,187029,1,0,0:0:0:0:
176,124,187084,1,0,0:0:0:0:
244,104,187167,1,2,0:0:0:0:
244,104,187251,1,0,0:0:0:0:
236,104,187334,1,2,0:0:0:0:
236,104,187417,1,2,0:0:0:0:
136,120,187584,1,2,0:0:0:0:
236,104,187751,1,0,0:0:0:0:
136,120,187917,1,2,0:0:0:0:
136,120,188001,1,0,0:0:0:0:
136,120,188084,1,2,0:0:0:0:
260,88,188251,1,2,0:0:0:0:
260,88,188306,1,2,0:0:0:0:
260,88,188362,1,2,0:0:0:0:
260,88,188417,1,2,0:0:0:0:
272,64,188501,1,0,0:0:0:0:
272,64,188584,1,2,0:0:0:0:
272,64,188667,1,0,0:0:0:0:
272,64,188751,1,2,0:0:0:0:
172,60,188917,1,0,0:0:0:0:
172,92,189084,1,2,0:0:0:0:
200,172,189251,1,0,0:0:0:0:
200,172,189334,1,2,0:0:0:0:
200,172,189417,1,0,0:0:0:0:
316,112,189501,1,0,0:0:0:0:
316,112,189584,1,2,0:0:0:0:
304,112,189751,1,2,0:0:0:0:
304,112,189834,1,2,0:0:0:0:
304,112,189917,1,2,0:0:0:0:
300,112,190001,1,2,0:0:0:0:
300,112,190084,1,0,0:0:0:0:
84,136,190251,1,2,0:0:0:0:
84,136,190334,1,2,0:0:0:0:
84,136,190417,1,0,0:0:0:0:
92,132,190584,1,0,0:0:0:0:
92,132,190667,1,2,0:0:0:0:
92,132,190751,1,2,0:0:0:0:
280,128,190917,1,0,0:0:0:0:
280,128,191001,1,0,0:0:0:0:
280,128,191084,1,2,0:0:0:0:
224,132,191167,1,2,0:0:0:0:
224,132,191251,1,0,0:0:0:0:
160,124,191334,1,2,0:0:0:0:
48,112,191417,1,2,0:0:0:0:
48,112,191501,1,2,0:0:0:0:
112,112,191584,1,0,0:0:0:0:
112,112,191667,1,2,0:0:0:0:
112,112,191751,1,2,0:0:0:0:
124,136,191917,1,2,0:0:0:0:
124,136,192001,1,2,0:0:0:0:
124,136,192084,1,2,0:0:0:0:
124,136,192167,1,2,0:0:0:0:
124,136,192251,1,0,0:0:0:0:
116,132,192417,1,2,0:0:0:0:
116,132,192501,1,0,0:0:0:0:
116,132,192584,1,2,0:0:0:0:
116,132,192667,1,0,0:0:0:0:
116,132,192751,1,2,0:0:0:0:
108,128,192834,1,0,0:0:0:0:
108,128,192917,1,2,0:0:0:0:
108,128,193001,1,0,0:0:0:0:
100,120,193251,1,2,0:0:0:0:
100,120,193334,1,0,0:0:0:0:
100,120,193417,1,2,0:0:0:0:
104,120,193501,1,2,0:0:0:0:
288,112,193584,1,0,0:0:0:0:
288,112,193640,1,0,0:0:0:0:
288,112,193695,1,0,0:0:0:0:
288,112,193751,1,0,0:0:0:0:
124,144,193834,1,2,0:0:0:0:
124,144,193917,1,0,0:0:0:0:
176,132,194001,1,2,0:0:0:0:
176,132,194084,1,2,0:0:0:0:
176,132,194167,1,2,0:0:0:0:
176,132,194251,1,0,0:0:0:0:
236,180,194334,1,2,0:0:0:0:
236,180,194417,1,0,0:0:0:0:
236,180,194501,1,2,0:0:0:0:
236,180,194584,1,0,0:0:0:0:
236,180,194667,1,2,0:0:0:0:
236,180,194751,1,2,0:0:0:0:
236,180,194834,1,2,0:0:0:0:
328,132,194917,1,0,0:0:0:0:
328,132,194973,1,0,0:0:0:0:
328,132,195029,1,0,0:0:0:0:
328,132,195084,1,2,0:0:0:0:
128,120,195167,1,0,0:0:0:0:
136,120,195251,1,2,0:0:0:0:
144,116,195334,1,0,0:0:0:0:
144,116,195417,1,0,0:0:0:0:
144,116,195501,1,0,0:0:0:0:
144,116,195584,1,2,0:0:0:0:
144,116,195667,1,0,0:0:0:0:
144,116,195751,1,2,0:0:0:0:
144,116,195834,1,2,0:0:0:0:
144,116,195917,1,2,0:0:0:0:
144,116,196001,1,0,0:0:0:0:
144,100,196084,1,2,0:0:0:0:
144,100,196167,1,0,0:0:0:0:
328,128,196251,1,0,0:0:0:0:
328,128,196306,1,0,0:0:0:0:
328,128,196362,1,0,0:0:0:0:
328,128,196417,1,2,0:0:0:0:
328,128,196501,1,2,0:0:0:0:
160,136,196584,1,2,0:0:0:0:
160,136,196667,1,2,0:0:0:0:
160,132,196751,1,0,0:0:0:0:
160,132,196834,1,2,0:0:0:0:
160,136,196917,1,0,0:0:0:0:
160,136,197001,1,0,0:0:0:0:
160,136,197084,1,2,0:0:0:0:
160,136,197167,1,2,0:0:0:0:
160,136,197251,1,2,0:0:0:0:
160,136,197334,1,2,0:0:0:0:
160,136,197418,1,0,0:0:0:0:
228,124,197751,1,0,0:0:0:0:
168,40,197834,1,2,0:0:0:0:
168,40,197917,1,0,0:0:0:0:
44,120,198084,1,2,0:0:0:0:
44,120,198251,1,0,0:0:0:0:
120,112,198417,1,0,0:0:0:0:
120,112,198501,1,2,0:0:0:0:
120,112,198584,1,0,0:0:0:0:
120,112,198751,1,2,0:0:0:0:
296,92,198917,1,0,0:0:0:0:
296,92,199001,1,0,0:0:0:0:
296,92,199084,1,0,0:0:0:0:
116,136,199167,1,2,0:0:0:0:
116,136,199251,1,0,0:0:0:0:
116,136,199334,1,2,0:0:0:0:
132,164,199417,1,0,0:0:0:0:
132,164,199501,1,0,0:0:0:0:
132,164,199584,1,2,0:0:0:0:
132,164,199667,1,2,0:0:0:0:
132,164,199751,1,2,0:0:0:0:
132,164,199834,1,0,0:0:0:0:
132,164,199917,1,2,0:0:0:0:
132,164,200001,1,0,0:0:0:0:
132,164,200084,1,2,0:0:0:0:
64,136,200167,1,0,0:0:0:0:
132,164,200251,1,0,0:0:0:0:
132,164,200306,1,0,0:0:0:0:
132,164,200362,1,0,0:0:0:0:
280,96,200417,1,2,0:0:0:0:
160,176,200501,1,2,0:0:0:0:
160,176,200584,1,0,0:0:0:0:
160,176,200667,1,0,0:0:0:0:
160,176,200751,1,2,0:0:0:0:
160,176,200834,1,0,0:0:0:0:
160,176,200917,1,0,0:0:0:0:
56,124,201001,1,0,0:0:0:0:
160,112,201084,1,2,0:0:0:0:
160,112,201167,1,2,0:0:0:0:
160,112,201251,1,2,0:0:0:0:
160,112,201334,1,0,0:0:0:0:
160,112,201417,1,2,0:0:0:0:
160,112,201501,1,2,0:0:0:0:
160,112,201584,1,0,0:0:0:0:
164,108,201640,1,0,0:0:0:0:
164,108,201695,1,0,0:0:0:0:
164,108,201751,1,0,0:0:0:0:
120,120,201834,1,2,0:0:0:0:
120,120,201917,1,0,0:0:0:0:
120,120,202001,1,0,0:0:0:0:
120,120,202084,1,2,0:0:0:0:
120,120,202167,1,0,0:0:0:0:
120,120,202251,1,2,0:0:0:0:
120,120,202334,1,0,0:0:0:0:
120,120,202417,1,2,0:0:0:0:
120,120,202501,1,2,0:0:0:0:
120,120,202584,1,2,0:0:0:0:
120,120,202667,1,0,0:0:0:0:
120,120,202751,1,2,0:0:0:0:
84,108,202834,1,2,0:0:0:0:
336,112,202917,1,0,0:0:0:0:
336,112,202973,1,0,0:0:0:0:
336,112,203029,1,0,0:0:0:0:
336,112,203084,1,2,0:0:0:0:
264,128,203167,1,0,0:0:0:0:
264,128,203251,1,2,0:0:0:0:
264,128,203334,1,0,0:0:0:0:
264,128,203417,1,0,0:0:0:0:
264,128,203501,1,0,0:0:0:0:
264,120,203584,1,2,0:0:0:0:
264,120,203667,1,2,0:0:0:0:
264,120,203751,1,0,0:0:0:0:
264,120,203834,1,2,0:0:0:0:
104,128,203917,1,0,0:0:0:0:
104,128,204001,1,2,0:0:0:0:
136,120,204084,1,0,0:0:0:0:
136,120,204167,1,0,0:0:0:0:
312,144,204251,1,0,0:0:0:0:
312,144,204306,1,0,0:0:0:0:
312,144,204362,1,0,0:0:0:0:
312,144,204417,1,2,0:0:0:0:
308,192,204501,1,2,0:0:0:0:
308,192,204584,1,2,0:0:0:0:
308,192,204667,1,2,0:0:0:0:
308,192,204751,1,0,0:0:0:0:
308,192,204834,1,0,0:0:0:0:
308,192,204917,1,0,0:0:0:0:
308,192,205001,1,0,0:0:0:0:
308,192,205084,1,2,0:0:0:0:
308,192,205167,1,0,0:0:0:0:
308,192,205251,1,0,0:0:0:0:
308,192,205334,1,0,0:0:0:0:
308,192,205417,1,2,0:0:0:0:
340,112,205473,1,0,0:0:0:0:
340,112,205529,1,0,0:0:0:0:
340,112,205584,1,0,0:0:0:0:
340,112,205640,1,0,0:0:0:0:
340,112,205695,1,0,0:0:0:0:
340,112,205751,1,2,0:0:0:0:
120,136,205834,1,0,0:0:0:0:
120,136,205917,1,2,0:0:0:0:
120,136,206001,1,0,0:0:0:0:
120,136,206084,1,0,0:0:0:0:
120,136,206167,1,0,0:0:0:0:
120,136,206251,1,0,0:0:0:0:
120,136,206334,1,2,0:0:0:0:
120,136,206417,1,2,0:0:0:0:
120,136,206501,1,2,0:0:0:0:
120,136,206584,1,0,0:0:0:0:
120,136,206667,1,2,0:0:0:0:
328,136,206751,1,0,0:0:0:0:
328,136,206806,1,0,0:0:0:0:
328,136,206862,1,0,0:0:0:0:
328,136,206917,1,2,0:0:0:0:
328,136,206973,1,0,0:0:0:0:
328,136,207029,1,0,0:0:0:0:
328,136,207084,1,2,0:0:0:0:
236,144,207167,1,0,0:0:0:0:
236,144,207251,1,2,0:0:0:0:
236,144,207334,1,2,0:0:0:0:
52,128,207417,1,0,0:0:0:0:
128,144,207501,1,2,0:0:0:0:
128,144,207584,1,0,0:0:0:0:
84,124,207667,1,2,0:0:0:0:
96,120,207751,1,2,0:0:0:0:
96,120,207834,1,0,0:0:0:0:
96,120,207917,1,2,0:0:0:0:
96,120,208001,1,0,0:0:0:0:
312,192,208084,1,2,0:0:0:0:
400,160,208140,1,2,0:0:0:0:
400,160,208195,1,2,0:0:0:0:
400,160,208251,1,2,0:0:0:0:
400,160,208306,1,2,0:0:0:0:
400,160,208362,1,2,0:0:0:0:
296,124,208417,1,0,0:0:0:0:
296,124,208501,1,2,0:0:0:0:
296,124,208584,1,2,0:0:0:0:
296,124,208667,1,2,0:0:0:0:
296,124,208751,1,2,0:0:0:0:
296,124,208834,1,0,0:0:0:0:
296,124,208917,1,0,0:0:0:0:
296,124,209001,1,0,0:0:0:0:
296,124,209084,1,0,0:0:0:0:
296,124,209167,1,0,0:0:0:0:
296,124,209251,1,2,0:0:0:0:
296,124,209334,1,0,0:0:0:0:
184,124,209417,1,2,0:0:0:0:
184,124,209473,1,0,0:0:0:0:
184,124,209529,1,0,0:0:0:0:
184,124,209584,1,2,0:0:0:0:
184,124,209640,1,0,0:0:0:0:
184,124,209695,1,0,0:0:0:0:
184,124,209751,1,0,0:0:0:0:
104,172,209834,1,2,0:0:0:0:
112,176,209917,1,0,0:0:0:0:
112,176,210001,1,2,0:0:0:0:
112,176,210084,1,0,0:0:0:0:
112,176,210167,1,0,0:0:0:0:
112,176,210251,1,0,0:0:0:0:
112,176,210334,1,2,0:0:0:0:
112,152,210417,1,0,0:0:0:0:
112,152,210501,1,2,0:0:0:0:
136,156,210584,1,0,0:0:0:0:
136,156,210667,1,2,0:0:0:0:
296,160,210751,1,0,0:0:0:0:
296,160,210806,1,0,0:0:0:0:
296,160,210862,1,0,0:0:0:0:
296,160,210917,1,0,0:0:0:0:
296,160,210973,1,0,0:0:0:0:
296,160,211029,1,0,0:0:0:0:
296,160,211084,1,2,0:0:0:0:
264,188,211167,1,0,0:0:0:0:
264,188,211251,1,2,0:0:0:0:
264,188,211334,1,0,0:0:0:0:
264,188,211417,1,2,0:0:0:0:
264,188,211501,1,2,0:0:0:0:
264,188,211584,1,2,0:0:0:0:
264,188,211667,1,0,0:0:0:0:
264,188,211751,1,2,0:0:0:0:
156,140,211834,1,0,0:0:0:0:
156,140,211917,1,2,0:0:0:0:
156,140,212001,1,0,0:0:0:0:
328,164,212084,1,2,0:0:0:0:
328,164,212140,1,2,0:0:0:0:
328,164,212195,1,2,0:0:0:0:
104,128,212251,1,0,0:0:0:0:
104,128,212306,1,0,0:0:0:0:
144,108,212362,1,0,0:0:0:0:
144,108,212417,1,2,0:0:0:0:
296,132,212501,1,2,0:0:0:0:
296,132,212584,1,2,0:0:0:0:
296,132,212667,1,2,0:0:0:0:
296,132,212751,1,2,0:0:0:0:
296,132,212834,1,0,0:0:0:0:
296,132,212917,1,0,0:0:0:0:
296,132,213001,1,0,0:0:0:0:
296,132,213084,1,0,0:0:0:0:
296,132,213167,1,0,0:0:0:0:
296,132,213251,1,2,0:0:0:0:
296,132,213334,1,0,0:0:0:0:
328,132,213417,1,0,0:0:0:0:
328,132,213473,1,0,0:0:0:0:
328,132,213529,1,0,0:0:0:0:
328,132,213584,1,2,0:0:0:0:
328,132,213640,1,0,0:0:0:0:
328,132,213695,1,0,0:0:0:0:
328,132,213751,1,0,0:0:0:0:
120,136,213834,1,2,0:0:0:0:
120,136,213917,1,0,0:0:0:0:
120,136,214001,1,2,0:0:0:0:
120,136,214084,1,0,0:0:0:0:
120,136,214167,1,0,0:0:0:0:
120,136,214251,1,0,0:0:0:0:
120,136,214334,1,2,0:0:0:0:
120,136,214417,1,0,0:0:0:0:
120,136,214501,1,2,0:0:0:0:
196,180,214584,1,0,0:0:0:0:
196,180,214667,1,2,0:0:0:0:
328,132,214751,1,0,0:0:0:0:
328,132,214806,1,0,0:0:0:0:
328,132,214862,1,0,0:0:0:0:
328,132,214917,1,0,0:0:0:0:
328,132,214973,1,0,0:0:0:0:
328,132,215029,1,0,0:0:0:0:
328,132,215084,1,2,0:0:0:0:
132,152,215167,1,0,0:0:0:0:
132,152,215251,1,0,0:0:0:0:
132,152,215334,1,0,0:0:0:0:
140,164,215417,1,2,0:0:0:0:
140,164,215501,1,2,0:0:0:0:
140,164,215584,1,2,0:0:0:0:
140,164,215667,1,2,0:0:0:0:
140,164,215751,1,2,0:0:0:0:
140,164,215834,1,2,0:0:0:0:
140,164,215917,1,2,0:0:0:0:
140,164,216001,1,2,0:0:0:0:
132,164,216084,1,2,0:0:0:0:
132,164,216167,1,2,0:0:0:0:
160,144,216251,1,0,0:0:0:0:
160,144,216306,1,0,0:0:0:0:
160,144,216362,1,0,0:0:0:0:
160,144,216417,1,0,0:0:0:0:
160,144,216501,1,2,0:0:0:0:
132,140,216584,1,0,0:0:0:0:
132,140,216667,1,2,0:0:0:0:
132,140,216751,1,0,0:0:0:0:
124,136,216834,1,0,0:0:0:0:
124,136,216917,1,0,0:0:0:0:
124,136,217001,1,2,0:0:0:0:
124,136,217084,1,0,0:0:0:0:
124,136,217167,1,2,0:0:0:0:
124,136,217251,1,0,0:0:0:0:
124,136,217334,1,2,0:0:0:0:
120,136,217417,1,0,0:0:0:0:
120,136,217501,1,0,0:0:0:0:
356,136,217584,1,0,0:0:0:0:
356,136,217668,1,0,0:0:0:0:
356,136,217751,1,2,0:0:0:0:
152,144,217834,1,2,0:0:0:0:
152,144,217917,1,2,0:0:0:0:
152,144,218001,1,2,0:0:0:0:
152,144,218084,1,0,0:0:0:0:
152,144,218167,1,0,0:0:0:0:
152,144,218251,1,0,0:0:0:0:
152,144,218334,1,0,0:0:0:0:
152,144,218417,1,0,0:0:0:0:
152,144,218501,1,0,0:0:0:0:
152,144,218584,1,0,0:0:0:0:
152,144,218667,1,0,0:0:0:0:
152,144,218751,1,0,0:0:0:0:
152,144,218834,1,0,0:0:0:0:
240,160,218917,1,2,0:0:0:0:
240,160,218973,1,2,0:0:0:0:
240,160,219029,1,2,0:0:0:0:
240,160,219084,1,0,0:0:0:0:
184,132,219167,1,2,0:0:0:0:
184,132,219251,1,0,0:0:0:0:
184,132,219334,1,2,0:0:0:0:
184,132,219417,1,0,0:0:0:0:
184,132,219501,1,0,0:0:0:0:
184,132,219584,1,0,0:0:0:0:
184,132,219667,1,2,0:0:0:0:
184,132,219751,1,0,0:0:0:0:
184,132,219834,1,2,0:0:0:0:
184,132,219917,1,0,0:0:0:0:
184,132,220001,1,2,0:0:0:0:
184,132,220084,1,0,0:0:0:0:
136,124,220167,1,0,0:0:0:0:
332,128,220251,1,0,0:0:0:0:
332,128,220418,1,2,0:0:0:0:
332,128,220501,1,0,0:0:0:0:
168,148,220584,5,2,0:0:0:0:
168,148,220667,1,0,0:0:0:0:
168,148,220751,1,2,0:0:0:0:
224,148,220834,1,2,0:0:0:0:
224,148,220917,1,0,0:0:0:0:
224,148,221001,1,0,0:0:0:0:
224,136,221084,1,2,0:0:0:0:
224,136,221167,1,0,0:0:0:0:
224,136,221251,1,2,0:0:0:0:
216,136,221417,1,0,0:0:0:0:
68,132,221584,1,2,0:0:0:0:
68,132,221667,1,0,0:0:0:0:
68,132,221751,1,2,0:0:0:0:
68,132,221834,1,0,0:0:0:0:
68,132,221917,1,0,0:0:0:0:
124,160,222084,1,2,0:0:0:0:
124,160,222167,1,2,0:0:0:0:
124,160,222251,1,2,0:0:0:0:
124,160,222334,1,2,0:0:0:0:
124,160,222417,1,0,0:0:0:0:
164,80,222584,1,2,0:0:0:0:
164,80,222667,1,0,0:0:0:0:
164,80,222751,1,2,0:0:0:0:
164,80,222834,1,0,0:0:0:0:
164,80,222917,1,0,0:0:0:0:
148,148,223084,1,2,0:0:0:0:
148,148,223167,1,0,0:0:0:0:
148,148,223251,1,2,0:0:0:0:
148,148,223334,1,0,0:0:0:0:
148,148,223417,1,0,0:0:0:0:
148,148,223501,1,0,0:0:0:0:
148,148,223584,1,2,0:0:0:0:
116,132,223667,1,0,0:0:0:0:
116,132,223751,1,2,0:0:0:0:
104,128,223917,1,0,0:0:0:0:
96,128,224084,1,2,0:0:0:0:
96,128,224167,1,0,0:0:0:0:
96,128,224251,1,2,0:0:0:0:
96,128,224334,1,2,0:0:0:0:
96,128,224417,1,0,0:0:0:0:
96,128,224501,1,2,0:0:0:0:
96,128,224584,1,2,0:0:0:0:
96,128,224667,1,0,0:0:0:0:
268,108,224751,1,2,0:0:0:0:
204,128,224917,1,0,0:0:0:0:
204,128,225001,1,0,0:0:0:0:
204,128,225084,1,2,0:0:0:0:
72,192,225167,1,2,0:0:0:0:
72,192,225251,1,0,0:0:0:0:
204,144,225417,1,0,0:0:0:0:
204,148,225473,1,0,0:0:0:0:
204,148,225529,1,0,0:0:0:0:
200,148,225584,1,2,0:0:0:0:
200,148,225640,1,0,0:0:0:0:
200,148,225695,1,0,0:0:0:0:
200,148,225751,1,2,0:0:0:0:
240,176,225834,1,2,0:0:0:0:
240,176,225917,1,0,0:0:0:0:
240,176,226084,1,2,0:0:0:0:
240,176,226167,1,0,0:0:0:0:
240,176,226251,1,2,0:0:0:0:
240,176,226334,1,2,0:0:0:0:
240,176,226417,1,2,0:0:0:0:
148,112,226584,1,2,0:0:0:0:
148,112,226667,1,0,0:0:0:0:
148,112,226751,1,2,0:0:0:0:
256,84,226806,1,0,0:0:0:0:
256,84,226862,1,0,0:0:0:0:
256,84,226917,1,2,0:0:0:0:
256,84,226973,1,2,0:0:0:0:
256,84,227029,1,2,0:0:0:0:
256,84,227084,1,0,0:0:0:0:
296,104,227167,1,2,0:0:0:0:
296,104,227251,1,0,0:0:0:0:
296,104,227417,1,0,0:0:0:0:
296,104,227584,1,2,0:0:0:0:
296,104,227667,1,0,0:0:0:0:
296,104,227917,1,2,0:0:0:0:
296,104,228001,1,0,0:0:0:0:
296,104,228084,1,0,0:0:0:0:
296,104,228251,1,2,0:0:0:0:
296,104,228334,1,2,0:0:0:0:
92,124,228417,1,0,0:0:0:0:
92,124,228501,1,2,0:0:0:0:
92,124,228584,1,0,0:0:0:0:
92,124,228751,1,2,0:0:0:0:
92,124,228917,1,0,0:0:0:0:
92,124,229001,1,0,0:0:0:0:
92,124,229251,1,0,0:0:0:0:
92,124,229334,1,0,0:0:0:0:
92,124,229417,1,2,0:0:0:0:
84,120,229584,1,2,0:0:0:0:
84,120,229667,1,0,0:0:0:0:
84,120,229751,1,2,0:0:0:0:
84,120,229834,1,2,0:0:0:0:
84,120,229917,1,0,0:0:0:0:
92,136,230084,1,2,0:0:0:0:
92,136,230251,1,2,0:0:0:0:
92,136,230334,1,2,0:0:0:0:
92,136,230417,1,0,0:0:0:0:
168,120,230584,1,2,0:0:0:0:
168,120,230667,1,0,0:0:0:0:
168,120,230751,1,2,0:0:0:0:
168,120,230834,1,0,0:0:0:0:
168,120,230917,1,0,0:0:0:0:
168,120,231084,1,0,0:0:0:0:
168,120,231167,1,2,0:0:0:0:
168,120,231251,1,2,0:0:0:0:
168,120,231334,1,0,0:0:0:0:
168,120,231417,1,2,0:0:0:0:
160,116,231584,1,0,0:0:0:0:
160,116,231667,1,0,0:0:0:0:
148,116,231751,1,2,0:0:0:0:
148,116,231834,1,2,0:0:0:0:
148,116,231917,1,0,0:0:0:0:
164,72,232084,1,0,0:0:0:0:
172,136,232251,1,2,0:0:0:0:
172,136,232334,1,0,0:0:0:0:
172,136,232417,1,2,0:0:0:0:
172,136,232501,1,2,0:0:0:0:
172,136,232584,1,0,0:0:0:0:
184,116,232751,1,2,0:0:0:0:
184,116,232834,1,2,0:0:0:0:
184,116,232917,1,2,0:0:0:0:
184,116,233001,1,2,0:0:0:0:
184,116,233084,1,0,0:0:0:0:
92,152,233251,1,2,0:0:0:0:
92,152,233334,1,0,0:0:0:0:
92,152,233417,1,2,0:0:0:0:
92,152,233501,1,0,0:0:0:0:
92,152,233584,1,0,0:0:0:0:
124,104,233751,1,2,0:0:0:0:
124,104,233834,1,2,0:0:0:0:
124,104,233917,1,0,0:0:0:0:
128,128,234084,1,2,0:0:0:0:
136,128,234251,1,2,0:0:0:0:
136,128,234334,1,0,0:0:0:0:
136,128,234584,1,2,0:0:0:0:
136,128,234667,1,0,0:0:0:0:
136,128,234751,1,0,0:0:0:0:
132,128,234917,1,2,0:0:0:0:
132,128,235001,1,0,0:0:0:0:
128,128,235084,1,0,0:0:0:0:
128,128,235167,1,2,0:0:0:0:
128,128,235251,1,0,0:0:0:0:
112,140,235417,1,2,0:0:0:0:
124,144,235584,1,0,0:0:0:0:
124,144,235667,1,0,0:0:0:0:
132,120,235917,1,0,0:0:0:0:
136,120,236084,1,2,0:0:0:0:
200,100,236251,1,2,0:0:0:0:
200,100,236334,1,0,0:0:0:0:
200,100,236417,1,2,0:0:0:0:
200,100,236501,1,2,0:0:0:0:
200,100,236584,1,0,0:0:0:0:
200,100,236751,1,2,0:0:0:0:
200,100,236917,1,2,0:0:0:0:
200,100,237001,1,2,0:0:0:0:
244,124,237251,1,2,0:0:0:0:
244,124,237334,1,0,0:0:0:0:
244,124,237417,1,2,0:0:0:0:
244,124,237501,1,0,0:0:0:0:
244,124,237584,1,0,0:0:0:0:
244,124,237751,1,2,0:0:0:0:
244,124,237834,1,0,0:0:0:0:
244,124,237917,1,2,0:0:0:0:
244,124,238001,1,0,0:0:0:0:
244,124,238084,1,2,0:0:0:0:
244,124,238167,1,2,0:0:0:0:
244,124,238251,1,2,0:0:0:0:
244,124,238334,1,0,0:0:0:0:
244,124,238417,1,2,0:0:0:0:
136,144,238501,1,0,0:0:0:0:
136,144,238584,1,2,0:0:0:0:
136,144,238667,1,0,0:0:0:0:
136,144,238751,1,2,0:0:0:0:
136,144,238834,1,2,0:0:0:0:
136,144,238917,1,0,0:0:0:0:
132,148,239001,1,0,0:0:0:0:
128,148,239084,1,2,0:0:0:0:
128,148,239167,1,2,0:0:0:0:
128,148,239251,1,2,0:0:0:0:
128,148,239334,1,2,0:0:0:0:
124,144,239417,1,0,0:0:0:0:
124,144,239501,1,2,0:0:0:0:
124,144,239584,1,2,0:0:0:0:
124,144,239667,1,2,0:0:0:0:
124,144,239751,1,2,0:0:0:0:
124,144,239834,1,2,0:0:0:0:
116,140,239917,1,0,0:0:0:0:
124,144,240001,1,2,0:0:0:0:
116,140,240084,1,2,0:0:0:0:
112,144,240167,1,0,0:0:0:0:
112,144,240251,1,2,0:0:0:0:
96,136,240306,1,0,0:0:0:0:
96,136,240362,1,0,0:0:0:0:
96,136,240417,1,0,0:0:0:0:
160,144,240501,1,2,0:0:0:0:
176,140,240584,1,0,0:0:0:0:
176,140,240667,1,2,0:0:0:0:
176,140,240751,1,2,0:0:0:0:
176,140,240834,1,0,0:0:0:0:
176,140,240917,1,2,0:0:0:0:
176,140,241001,1,2,0:0:0:0:
176,140,241084,1,0,0:0:0:0:
52,140,241167,1,0,0:0:0:0:
52,140,241250,1,2,0:0:0:0:
52,140,241333,1,0,0:0:0:0:
52,140,241417,1,2,0:0:0:0:
52,140,241501,1,0,0:0:0:0:
244,112,241584,1,0,0:0:0:0:
244,112,241668,1,0,0:0:0:0:
244,112,241751,1,0,0:0:0:0:
224,116,241834,1,2,0:0:0:0:
224,108,241917,1,0,0:0:0:0:
224,116,242084,1,2,0:0:0:0:
224,116,242251,1,0,0:0:0:0:
224,116,242417,1,0,0:0:0:0:
224,116,242584,1,2,0:0:0:0:
284,144,242751,1,2,0:0:0:0:
284,144,242806,1,0,0:0:0:0:
284,144,242862,1,0,0:0:0:0:
284,144,242917,1,2,0:0:0:0:
284,144,242973,1,0,0:0:0:0:
284,144,243029,1,0,0:0:0:0:
284,144,243084,1,2,0:0:0:0:
324,116,243167,1,2,0:0:0:0:
324,116,243251,1,0,0:0:0:0:
324,116,243417,1,2,0:0:0:0:
324,116,243501,1,0,0:0:0:0:
324,116,243584,1,2,0:0:0:0:
324,116,243667,1,2,0:0:0:0:
168,44,243751,1,2,0:0:0:0:
112,128,243917,1,2,0:0:0:0:
112,128,244001,1,0,0:0:0:0:
112,128,244084,1,2,0:0:0:0:
184,120,244140,1,2,0:0:0:0:
184,120,244195,1,2,0:0:0:0:
184,120,244251,1,0,0:0:0:0:
184,120,244306,1,0,0:0:0:0:
184,120,244362,1,0,0:0:0:0:
184,120,244417,1,2,0:0:0:0:
312,84,244501,1,0,0:0:0:0:
312,84,244584,1,0,0:0:0:0:
252,168,244751,1,0,0:0:0:0:
252,168,244917,1,2,0:0:0:0:
252,168,245001,1,0,0:0:0:0:
252,168,245084,1,0,0:0:0:0:
252,168,245251,1,2,0:0:0:0:
360,116,245417,1,0,0:0:0:0:
360,120,245473,1,0,0:0:0:0:
360,116,245529,1,0,0:0:0:0:
356,120,245584,1,2,0:0:0:0:
356,120,245640,1,0,0:0:0:0:
356,120,245695,1,0,0:0:0:0:
356,120,245751,1,2,0:0:0:0:
304,104,245834,1,0,0:0:0:0:
308,100,245917,1,2,0:0:0:0:
104,112,246084,1,2,0:0:0:0:
104,112,246251,1,0,0:0:0:0:
104,112,246417,1,0,0:0:0:0:
104,112,246584,1,2,0:0:0:0:
336,100,246751,1,2,0:0:0:0:
336,100,246806,1,0,0:0:0:0:
336,100,246862,1,0,0:0:0:0:
336,100,246917,1,2,0:0:0:0:
336,100,246973,1,2,0:0:0:0:
336,100,247029,1,2,0:0:0:0:
336,100,247084,1,0,0:0:0:0:
316,124,247167,1,2,0:0:0:0:
316,124,247251,1,0,0:0:0:0:
312,112,247417,1,2,0:0:0:0:
312,112,247584,1,0,0:0:0:0:
312,112,247751,1,0,0:0:0:0:
152,60,247917,1,2,0:0:0:0:
316,72,248084,1,2,0:0:0:0:
316,72,248140,1,0,0:0:0:0:
316,72,248195,1,0,0:0:0:0:
316,72,248251,1,2,0:0:0:0:
316,72,248306,1,0,0:0:0:0:
316,72,248362,1,0,0:0:0:0:
252,128,248417,1,2,0:0:0:0:
252,128,248501,1,2,0:0:0:0:
252,128,248584,1,0,0:0:0:0:
304,136,248751,1,2,0:0:0:0:
304,136,248834,1,0,0:0:0:0:
304,136,248917,1,2,0:0:0:0:
304,136,249001,1,2,0:0:0:0:
304,136,249084,1,0,0:0:0:0:
296,136,249251,1,2,0:0:0:0:
296,136,249334,1,0,0:0:0:0:
184,128,249417,1,0,0:0:0:0:
184,128,249473,1,0,0:0:0:0:
184,128,249529,1,0,0:0:0:0:
184,128,249584,1,2,0:0:0:0:
184,128,249640,1,0,0:0:0:0:
184,128,249695,1,0,0:0:0:0:
184,128,249751,1,2,0:0:0:0:
184,128,249834,1,2,0:0:0:0:
188,128,249917,1,0,0:0:0:0:
296,136,250084,1,0,0:0:0:0:
296,136,250251,1,2,0:0:0:0:
296,136,250334,1,0,0:0:0:0:
296,136,250417,1,0,0:0:0:0:
296,136,250584,1,2,0:0:0:0:
192,104,250751,1,0,0:0:0:0:
192,104,250806,1,0,0:0:0:0:
192,104,250862,1,0,0:0:0:0:
176,124,250917,1,2,0:0:0:0:
176,124,250973,1,2,0:0:0:0:
176,124,251029,1,2,0:0:0:0:
176,124,251084,1,0,0:0:0:0:
176,124,251167,1,2,0:0:0:0:
176,124,251251,1,0,0:0:0:0:
296,136,251417,1,2,0:0:0:0:
296,136,251584,1,0,0:0:0:0:
296,136,251751,1,0,0:0:0:0:
296,136,251917,1,2,0:0:0:0:
132,132,252084,1,2,0:0:0:0:
132,132,252140,1,0,0:0:0:0:
132,132,252195,1,0,0:0:0:0:
132,132,252251,1,2,0:0:0:0:
132,132,252306,1,0,0:0:0:0:
132,132,252362,1,0,0:0:0:0:
132,104,252418,1,2,0:0:0:0:
132,104,252501,1,0,0:0:0:0:
132,104,252584,1,0,0:0:0:0:
120,96,252751,1,2,0:0:0:0:
144,100,252917,1,0,0:0:0:0:
144,100,253251,1,2,0:0:0:0:
136,148,253417,1,0,0:0:0:0:
136,148,253501,1,0,0:0:0:0:
136,148,253584,1,0,0:0:0:0:
136,148,253640,1,0,0:0:0:0:
136,148,253695,1,0,0:0:0:0:
136,148,253751,1,2,0:0:0:0:
132,136,253834,1,2,0:0:0:0:
192,120,253917,1,0,0:0:0:0:
192,120,254084,1,0,0:0:0:0:
192,120,254251,1,2,0:0:0:0:
192,120,254584,1,2,0:0:0:0:
192,120,254751,1,0,0:0:0:0:
212,144,254834,1,0,0:0:0:0:
200,136,254917,1,0,0:0:0:0:
200,136,254973,1,0,0:0:0:0:
200,136,255029,1,0,0:0:0:0:
192,120,255084,1,0,0:0:0:0:
268,144,255167,1,2,0:0:0:0:
192,120,255251,1,0,0:0:0:0:
192,120,255417,1,2,0:0:0:0:
192,120,255584,1,0,0:0:0:0:
192,120,255917,1,2,0:0:0:0:
192,120,256084,1,0,0:0:0:0:
200,140,256167,1,0,0:0:0:0:
200,140,256251,1,0,0:0:0:0:
200,140,256306,1,0,0:0:0:0:
200,140,256362,1,0,0:0:0:0:
136,124,256417,1,2,0:0:0:0:
136,124,256501,1,2,0:0:0:0:
192,120,256584,1,0,0:0:0:0:
192,120,256751,1,0,0:0:0:0:
192,120,256917,1,2,0:0:0:0:
192,120,257251,1,2,0:0:0:0:
192,120,257417,1,0,0:0:0:0:
200,140,257501,1,0,0:0:0:0:
200,140,257584,1,0,0:0:0:0:
200,140,257640,1,0,0:0:0:0:
200,140,257695,1,0,0:0:0:0:
196,144,257751,1,0,0:0:0:0:
76,160,257834,1,2,0:0:0:0:
76,160,257917,1,2,0:0:0:0:
76,160,258001,1,0,0:0:0:0:
76,160,258084,1,2,0:0:0:0:
88,156,258167,1,0,0:0:0:0:
76,160,258251,1,0,0:0:0:0:
72,152,258417,1,0,0:0:0:0:
88,156,258584,1,2,0:0:0:0:
88,156,258667,1,0,0:0:0:0:
340,88,258751,1,0,0:0:0:0:
340,88,258806,1,0,0:0:0:0:
316,96,258862,1,0,0:0:0:0:
296,96,258917,1,0,0:0:0:0:
280,100,258973,1,0,0:0:0:0:
280,104,259029,1,0,0:0:0:0:
280,104,259084,1,2,0:0:0:0:
204,168,259167,1,0,0:0:0:0:
204,168,259251,1,2,0:0:0:0:
204,168,259334,1,0,0:0:0:0:
204,168,259417,1,2,0:0:0:0:
48,132,259501,1,0,0:0:0:0:
48,132,259584,1,0,0:0:0:0:
64,124,259751,1,2,0:0:0:0:
64,124,259917,1,2,0:0:0:0:
64,124,260001,1,0,0:0:0:0:
216,104,260084,1,0,0:0:0:0:
216,104,260140,1,0,0:0:0:0:
216,104,260195,1,0,0:0:0:0:
216,104,260251,1,0,0:0:0:0:
216,104,260306,1,0,0:0:0:0:
216,104,260362,1,0,0:0:0:0:
216,104,260417,1,2,0:0:0:0:
72,120,260501,1,2,0:0:0:0:
72,120,260584,1,2,0:0:0:0:
72,120,260667,1,2,0:0:0:0:
72,120,260751,1,0,0:0:0:0:
84,120,260917,1,2,0:0:0:0:
84,120,261001,1,0,0:0:0:0:
84,120,261084,1,0,0:0:0:0:
40,124,261251,1,2,0:0:0:0:
40,124,261334,1,2,0:0:0:0:
84,120,261417,1,2,0:0:0:0:
216,104,261473,1,0,0:0:0:0:
216,104,261529,1,0,0:0:0:0:
216,104,261584,1,0,0:0:0:0:
216,104,261640,1,0,0:0:0:0:
216,104,261695,1,0,0:0:0:0:
216,104,261751,1,2,0:0:0:0:
92,112,261834,1,0,0:0:0:0:
92,112,261917,1,2,0:0:0:0:
92,112,262001,1,2,0:0:0:0:
92,112,262084,1,2,0:0:0:0:
92,108,262251,1,2,0:0:0:0:
92,112,262584,1,2,0:0:0:0:
168,120,262751,1,0,0:0:0:0:
168,120,262834,1,0,0:0:0:0:
168,120,262917,1,2,0:0:0:0:
168,120,262973,1,0,0:0:0:0:
168,120,263029,1,0,0:0:0:0:
160,116,263084,1,2,0:0:0:0:
64,152,263167,1,2,0:0:0:0:
64,152,263251,1,0,0:0:0:0:
64,152,263417,1,2,0:0:0:0:
64,152,263584,1,2,0:0:0:0:
64,152,263917,1,0,0:0:0:0:
160,116,264084,1,0,0:0:0:0:
108,144,264140,1,0,0:0:0:0:
108,144,264195,1,0,0:0:0:0:
108,144,264251,1,0,0:0:0:0:
108,144,264306,1,0,0:0:0:0:
108,144,264362,1,0,0:0:0:0:
108,144,264418,1,2,0:0:0:0:
164,100,264501,1,2,0:0:0:0:
164,100,264584,1,2,0:0:0:0:
164,100,264667,1,2,0:0:0:0:
164,100,264751,1,0,0:0:0:0:
120,144,264917,1,2,0:0:0:0:
120,144,265001,1,0,0:0:0:0:
120,144,265084,1,0,0:0:0:0:
120,144,265251,1,2,0:0:0:0:
120,144,265334,1,2,0:0:0:0:
136,56,265417,1,2,0:0:0:0:
136,56,265473,1,0,0:0:0:0:
136,56,265529,1,0,0:0:0:0:
136,56,265584,1,2,0:0:0:0:
136,56,265640,1,0,0:0:0:0:
136,56,265695,1,0,0:0:0:0:
136,56,265751,1,2,0:0:0:0:
112,144,265834,1,0,0:0:0:0:
112,144,265917,1,2,0:0:0:0:
112,144,266001,1,2,0:0:0:0:
112,144,266084,1,2,0:0:0:0:
104,140,266251,1,2,0:0:0:0:
104,140,266417,1,0,0:0:0:0:
88,128,266584,1,2,0:0:0:0:
104,132,266667,1,0,0:0:0:0:
136,56,266751,1,2,0:0:0:0:
136,56,266806,1,0,0:0:0:0:
136,56,266862,1,0,0:0:0:0:
136,56,266917,1,0,0:0:0:0:
136,56,266973,1,0,0:0:0:0:
136,56,267029,1,0,0:0:0:0:
136,56,267084,1,2,0:0:0:0:
104,132,267167,1,0,0:0:0:0:
104,132,267251,1,2,0:0:0:0:
104,132,267334,1,0,0:0:0:0:
104,132,267417,1,2,0:0:0:0:
104,132,267501,1,0,0:0:0:0:
92,148,267584,1,0,0:0:0:0:
92,148,267751,1,2,0:0:0:0:
92,148,267917,1,0,0:0:0:0:
92,148,268001,1,2,0:0:0:0:
92,148,268084,1,0,0:0:0:0:
132,56,268140,1,0,0:0:0:0:
132,56,268195,1,0,0:0:0:0:
132,56,268251,1,0,0:0:0:0:
132,56,268306,1,0,0:0:0:0:
132,56,268362,1,0,0:0:0:0:
132,56,268417,1,2,0:0:0:0:
180,80,268501,1,0,0:0:0:0:
180,80,268584,1,2,0:0:0:0:
180,80,268667,1,2,0:0:0:0:
180,80,268751,1,0,0:0:0:0:
180,80,268834,1,0,0:0:0:0:
180,80,268917,1,2,0:0:0:0:
180,80,269084,1,0,0:0:0:0:
176,72,269251,1,2,0:0:0:0:
176,72,269334,1,0,0:0:0:0:
176,72,269417,1,0,0:0:0:0:
192,100,269473,1,0,0:0:0:0:
192,100,269529,1,0,0:0:0:0:
192,100,269584,1,2,0:0:0:0:
192,100,269640,1,0,0:0:0:0:
192,100,269695,1,0,0:0:0:0:
192,100,269751,1,2,0:0:0:0:
184,72,269834,1,0,0:0:0:0:
184,72,269917,1,2,0:0:0:0:
184,72,270001,1,0,0:0:0:0:
184,72,270084,1,2,0:0:0:0:
184,72,270167,1,0,0:0:0:0:
184,72,270251,1,2,0:0:0:0:
184,72,270334,1,2,0:0:0:0:
184,72,270417,1,2,0:0:0:0:
24,120,270584,1,0,0:0:0:0:
88,116,270667,1,2,0:0:0:0:
232,116,270751,1,0,0:0:0:0:
232,116,270806,1,0,0:0:0:0:
232,116,270862,1,0,0:0:0:0:
232,116,270917,1,2,0:0:0:0:
232,116,270973,1,2,0:0:0:0:
232,116,271029,1,2,0:0:0:0:
232,116,271084,1,2,0:0:0:0:
88,116,271167,1,2,0:0:0:0:
88,116,271251,1,2,0:0:0:0:
88,116,271334,1,2,0:0:0:0:
92,116,271417,1,0,0:0:0:0:
96,112,271584,1,2,0:0:0:0:
96,112,271667,1,0,0:0:0:0:
96,112,271751,1,2,0:0:0:0:
96,112,271917,1,0,0:0:0:0:
96,112,272001,1,0,0:0:0:0:
224,112,272084,1,0,0:0:0:0:
224,112,272140,1,0,0:0:0:0:
224,112,272195,1,0,0:0:0:0:
224,112,272251,1,2,0:0:0:0:
224,112,272306,1,0,0:0:0:0:
224,112,272362,1,0,0:0:0:0:
224,112,272417,1,2,0:0:0:0:
136,104,272501,1,0,0:0:0:0:
136,104,272584,1,2,0:0:0:0:
136,104,272667,1,2,0:0:0:0:
136,104,272751,1,2,0:0:0:0:
136,104,272834,1,0,0:0:0:0:
136,104,272917,1,2,0:0:0:0:
136,104,273084,1,0,0:0:0:0:
136,104,273251,1,2,0:0:0:0:
136,104,273334,1,0,0:0:0:0:
208,108,273417,1,2,0:0:0:0:
208,108,273473,1,0,0:0:0:0:
208,108,273529,1,0,0:0:0:0:
208,108,273584,1,2,0:0:0:0:
208,108,273640,1,0,0:0:0:0:
208,108,273695,1,0,0:0:0:0:
136,104,273751,1,2,0:0:0:0:
136,104,273834,1,0,0:0:0:0:
136,104,273917,1,2,0:0:0:0:
136,104,274001,1,0,0:0:0:0:
136,104,274084,1,2,0:0:0:0:
136,104,274167,1,0,0:0:0:0:
136,104,274251,1,2,0:0:0:0:
136,104,274334,1,2,0:0:0:0:
136,104,274417,1,2,0:0:0:0:
136,104,274584,1,2,0:0:0:0:
136,104,274667,1,0,0:0:0:0:
208,108,274751,1,0,0:0:0:0:
208,108,274806,1,0,0:0:0:0:
208,108,274862,1,0,0:0:0:0:
208,108,274917,1,2,0:0:0:0:
208,108,274973,1,2,0:0:0:0:
208,108,275029,1,2,0:0:0:0:
208,108,275084,1,2,0:0:0:0:
132,112,275167,1,2,0:0:0:0:
132,112,275251,1,2,0:0:0:0:
132,112,275334,1,2,0:0:0:0:
132,112,275417,1,0,0:0:0:0:
132,112,275584,1,2,0:0:0:0:
132,112,275667,1,0,0:0:0:0:
132,112,275751,1,2,0:0:0:0:
132,112,275917,1,0,0:0:0:0:
132,112,276001,1,0,0:0:0:0:
112,116,276084,1,0,0:0:0:0:
112,116,276140,1,0,0:0:0:0:
112,116,276195,1,0,0:0:0:0:
112,116,276251,1,0,0:0:0:0:
112,116,276306,1,0,0:0:0:0:
112,116,276362,1,0,0:0:0:0:
112,116,276417,1,2,0:0:0:0:
212,88,276501,1,2,0:0:0:0:
212,88,276584,1,0,0:0:0:0:
212,88,276667,1,2,0:0:0:0:
212,88,276751,1,2,0:0:0:0:
212,88,276917,1,2,0:0:0:0:
212,88,277001,1,0,0:0:0:0:
212,88,277084,1,0,0:0:0:0:
116,108,277251,1,2,0:0:0:0:
116,108,277334,1,0,0:0:0:0:
104,108,277417,1,2,0:0:0:0:
104,108,277473,1,0,0:0:0:0:
104,108,277529,1,0,0:0:0:0:
104,108,277584,1,2,0:0:0:0:
104,108,277640,1,0,0:0:0:0:
104,108,277695,1,0,0:0:0:0:
104,108,277751,1,2,0:0:0:0:
116,108,277834,1,0,0:0:0:0:
116,108,277917,1,2,0:0:0:0:
116,108,278001,1,0,0:0:0:0:
116,108,278084,1,2,0:0:0:0:
116,108,278167,1,0,0:0:0:0:
116,108,278251,1,2,0:0:0:0:
116,108,278417,1,2,0:0:0:0:
136,32,278584,1,0,0:0:0:0:
136,32,278667,1,2,0:0:0:0:
120,144,278751,1,0,0:0:0:0:
120,144,278807,1,0,0:0:0:0:
120,136,278862,1,0,0:0:0:0:
120,136,278918,1,2,0:0:0:0:
120,136,278973,1,2,0:0:0:0:
120,136,279029,1,2,0:0:0:0:
120,136,279084,1,0,0:0:0:0:
136,124,279167,1,0,0:0:0:0:
160,120,279251,1,2,0:0:0:0:
160,120,279334,1,2,0:0:0:0:
160,120,279417,1,2,0:0:0:0:
197,231,279501,1,0,0:0:0:0:
336,112,279584,1,2,0:0:0:0:
336,112,279640,1,2,0:0:0:0:
336,112,279695,1,2,0:0:0:0:
336,112,279751,1,0,0:0:0:0:
128,100,279918,1,2,0:0:0:0:
336,112,280001,1,0,0:0:0:0:
336,112,280084,1,2,0:0:0:0:
336,112,280168,1,0,0:0:0:0:
68,140,280251,1,2,0:0:0:0:
32,265,280334,1,0,0:0:0:0:
128,100,280417,1,2,0:0:0:0:
120,96,280501,1,2,0:0:0:0:
120,96,280584,1,0,0:0:0:0:
120,96,280667,1,2,0:0:0:0:
120,96,280751,1,0,0:0:0:0:
120,96,280834,1,2,0:0:0:0:
120,96,280918,1,0,0:0:0:0:
48,128,280973,1,0,0:0:0:0:
212,152,281029,1,0,0:0:0:0:
48,128,281084,1,2,0:0:0:0:
212,152,281251,1,0,0:0:0:0:
212,152,281334,1,2,0:0:0:0:
212,152,281417,1,0,0:0:0:0:
212,152,281501,1,2,0:0:0:0:
212,152,281584,1,2,0:0:0:0:
116,124,281751,1,2,0:0:0:0:
116,124,281834,1,2,0:0:0:0:
116,124,281917,1,0,0:0:0:0:
116,124,282001,1,2,0:0:0:0:
116,124,282084,1,0,0:0:0:0:
220,230,282167,1,0,0:0:0:0:
256,116,282251,1,2,0:0:0:0:
256,116,282306,1,0,0:0:0:0:
256,116,282362,1,0,0:0:0:0:
248,116,282417,1,2,0:0:0:0:
248,124,282584,1,0,0:0:0:0:
248,124,282667,1,2,0:0:0:0:
248,124,282751,1,0,0:0:0:0:
248,124,282834,1,2,0:0:0:0:
248,124,282917,1,2,0:0:0:0:
236,112,283084,1,2,0:0:0:0:
236,112,283167,1,0,0:0:0:0:
236,112,283251,1,0,0:0:0:0:
240,108,283417,1,2,0:0:0:0:
240,108,283501,1,0,0:0:0:0:
272,72,283584,1,0,0:0:0:0:
280,64,283640,1,0,0:0:0:0:
272,72,283695,1,2,0:0:0:0:
272,72,283751,1,2,0:0:0:0:
264,116,283917,1,2,0:0:0:0:
264,116,284001,1,0,0:0:0:0:
264,116,284084,1,2,0:0:0:0:
264,116,284167,1,2,0:0:0:0:
264,116,284251,1,2,0:0:0:0:
264,112,284334,1,0,0:0:0:0:
80,112,284417,1,2,0:0:0:0:
80,112,284501,1,0,0:0:0:0:
84,112,284584,1,2,0:0:0:0:
84,112,284667,1,0,0:0:0:0:
84,112,284751,1,2,0:0:0:0:
108,104,284834,1,2,0:0:0:0:
112,104,284917,1,0,0:0:0:0:
280,120,284973,1,0,0:0:0:0:
189,84,285029,1,0,0:0:0:0:
280,120,285084,1,2,0:0:0:0:
112,168,285251,1,0,0:0:0:0:
112,168,285334,1,2,0:0:0:0:
112,168,285417,1,2,0:0:0:0:
112,168,285501,1,0,0:0:0:0:
112,152,285584,1,2,0:0:0:0:
200,128,285751,1,2,0:0:0:0:
200,128,285834,1,0,0:0:0:0:
200,128,285917,1,2,0:0:0:0:
200,128,286001,1,0,0:0:0:0:
200,128,286084,1,2,0:0:0:0:
184,120,286167,1,2,0:0:0:0:
184,120,286251,1,0,0:0:0:0:
180,120,286417,1,2,0:0:0:0:
136,128,286584,1,2,0:0:0:0:
136,128,286667,1,0,0:0:0:0:
136,128,286751,1,0,0:0:0:0:
136,128,286834,1,0,0:0:0:0:
120,124,286917,1,2,0:0:0:0:
281,190,286973,1,0,0:0:0:0:
281,190,287029,1,0,0:0:0:0:
168,124,287084,1,2,0:0:0:0:
168,124,287167,1,2,0:0:0:0:
168,124,287251,1,2,0:0:0:0:
168,124,287334,1,0,0:0:0:0:
168,124,287417,1,2,0:0:0:0:
104,140,287501,1,2,0:0:0:0:
104,140,287584,1,2,0:0:0:0:
180,88,287917,1,2,0:0:0:0:
180,88,288001,1,0,0:0:0:0:
180,88,288084,1,2,0:0:0:0:
180,88,288167,1,2,0:0:0:0:
308,100,288251,1,0,0:0:0:0:
308,100,288306,1,0,0:0:0:0:
308,100,288362,1,0,0:0:0:0:
308,100,288417,1,2,0:0:0:0:
328,120,288501,1,2,0:0:0:0:
328,120,288584,1,0,0:0:0:0:
328,120,288751,1,0,0:0:0:0:
328,120,288834,1,2,0:0:0:0:
328,120,288917,1,2,0:0:0:0:
328,120,289001,1,2,0:0:0:0:
328,120,289084,1,0,0:0:0:0:
144,140,289251,1,0,0:0:0:0:
144,140,289334,1,2,0:0:0:0:
144,140,289417,1,2,0:0:0:0:
144,140,289501,1,0,0:0:0:0:
144,140,289584,1,2,0:0:0:0:
136,136,289751,1,2,0:0:0:0:
136,136,289834,1,0,0:0:0:0:
136,136,289917,1,0,0:0:0:0:
100,120,290001,1,0,0:0:0:0:
100,120,290084,1,2,0:0:0:0:
20,128,290167,1,2,0:0:0:0:
140,116,290251,1,2,0:0:0:0:
136,148,290417,1,2,0:0:0:0:
136,148,290584,1,2,0:0:0:0:
136,148,290667,1,0,0:0:0:0:
136,148,290751,1,0,0:0:0:0:
136,148,290834,1,0,0:0:0:0:
136,148,290917,1,2,0:0:0:0:
184,160,291084,1,2,0:0:0:0:
184,160,291167,1,0,0:0:0:0:
184,160,291251,1,0,0:0:0:0:
124,144,291417,1,2,0:0:0:0:
124,144,291501,1,2,0:0:0:0:
124,144,291584,1,2,0:0:0:0:
124,144,291667,1,0,0:0:0:0:
124,144,291751,1,0,0:0:0:0:
104,136,291917,1,0,0:0:0:0:
104,136,292001,1,2,0:0:0:0:
104,136,292084,1,2,0:0:0:0:
104,136,292167,1,0,0:0:0:0:
104,136,292251,1,2,0:0:0:0:
100,136,292417,1,2,0:0:0:0:
100,136,292501,1,0,0:0:0:0:
32,132,292584,1,0,0:0:0:0:
164,108,292640,1,0,0:0:0:0:
164,108,292695,1,0,0:0:0:0:
164,108,292751,1,2,0:0:0:0:
288,120,292917,1,2,0:0:0:0:
288,120,293001,1,0,0:0:0:0:
288,120,293084,1,2,0:0:0:0:
280,120,293251,1,0,0:0:0:0:
280,120,293334,1,2,0:0:0:0:
280,120,293417,1,2,0:0:0:0:
280,120,293501,1,2,0:0:0:0:
280,120,293584,1,2,0:0:0:0:
116,116,293751,1,2,0:0:0:0:
116,116,293834,1,0,0:0:0:0:
116,116,293917,1,0,0:0:0:0:
116,116,294001,1,0,0:0:0:0:
116,116,294084,1,2,0:0:0:0:
116,116,294167,1,2,0:0:0:0:
116,116,294251,1,2,0:0:0:0:
100,112,294417,1,2,0:0:0:0:
100,112,294584,1,0,0:0:0:0:
100,112,294668,1,2,0:0:0:0:
100,112,294751,1,2,0:0:0:0:
100,108,294834,1,0,0:0:0:0:
100,108,294918,1,2,0:0:0:0:
100,112,295084,1,2,0:0:0:0:
224,212,295167,1,0,0:0:0:0:
224,212,295251,1,2,0:0:0:0:
224,212,295417,1,2,0:0:0:0:
224,212,295473,1,0,0:0:0:0:
168,144,295529,1,0,0:0:0:0:
172,144,295584,1,2,0:0:0:0:
172,144,295640,1,2,0:0:0:0:
172,144,295695,1,2,0:0:0:0:
172,144,295751,1,0,0:0:0:0:
72,136,295834,1,0,0:0:0:0:
80,136,295917,1,2,0:0:0:0:
80,136,296001,1,0,0:0:0:0:
80,136,296084,1,0,0:0:0:0:
80,136,296167,1,2,0:0:0:0:
80,136,296251,1,0,0:0:0:0:
80,136,296334,1,0,0:0:0:0:
80,136,296417,1,2,0:0:0:0:
80,136,296501,1,0,0:0:0:0:
80,136,296584,1,0,0:0:0:0:
80,136,296751,1,2,0:0:0:0:
80,136,296834,1,2,0:0:0:0:
276,120,296917,1,0,0:0:0:0:
276,120,297001,1,0,0:0:0:0:
276,120,297084,1,2,0:0:0:0:
152,168,297140,1,2,0:0:0:0:
124,80,297196,1,2,0:0:0:0:
152,168,297251,1,2,0:0:0:0:
152,168,297334,1,0,0:0:0:0:
152,168,297417,1,2,0:0:0:0:
84,108,297501,1,0,0:0:0:0:
128,108,297584,1,0,0:0:0:0:
128,108,297667,1,2,0:0:0:0:
128,108,297751,1,2,0:0:0:0:
128,108,297834,1,2,0:0:0:0:
260,176,297917,1,2,0:0:0:0:
260,176,298084,1,2,0:0:0:0:
260,176,298167,1,0,0:0:0:0:
312,76,298223,1,0,0:0:0:0:
312,76,298279,1,0,0:0:0:0:
312,76,298334,1,0,0:0:0:0:
312,76,298417,1,0,0:0:0:0:
216,104,298501,1,0,0:0:0:0:
216,104,298584,1,2,0:0:0:0:
216,104,298667,1,2,0:0:0:0:
216,104,298751,1,2,0:0:0:0:
216,104,298834,1,0,0:0:0:0:
216,104,298917,1,2,0:0:0:0:
216,104,299001,1,2,0:0:0:0:
216,104,299084,1,0,0:0:0:0:
216,104,299167,1,2,0:0:0:0:
216,104,299251,1,2,0:0:0:0:
216,104,299417,1,2,0:0:0:0:
216,104,299501,1,2,0:0:0:0:
216,104,299584,1,0,0:0:0:0:
176,124,299640,1,0,0:0:0:0:
176,124,299695,1,0,0:0:0:0:
176,124,299751,1,2,0:0:0:0:
217,246,299834,1,2,0:0:0:0:
196,124,299917,1,2,0:0:0:0:
196,124,300001,1,0,0:0:0:0:
196,124,300084,1,0,0:0:0:0:
8,112,300167,1,2,0:0:0:0:
196,124,300251,1,2,0:0:0:0:
140,116,300334,1,0,0:0:0:0:
140,116,300417,1,2,0:0:0:0:
140,116,300501,1,0,0:0:0:0:
140,116,300584,1,0,0:0:0:0:
140,116,300751,1,2,0:0:0:0:
140,116,300834,1,2,0:0:0:0:
296,116,300917,1,0,0:0:0:0:
296,116,301001,1,0,0:0:0:0:
211,122,301084,1,2,0:0:0:0:
230,114,301140,1,2,0:0:0:0:
172,67,301196,1,2,0:0:0:0:
230,114,301251,1,2,0:0:0:0:
320,144,301334,1,0,0:0:0:0:
320,144,301417,1,2,0:0:0:0:
191,240,301501,1,2,0:0:0:0:
312,136,301584,1,0,0:0:0:0:
312,136,301667,1,2,0:0:0:0:
312,136,301751,1,2,0:0:0:0:
312,132,301834,1,2,0:0:0:0:
72,152,301917,1,2,0:0:0:0:
308,128,302084,1,2,0:0:0:0:
72,144,302167,1,0,0:0:0:0:
72,144,302251,1,0,0:0:0:0:
264,140,302306,1,0,0:0:0:0:
264,140,302362,1,0,0:0:0:0:
232,80,302417,1,0,0:0:0:0:
232,80,302584,1,2,0:0:0:0:
232,80,302667,1,2,0:0:0:0:
80,128,302751,1,2,0:0:0:0:
100,120,302834,1,0,0:0:0:0:
100,120,302917,1,2,0:0:0:0:
64,136,303001,1,2,0:0:0:0:
104,120,303084,1,0,0:0:0:0:
104,120,303167,1,2,0:0:0:0:
104,120,303251,1,2,0:0:0:0:
64,136,303417,1,2,0:0:0:0:
64,136,303501,1,0,0:0:0:0:
272,124,303584,1,2,0:0:0:0:
272,124,303640,1,2,0:0:0:0:
272,124,303695,1,2,0:0:0:0:
264,124,303751,1,2,0:0:0:0:
320,144,303834,1,0,0:0:0:0:
304,136,303917,1,2,0:0:0:0:
84,124,304001,1,0,0:0:0:0:
88,124,304084,1,0,0:0:0:0:
144,100,304167,1,2,0:0:0:0:
144,100,304251,1,2,0:0:0:0:
144,100,304334,1,0,0:0:0:0:
144,100,304417,1,2,0:0:0:0:
144,100,304501,1,0,0:0:0:0:
144,100,304584,1,0,0:0:0:0:
144,100,304751,1,2,0:0:0:0:
144,100,304834,1,2,0:0:0:0:
224,144,304917,1,0,0:0:0:0:
224,144,305001,1,0,0:0:0:0:
216,144,305084,1,2,0:0:0:0:
192,136,305140,1,2,0:0:0:0:
192,136,305196,1,2,0:0:0:0:
192,136,305251,1,2,0:0:0:0:
224,144,305334,1,0,0:0:0:0:
192,136,305417,1,2,0:0:0:0:
144,96,305501,1,2,0:0:0:0:
482,68,305584,1,0,0:0:0:0:
144,96,305668,1,2,0:0:0:0:
256,192,305750,12,0,323750,0:0:0:0:
256,192,323918,12,0,331083,0:0:0:0:
