osu file format v14

[General]
AudioFilename: audio.mp3
AudioLeadIn: 0
PreviewTime: -1
Countdown: 1
SampleSet: None
StackLeniency: 0.7
Mode: 0
LetterboxInBreaks: 0
WidescreenStoryboard: 0

[Editor]
DistanceSpacing: 1.9
BeatDivisor: 4
GridSize: 4
TimelineZoom: 1

[Metadata]
Title:Dungdari Dururung
TitleUnicode:Dungdari Dururung
Artist:SinB (Shawing)
ArtistUnicode:SinB (Shawing)
Creator:Thaisthetic
Version:Fairy
Source:
Tags:
BeatmapID:1934619
BeatmapSetID:926163

[Difficulty]
HPDrainRate:6
CircleSize:3
OverallDifficulty:6.7
ApproachRate:7.7
SliderMultiplier:1.4
SliderTickRate:1

[Events]
//Background and Video events
Video,0,"Sin b gfriend tororo.mp4"
//Break Periods
//Storyboard Layer 0 (Background)
//Storyboard Layer 1 (Fail)
//Storyboard Layer 2 (Pass)
//Storyboard Layer 3 (Foreground)
//Storyboard Sound Samples

[TimingPoints]
17721,434.782608695652,4,2,0,52,1,0
31634,-66.6666666666667,4,2,0,52,0,0
34351,-66.6666666666667,4,2,0,52,0,0

[Colours]
Combo1 : 0,128,128
Combo2 : 128,255,0
Combo3 : 255,255,0

[HitObjects]
286,224,17721,6,0,B|398:156|413:131|393:117|369:107|353:103|334:102|319:102|279:99|301:134|311:138|321:142|331:145|341:149|349:151|354:152,1,280
51,65,18807,1,0,0:0:0:0:
126,98,19024,1,0,0:0:0:0:
63,148,19241,1,0,0:0:0:0:
121,310,19460,1,0,0:0:0:0:
181,265,19677,1,0,0:0:0:0:
190,339,19894,1,0,0:0:0:0:
356,338,20112,1,0,0:0:0:0:
353,220,20329,2,0,L|353:56,1,140
450,325,20981,5,0,0:0:0:0:
372,325,21198,1,0,0:0:0:0:
405,259,21415,1,0,0:0:0:0:
362,129,21634,1,0,0:0:0:0:
269,40,21851,2,0,L|170:41,1,70
115,136,22286,1,0,0:0:0:0:
61,183,22503,1,0,0:0:0:0:
132,210,22720,1,0,0:0:0:0:
216,255,22938,5,0,0:0:0:0:
205,337,23155,1,0,0:0:0:0:
290,350,23373,1,0,0:0:0:0:
300,266,23590,1,0,0:0:0:0:
412,259,23807,1,0,0:0:0:0:
418,232,23916,1,0,0:0:0:0:
423,200,24025,1,0,0:0:0:0:
434,102,24242,1,0,0:0:0:0:
114,340,24460,1,0,0:0:0:0:
88,98,24677,1,0,0:0:0:0:
421,330,24894,1,0,0:0:0:0:
255,208,25111,1,0,0:0:0:0:
253,54,25329,2,0,L|254:132,1,70
394,51,25764,5,0,0:0:0:0:
135,133,25981,1,0,0:0:0:0:
393,179,26199,1,0,0:0:0:0:
254,123,26416,5,0,0:0:0:0:
255,298,26634,1,0,0:0:0:0:
429,298,26851,1,0,0:0:0:0:
435,123,27068,1,0,0:0:0:0:
435,123,27177,1,0,0:0:0:0:
435,123,27286,2,0,L|364:62,1,70
91,35,28155,5,0,0:0:0:0:
175,35,28372,1,0,0:0:0:0:
132,101,28589,1,0,0:0:0:0:
57,221,28807,2,0,L|150:254,1,70
71,310,29242,5,0,0:0:0:0:
171,182,29460,1,0,0:0:0:0:
228,314,29677,1,0,0:0:0:0:
154,288,29894,5,0,0:0:0:0:
252,201,30112,1,0,0:0:0:0:
313,310,30329,1,0,0:0:0:0:
331,209,30547,5,4,0:0:0:0:
384,288,30764,1,4,0:0:0:0:
384,288,30873,1,4,0:0:0:0:
384,288,30981,1,4,0:0:0:0:
427,230,31199,1,4,0:0:0:0:
427,230,31416,1,4,0:0:0:0:
457,117,31634,6,0,P|412:58|377:53,1,105.000004005432
262,212,32068,1,0,0:0:0:0:
84,253,32286,2,0,P|99:321|170:337,1,105.000004005432
333,304,32720,1,0,0:0:0:0:
333,304,32829,1,0,0:0:0:0:
333,304,32938,1,0,0:0:0:0:
333,304,33047,2,0,L|233:197,1,105.000004005432
154,91,33373,5,0,0:0:0:0:
160,292,33590,1,0,0:0:0:0:
360,288,33807,1,0,0:0:0:0:
360,88,34025,1,0,0:0:0:0:
264,192,34242,2,0,B|248:128|244:128|236:128|228:136|220:144|200:152|192:168|192:180|192:196|196:208|200:224|228:232|256:228|260:224|272:232|296:224|268:120,1,315.000012016297
388,192,35112,5,0,0:0:0:0:
144,192,35330,1,0,0:0:0:0:
256,324,35547,1,0,0:0:0:0:
256,72,35764,1,0,0:0:0:0:
256,196,35981,5,0,0:0:0:0:
256,196,36199,1,0,0:0:0:0:
256,196,36416,1,0,0:0:0:0:
256,188,36634,2,0,B|212:216|216:224|224:224|236:224|264:216|276:216|272:208|268:208,1,52.5000020027161
76,64,36851,5,0,0:0:0:0:
72,332,37068,1,0,0:0:0:0:
352,328,37286,1,0,0:0:0:0:
344,64,37503,1,0,0:0:0:0:
216,188,37721,2,0,B|216:136|204:128|176:144|168:164|176:180|192:196|224:208|264:212|272:192|260:156|232:128|192:116|168:120|152:136|144:168|152:204|188:224|256:232|276:224|292:208|292:188|292:168|260:136|232:120|208:120|180:120|176:120,1,420.000016021729
400,80,38807,5,0,0:0:0:0:
268,224,39025,1,0,0:0:0:0:
432,336,39242,1,0,0:0:0:0:
78,57,39460,1,0,0:0:0:0:
132,318,39677,1,0,0:0:0:0:
251,62,39894,1,0,0:0:0:0:
345,316,40112,1,0,0:0:0:0:
421,90,40329,5,0,0:0:0:0:
432,308,40547,1,0,0:0:0:0:
304,104,40764,1,0,0:0:0:0:
476,240,40981,1,0,0:0:0:0:
312,264,41199,2,0,B|260:208|256:208|268:212|268:216|260:224|260:228|268:236|280:240|288:236|288:228|276:216|272:216|264:216,1,105.000004005432
96,316,41634,2,0,L|96:196,1,105.000004005432
64,48,42068,5,0,0:0:0:0:
116,104,42286,1,0,0:0:0:0:
44,124,42503,1,0,0:0:0:0:
76,248,42720,2,0,B|88:316|88:316|92:316|108:316|112:316|128:308|128:308|128:300|120:288|116:288|112:284|104:284|100:284|92:284|88:284|88:284|80:308|80:316|92:320|96:320|112:320,1,210.000008010865
216,320,43373,1,0,0:0:0:0:
260,320,43481,1,0,0:0:0:0:
308,320,43590,1,0,0:0:0:0:
444,304,43807,5,0,0:0:0:0:
348,44,44025,1,0,0:0:0:0:
196,192,44242,1,0,0:0:0:0:
444,196,44460,1,0,0:0:0:0:
216,72,44677,2,0,B|128:64|120:68|112:72|112:76|112:84|120:92|120:92|120:96|128:104|136:108|152:112|160:108|168:96|168:96|168:92|164:84|160:76|152:68|140:64|120:60|108:64|104:68|88:72|84:72|80:76|80:88|80:96|92:112|100:120|108:120,1,315.000012016297
56,208,45547,5,0,0:0:0:0:
80,244,45764,1,0,0:0:0:0:
188,320,45981,1,0,0:0:0:0:
268,216,46198,5,0,0:0:0:0:
291,184,46307,1,0,0:0:0:0:
312,152,46416,1,0,0:0:0:0:
440,312,46634,5,0,0:0:0:0:
436,64,46851,1,0,0:0:0:0:
256,200,47068,1,0,0:0:0:0:
440,312,47286,1,0,0:0:0:0:
436,64,47503,2,0,L|316:60,1,105.000004005432
172,124,47938,2,0,L|296:124,1,105.000004005432
180,204,48373,1,0,0:0:0:0:
96,204,48590,1,0,0:0:0:0:
44,280,48807,1,0,0:0:0:0:
48,360,49025,5,0,0:0:0:0:
124,364,49242,1,0,0:0:0:0:
180,304,49460,1,0,0:0:0:0:
240,360,49677,2,0,L|380:364,1,105.000004005432
332,280,50112,1,0,0:0:0:0:
412,244,50329,2,0,L|412:120,1,105.000004005432
472,64,50764,1,0,0:0:0:0:
476,144,50981,2,0,L|476:264,1,105.000004005432
404,344,51416,2,0,L|400:204,1,105.000004005432
404,160,51851,5,0,0:0:0:0:
296,44,52068,1,0,0:0:0:0:
256,188,52286,1,0,0:0:0:0:
376,72,52503,1,0,0:0:0:0:
344,200,52720,1,0,0:0:0:0:
244,104,52938,1,0,0:0:0:0:
344,328,53155,2,0,L|208:328,1,105.000004005432
164,320,53590,5,0,0:0:0:0:
112,40,53807,1,0,0:0:0:0:
40,320,54025,1,0,0:0:0:0:
40,128,54242,1,0,0:0:0:0:
44,232,54460,1,0,0:0:0:0:
120,312,54677,1,0,0:0:0:0:
200,232,54894,1,0,0:0:0:0:
200,120,55112,2,0,P|200:56|248:36,1,105.000004005432
312,152,55547,5,0,0:0:0:0:
392,40,55764,1,0,0:0:0:0:
464,152,55981,2,0,L|340:216,1,105.000004005432
272,304,56416,2,0,L|412:256,1,105.000004005432
304,220,56851,5,0,0:0:0:0:
424,344,57068,1,0,0:0:0:0:
456,200,57286,1,0,0:0:0:0:
352,96,57503,2,0,B|280:48|204:52|164:64|160:80|160:96|180:112|216:120|248:124|268:124|284:104|292:96|288:84,1,315.000012016297
112,116,58590,5,0,0:0:0:0:
140,312,58807,1,0,0:0:0:0:
340,276,59025,1,0,0:0:0:0:
312,88,59242,1,0,0:0:0:0:
40,44,59460,2,0,L|88:164,1,105.000004005432
104,296,59894,2,0,L|48:184,1,105.000004005432
136,184,60329,1,0,0:0:0:0:
176,256,60547,1,0,0:0:0:0:
252,316,60764,5,0,0:0:0:0:
256,36,60981,1,0,0:0:0:0:
256,96,61199,2,0,B|176:120|168:156|196:180|220:176|252:176|264:168|256:148|240:140|216:132|208:132|200:132,1,210.000008010865
256,312,61851,1,0,0:0:0:0:
120,312,62068,1,0,0:0:0:0:
48,208,62286,1,0,0:0:0:0:
124,208,62503,1,0,0:0:0:0:
200,208,62720,1,0,0:0:0:0:
200,208,62938,1,0,0:0:0:0:
124,208,63155,1,0,0:0:0:0:
120,264,63373,2,0,L|124:32,1,210.000008010865
256,288,64025,5,0,0:0:0:0:
388,128,64242,1,0,0:0:0:0:
116,120,64460,1,0,0:0:0:0:
124,324,64677,6,0,B|176:212|236:228|196:248|144:196|184:152|236:136|288:140|304:156|304:164|304:168|292:184|240:180|216:108|232:84|264:76|292:80|316:88|320:96|312:120|288:124|252:92|256:64|292:52|308:52|340:64|352:76|352:92,1,420.000016021729
408,336,65764,5,0,0:0:0:0:
228,328,65981,1,0,0:0:0:0:
320,212,66199,1,0,0:0:0:0:
324,92,66416,2,0,P|272:24|244:24,1,105.000004005432
48,48,66851,5,0,0:0:0:0:
64,164,67068,2,0,B|76:248|108:264|108:264|196:176,1,210.000008010865
132,136,67720,1,0,0:0:0:0:
216,328,67938,1,0,0:0:0:0:
348,156,68155,2,0,B|344:92|344:96|344:96|340:104|336:104|328:104|328:96|348:84|364:80|368:80|368:88,1,105.000004005432
448,56,68590,2,0,L|448:168,1,105.000004005432
448,161,68916,2,0,L|456:248,1,52.5000020027161
396,296,69242,5,0,0:0:0:0:
352,236,69460,1,0,0:0:0:0:
320,304,69677,1,0,0:0:0:0:
256,84,69894,2,0,L|256:208,1,105.000004005432
200,320,70329,2,0,L|200:212,1,105.000004005432
68,56,70764,5,0,0:0:0:0:
68,248,70981,1,0,0:0:0:0:
236,64,71199,1,0,0:0:0:0:
228,240,71416,1,0,0:0:0:0:
336,332,71634,5,0,0:0:0:0:
336,332,71851,1,0,0:0:0:0:
440,240,72068,1,0,0:0:0:0:
440,88,72286,1,0,0:0:0:0:
228,72,72503,5,0,0:0:0:0:
420,160,72720,1,0,0:0:0:0:
232,260,72938,2,0,B|304:256|308:256|312:236|312:216|300:200|288:192|268:184|264:184|256:196|252:216|264:228|272:232|296:232|316:208|320:184|312:176|304:176|296:176,1,210.000008010865
128,56,73590,1,0,0:0:0:0:
44,144,73807,1,0,0:0:0:0:
128,224,74025,1,0,0:0:0:0:
56,316,74242,1,0,0:0:0:0:
176,336,74460,1,0,0:0:0:0:
240,252,74677,1,0,0:0:0:0:
280,236,74786,1,0,0:0:0:0:
312,224,74895,1,0,0:0:0:0:
396,304,75112,5,0,0:0:0:0:
376,76,75329,1,0,0:0:0:0:
144,100,75547,1,0,0:0:0:0:
180,332,75764,1,0,0:0:0:0:
272,192,75981,1,0,0:0:0:0:
420,308,76199,1,0,0:0:0:0:
272,192,76416,1,0,0:0:0:0:
180,332,76634,1,0,0:0:0:0:
108,320,76851,6,0,B|84:176|164:96|200:108|216:116|232:128|248:152|248:156|240:188|236:196|228:204|212:208|192:204|188:208|180:208|176:196|176:188|184:176|184:172|192:168|200:164|212:160|216:160|220:156|224:152,1,420.000016021729
256,192,77938,12,0,78481,0:0:0:0:
252,48,78590,5,0,0:0:0:0:
256,328,78807,1,0,0:0:0:0:
396,192,79025,1,0,0:0:0:0:
128,192,79242,1,0,0:0:0:0:
40,288,79460,2,0,L|160:288,1,105.000004005432
304,204,79894,2,0,L|176:200,1,105.000004005432
199,200,80329,2,0,B|199:68|23:48|31:120|39:140|71:148|135:148|159:132|167:116|131:120|99:120|95:132|255:68,1,420.000016021729
336,48,81416,5,0,0:0:0:0:
472,192,81634,1,0,0:0:0:0:
312,272,81851,1,0,0:0:0:0:
160,316,82068,2,0,P|120:240|72:208,1,105.000004005432
160,316,82503,2,0,P|208:260|248:248,1,105.000004005432
160,316,82938,2,0,L|168:208,1,105.000004005432
184,44,83373,2,0,L|180:160,1,105.000004005432
256,192,83807,5,0,0:0:0:0:
360,192,84025,1,0,0:0:0:0:
336,100,84242,2,0,L|476:100,1,105.000004005432
456,188,84677,2,0,B|448:296|440:328|432:336|424:340|408:340|380:332|352:324|340:324|320:324|308:324|296:328|276:324|260:320|244:324|236:324,1,315.000012016297
164,336,85547,2,0,L|164:192,1,105.000004005432
88,176,85981,1,0,0:0:0:0:
48,48,86199,2,0,L|184:48,1,105.000004005432
256,48,86634,1,0,0:0:0:0:
256,128,86851,1,0,0:0:0:0:
256,208,87068,1,0,0:0:0:0:
256,328,87286,2,0,B|408:336|432:312|448:280|436:264|424:256|392:244|312:244|288:256|280:272|288:296|296:300|320:304|356:304|368:300|376:296|384:296|388:296|400:296|416:296|420:296|424:296,1,420.000016021729
456,244,88373,6,0,L|448:132,1,105.000004005432
440,144,88807,2,0,P|400:64|372:60,1,105.000004005432
393,62,89242,2,0,L|272:60,1,105.000004005432
40,68,89677,2,0,P|196:48|288:276,1,420.000016021729
88,132,90764,1,0,0:0:0:0:
168,104,90981,1,0,0:0:0:0:
224,164,91199,1,0,0:0:0:0:
148,184,91416,2,0,L|24:368,1,210.000008010865
140,348,92068,5,0,0:0:0:0:
216,348,92286,1,0,0:0:0:0:
176,280,92503,1,0,0:0:0:0:
96,56,92720,1,0,0:0:0:0:
256,64,92938,1,0,0:0:0:0:
160,192,93155,2,0,L|280:192,1,105.000004005432
416,80,93590,5,0,0:0:0:0:
416,104,93807,2,0,L|416:236,1,105.000004005432
416,344,94242,2,0,B|424:260|200:80|152:80|124:88|104:104|92:128|80:168|84:188|104:224|128:248|168:272|240:288|268:288|296:280|340:256|376:228|416:204|452:168,1,840.000032043458
44,44,97720,5,0,0:0:0:0:
40,348,97938,1,0,0:0:0:0:
468,348,98155,1,0,0:0:0:0:
464,40,98373,1,0,0:0:0:0:
32,192,98590,5,0,0:0:0:0:
480,192,98807,1,0,0:0:0:0:
100,196,99025,1,0,0:0:0:0:
424,192,99242,1,0,0:0:0:0:
256,32,99460,5,0,0:0:0:0:
256,360,99677,1,0,0:0:0:0:
352,92,99894,1,0,0:0:0:0:
208,344,100112,1,0,0:0:0:0:
424,128,100329,1,0,0:0:0:0:
480,36,101199,5,0,0:0:0:0:
36,32,101416,1,0,0:0:0:0:
40,344,101634,1,0,0:0:0:0:
476,344,101851,1,0,0:0:0:0:
36,32,102068,5,0,0:0:0:0:
476,344,102286,1,0,0:0:0:0:
256,192,102503,1,0,0:0:0:0:
256,192,102720,1,0,0:0:0:0:
116,48,102938,5,0,0:0:0:0:
96,320,103155,1,0,0:0:0:0:
260,44,103373,1,0,0:0:0:0:
232,316,103590,1,0,0:0:0:0:
424,192,103807,1,0,0:0:0:0:
60,192,104025,1,0,0:0:0:0:
404,84,104242,1,0,0:0:0:0:
80,272,104460,1,0,0:0:0:0:
476,348,104677,5,0,0:0:0:0:
476,32,104894,1,0,0:0:0:0:
36,40,105112,1,0,0:0:0:0:
36,348,105329,1,0,0:0:0:0:
256,192,105547,1,0,0:0:0:0:
24,120,105764,1,0,0:0:0:0:
28,280,105981,1,0,0:0:0:0:
476,280,106199,1,0,0:0:0:0:
476,92,106416,1,0,0:0:0:0:
476,280,106634,1,0,0:0:0:0:
476,92,106851,1,0,0:0:0:0:
400,200,107068,2,0,L|256:180,1,105.000004005432
40,36,108155,6,0,B|32:360|32:360|492:360|492:360|492:16|492:16|96:32,1,1522.50005807877
252,40,111634,5,0,0:0:0:0:
32,352,111851,1,0,0:0:0:0:
488,360,112068,2,0,L|488:212,1,105.000004005432
268,148,112503,5,0,0:0:0:0:
212,212,112720,1,0,0:0:0:0:
292,224,112938,6,0,L|360:132,1,105.000004005432
432,192,113373,5,0,0:0:0:0:
80,192,113590,1,0,0:0:0:0:
432,192,113807,1,0,0:0:0:0:
80,192,114025,1,0,0:0:0:0:
256,40,114242,2,0,L|256:172,1,105.000004005432
252,336,114677,5,0,0:0:0:0:
392,144,114894,1,0,0:0:0:0:
48,344,115112,5,0,0:0:0:0:
488,40,115329,1,0,0:0:0:0:
480,360,115547,1,0,0:0:0:0:
36,32,115764,1,0,0:0:0:0:
256,64,115981,5,0,0:0:0:0:
256,328,116199,1,0,0:0:0:0:
256,64,116416,1,0,0:0:0:0:
256,328,116634,1,0,0:0:0:0:
292,280,116851,5,0,0:0:0:0:
372,92,117068,1,0,0:0:0:0:
292,280,117286,1,0,0:0:0:0:
372,92,117503,1,0,0:0:0:0:
432,152,117720,5,0,0:0:0:0:
376,260,117938,1,0,0:0:0:0:
432,152,118155,1,0,0:0:0:0:
380,248,118373,1,0,0:0:0:0:
52,52,118590,5,0,0:0:0:0:
40,336,118807,1,0,0:0:0:0:
256,344,119025,1,0,0:0:0:0:
256,56,119242,1,0,0:0:0:0:
136,120,119460,1,0,0:0:0:0:
140,252,119677,1,0,0:0:0:0:
368,240,119894,1,0,0:0:0:0:
136,120,120112,5,0,0:0:0:0:
140,252,120329,1,0,0:0:0:0:
368,240,120547,1,0,0:0:0:0:
136,248,120764,1,0,0:0:0:0:
356,236,120981,1,0,0:0:0:0:
140,112,121199,1,0,0:0:0:0:
136,248,121416,1,0,0:0:0:0:
344,116,121634,1,0,0:0:0:0:
352,252,121851,1,0,0:0:0:0:
48,340,122068,5,0,0:0:0:0:
48,340,122286,1,0,0:0:0:0:
472,44,122503,1,0,0:0:0:0:
472,44,122720,1,0,0:0:0:0:
44,36,122938,5,0,0:0:0:0:
40,344,123155,1,0,0:0:0:0:
480,336,123373,1,0,0:0:0:0:
44,36,123590,1,0,0:0:0:0:
40,344,123807,1,0,0:0:0:0:
476,40,124025,1,0,0:0:0:0:
44,36,124242,1,0,0:0:0:0:
40,344,124460,1,0,0:0:0:0:
476,40,124677,1,0,0:0:0:0:
256,56,124894,5,0,0:0:0:0:
432,192,125112,1,0,0:0:0:0:
76,192,125329,1,0,0:0:0:0:
256,56,125547,1,0,0:0:0:0:
292,152,127286,5,0,0:0:0:0:
256,80,127503,1,0,0:0:0:0:
228,156,127720,1,0,0:0:0:0:
264,216,127938,1,0,0:0:0:0:
268,292,128155,2,0,L|352:224,1,105.000004005432
428,112,128590,2,0,L|332:180,1,105.000004005432
256,192,129025,12,0,130764,0:0:0:0:
