osu file format v14

[General]
AudioFilename: audio.mp3
AudioLeadIn: 0
PreviewTime: 14941
Countdown: 0
SampleSet: Soft
StackLeniency: 0.7
Mode: 2
LetterboxInBreaks: 0
WidescreenStoryboard: 1

[Editor]
DistanceSpacing: 1.1
BeatDivisor: 4
GridSize: 16
TimelineZoom: 2.100003

[Metadata]
Title:Presidential Palace Adventure Theme Song
TitleUnicode:Presidential Palace Adventure Theme Song
Artist:SimpleInfo Design
ArtistUnicode:簡訊設計
Creator:Quix
Version:Black's Rain
Source:總統府大冒險
Tags:什麼!台灣高中三年二班的我竟然掉入了異世界而且還遇見了總統!? pv 小英日常製作委員會 志祺七七 x 圖文不符 taiwan taiwanese 蔡英文 民進黨 What! In the second class of Taiwan's third grade high school, I fell into a different world and met the president!? tsai ing-wen ing wen democratic progressive party dpp jazz instrumental promotional video video game visual novel vn adventure game avg chinese china bluirre Mniam BlackBN BlackBq -Mercury- bighzonda bigh 050
BeatmapID:3610359
BeatmapSetID:1763195

[Difficulty]
HPDrainRate:5
CircleSize:4
OverallDifficulty:9
ApproachRate:9
SliderMultiplier:1.8
SliderTickRate:2

[Events]
//Background and Video events
0,0,"BG.jpg",0,0
//Break Periods
//Storyboard Layer 0 (Background)
//Storyboard Layer 1 (Fail)
//Storyboard Layer 2 (Pass)
//Storyboard Layer 3 (Foreground)
//Storyboard Layer 4 (Overlay)
//Storyboard Sound Samples

[TimingPoints]
295,352.941176470588,5,2,1,40,1,0
2037,-100,5,2,1,5,0,0
2059,-100,5,2,1,40,0,0
3096,-100,5,2,1,5,0,0
3118,-100,5,2,1,40,0,0
5589,352.941176470588,6,2,1,40,1,0
6978,-100,6,2,1,5,0,0
7000,-100,6,2,1,40,0,0
7706,352.941176470588,5,2,1,60,1,0
13000,-100,5,2,1,60,0,0
13353,-100,5,2,1,60,0,0
15110,352.941176470588,5,2,1,60,1,8
15374,-100,5,2,1,40,0,8
15823,400,5,2,1,75,1,0
16223,370.37037037037,5,2,1,75,1,8
16591,400,5,2,1,75,1,8
16791,247.933884297521,5,2,1,75,1,8
16914,372.670807453416,5,2,1,75,1,0
17287,346.820809248555,5,2,1,75,1,8
17585,379.746835443038,5,2,1,75,1,8
17964,352.941176470588,5,2,1,75,1,8
18140,491.803278688525,5,2,1,75,1,8
18387,244.897959183673,4,2,1,90,1,1
18387,-142.857142857143,7,2,1,90,0,1
20101,244.897959183673,4,2,1,90,1,9
20101,-142.857142857143,4,2,1,90,0,1
20345,-142.857142857143,4,2,1,90,0,1
22060,-142.857142857143,7,2,1,90,0,1
22917,-142.857142857143,7,2,1,90,0,1
23162,-142.857142857143,7,2,1,90,0,1
23774,244.897959183673,5,2,1,90,1,9
23774,-142.857142857143,4,2,1,90,0,1
25733,244.897959183673,3,2,1,90,1,0
25733,-142.857142857143,3,2,1,90,0,0
32773,-142.857142857143,3,2,1,40,0,0
32835,-142.857142857143,3,2,1,40,0,0
33202,-100,3,2,1,40,0,0
33569,-100,3,2,1,35,0,0
33937,-100,3,2,1,30,0,0
34304,-100,3,2,1,25,0,0
34671,-100,3,2,1,20,0,0
35039,-100,3,2,1,15,0,0
35406,-100,3,2,1,10,0,0
35773,-100,3,2,1,5,0,0

[Colours]
Combo1 : 64,205,247
Combo2 : 203,228,124
Combo3 : 187,198,174

[HitObjects]
217,327,295,6,0,L|217:220,1,90,2|0,1:2|0:2,0:0:0:0:
308,232,647,2,0,L|438:222,1,90,2|2,0:2|0:2,0:0:0:0:
244,209,1000,2,0,P|196:166|364:76,1,360,2|0,0:2|0:0,0:0:0:0:
180,342,2059,6,0,L|279:334,1,90,2|0,0:2|0:0,0:0:0:0:
360,321,2412,2,0,L|359:217,1,90,2|2,0:2|0:2,0:0:0:0:
202,219,2765,2,0,L|17:204,2,180,2|2|2,0:2|0:3|0:3,0:0:0:0:
495,357,3824,6,0,L|494:254,1,90,2|0,1:2|0:0,0:0:0:0:
403,257,4177,2,0,L|301:251,1,90,2|2,0:3|1:2,0:0:0:0:
160,242,4530,2,0,P|102:195|167:146,1,180,2|0,0:3|0:0,0:0:0:0:
323,153,5059,1,2,0:3:0:0:
103,337,5589,6,0,L|230:328,1,90,2|0,1:2|0:0,0:0:0:0:
286,325,5941,2,0,L|287:212,1,90,2|2,0:3|1:2,0:0:0:0:
196,225,6294,2,0,L|296:212,1,90,2|0,0:3|0:0,0:0:0:0:
39,212,6647,1,4,1:2:0:0:
371,229,7530,2,0,L|370:149,1,45,8|8,0:2|0:2,0:0:0:0:
198,320,7706,6,0,L|96:315,1,90,4|2,0:2|0:2,0:0:0:0:
271,270,8058,2,0,L|272:169,1,90,10|0,0:2|1:0,0:0:0:0:
109,202,8411,2,0,L|111:89,1,90,2|2,0:2|1:2,0:0:0:0:
273,111,8764,2,0,L|377:105,1,90,8|2,0:2|3:2,0:0:0:0:
363,65,9029,1,0,0:0:0:0:
209,56,9117,2,0,L|81:48,1,90,2|0,1:2|0:0,0:0:0:0:
372,305,9470,5,4,1:2:0:0:
208,302,9647,2,0,L|82:293,1,90,2|2,0:2|1:2,0:0:0:0:
283,244,10000,1,8,0:2:0:0:
450,238,10176,2,0,L|450:141,1,90,2|2,0:2|1:2,0:0:0:0:
286,185,10529,2,0,L|185:175,1,90,8|2,0:2|1:2,0:0:0:0:
198,126,10794,1,0,0:0:0:0:
353,141,10882,2,0,L|354:47,1,90,2|2,1:2|1:2,0:0:0:0:
96,348,11235,5,4,1:2:0:0:
249,315,11411,1,2,0:2:0:0:
96,280,11588,2,0,L|96:189,1,90,10|0,0:2|1:0,0:0:0:0:
260,186,11941,2,0,L|369:169,1,90,2|2,0:2|1:2,0:0:0:0:
185,120,12294,1,8,0:2:0:0:
347,122,12470,2,0,L|411:117,1,45,2|0,3:2|0:0,0:0:0:0:
234,79,12647,2,0,L|141:70,1,90,2|2,1:2|3:2,0:0:0:0:
144,25,12911,1,2,3:2:0:0:
320,240,13000,6,0,P|376:171|294:132,1,180,4|0,1:2|1:0,0:0:0:0:
165,131,13529,2,0,L|73:123,2,90,10|2|2,0:2|1:2|1:2,0:0:0:0:
411,356,14058,2,0,P|437:232|221:173,1,360,4|0,1:2|0:0,0:0:0:0:
159,147,14941,2,0,L|160:83,1,45,0|0,1:2|1:2,0:0:0:0:
314,326,15110,5,8,0:2:0:0:
115,325,15374,1,8,0:2:0:0:
314,326,15639,1,8,0:2:0:0:
56,323,15823,2,0,L|56:222,1,90,4|0,1:2|0:0,0:0:0:0:
336,230,16223,2,0,L|445:221,1,90,4|0,1:2|0:0,0:0:0:0:
241,171,16591,2,0,L|118:156,1,90,4|0,1:2|1:2,0:0:0:0:
348,331,16914,2,0,P|376:215|36:156,1,592,4|8,3:2|3:2,0:0:0:0:
33,161,18262,1,8,0:2:0:0:
259,309,18387,6,0,L|336:301,1,62.9999980773926,4|0,1:2|0:0,0:0:0:0:
208,255,18631,2,0,L|207:179,1,62.9999980773926,2|0,1:2|0:0,0:0:0:0:
402,190,18876,2,0,L|470:186,2,62.9999980773926,10|8|4,0:2|0:3|0:3,0:0:0:0:
176,212,19244,2,0,L|84:208,1,62.9999980773926,12|8,0:2|0:2,0:0:0:0:
229,186,19489,2,0,L|317:185,1,62.9999980773926,8|8,0:3|0:3,0:0:0:0:
176,169,19733,2,0,L|174:94,1,62.9999980773926,4|0,0:3|1:0,0:0:0:0:
239,103,19978,1,4,0:3:0:0:
465,359,20101,6,0,L|464:283,1,62.9999980773926,4|0,1:2|0:0,0:0:0:0:
349,279,20345,2,0,L|268:274,1,62.9999980773926,0|0,1:0|1:0,0:0:0:0:
95,254,20590,2,0,L|20:250,2,62.9999980773926,8|8|4,0:2|0:3|0:3,0:0:0:0:
321,245,20958,2,0,P|356:186|307:172,1,125.999996154785,4|0,1:2|1:0,0:0:0:0:
130,167,21325,2,0,L|52:165,1,62.9999980773926,8|8,0:2|0:2,0:0:0:0:
181,113,21570,2,0,L|257:110,1,62.9999980773926,0|0,1:0|1:0,0:0:0:0:
128,111,21815,2,0,L|129:41,1,62.4489803697109,8|8,0:2|0:2,0:0:0:0:
355,359,22060,6,0,L|435:357,1,62.9999980773926,4|0,1:2|0:0,0:0:0:0:
299,309,22305,2,0,L|224:305,1,62.4489803697109,0|0,1:2|0:0,0:0:0:0:
430,275,22549,2,0,L|430:182,1,62.9999980773926,10|4,0:2|0:3,0:0:0:0:
361,209,22794,1,4,0:3:0:0:
136,202,22917,2,0,L|46:197,1,62.9999980773926,12|0,0:2|0:0,0:0:0:0:
189,131,23162,2,0,L|265:125,1,62.9999980773926,0|8,1:0|0:2,0:0:0:0:
369,134,23407,2,0,L|370:56,1,62.4489803697109,8|4,0:3|0:3,0:0:0:0:
305,67,23652,1,0,1:0:0:0:
81,338,23774,6,0,L|161:332,1,62.4489803697109,4|0,1:2|0:0,0:0:0:0:
258,341,24018,2,0,L|258:256,1,62.9999980773926,0|8,1:0|0:2,0:0:0:0:
143,257,24263,2,0,L|143:167,1,62.9999980773926,8|8,0:2|0:2,0:0:0:0:
369,200,24508,2,0,L|442:193,1,62.9999980773926,4|8,1:2|0:2,0:0:0:0:
317,165,24753,2,0,L|240:161,1,62.9999980773926,8|4,0:3|0:3,0:0:0:0:
369,145,24998,2,0,L|369:54,1,62.9999980773926,0|8,1:0|0:2,0:0:0:0:
175,322,25243,5,0,1:2:0:0:
130,303,25325,1,0,0:0:0:0:
130,249,25406,1,0,0:0:0:0:
285,231,25488,1,8,1:2:0:0:
329,200,25569,1,0,0:0:0:0:
285,160,25651,1,0,0:0:0:0:
123,336,25733,6,0,L|123:256,1,62.4489803697109,4|0,1:2|0:0,0:0:0:0:
237,262,25977,2,0,L|316:261,1,62.9999980773926,2|2,1:2|0:2,0:0:0:0:
414,263,26222,2,0,L|413:171,1,62.9999980773926,2|2,0:2|0:2,0:0:0:0:
189,200,26467,2,0,L|45:180,1,125.999996154785,8|2,0:2|0:2,0:0:0:0:
133,147,26835,1,2,1:2:0:0:
249,142,26957,2,0,L|249:70,1,62.4489803697109,2|2,0:2|0:2,0:0:0:0:
24,340,27202,6,0,L|98:334,1,62.9999980773926,2|0,1:2|0:0,0:0:0:0:
278,278,27447,2,0,L|187:274,1,62.9999980773926,2|0,1:2|0:0,0:0:0:0:
25,212,27692,2,0,L|112:207,1,62.9999980773926,2|0,1:2|0:0,0:0:0:0:
311,337,27937,2,0,P|352:306|297:269,1,125.999996154785,10|2,1:2|1:2,0:0:0:0:
184,255,28426,2,0,L|183:178,1,62.9999980773926,2|0,1:2|0:0,0:0:0:0:
406,279,28671,6,0,L|484:277,1,62.9999980773926,4|0,1:2|0:0,0:0:0:0:
354,223,28916,2,0,L|282:219,1,62.9999980773926,0|0,1:0|0:0,0:0:0:0:
407,198,29161,2,0,L|407:124,1,62.9999980773926,0|0,1:0|0:0,0:0:0:0:
212,305,29406,2,0,L|119:303,1,62.9999980773926,8|0,0:2|0:0,0:0:0:0:
273,259,29651,2,0,L|274:186,1,62.9999980773926,0|0,1:0|0:0,0:0:0:0:
149,186,29896,2,0,L|73:183,1,62.9999980773926,0|0,1:0|0:0,0:0:0:0:
311,323,30141,6,0,L|391:318,1,62.9999980773926,4|0,1:2|0:0,0:0:0:0:
183,272,30386,2,0,L|107:271,1,62.9999980773926,0|0,1:0|0:0,0:0:0:0:
325,232,30630,2,0,L|407:229,1,62.9999980773926,0|0,1:2|0:0,0:0:0:0:
152,240,30875,2,0,L|151:167,1,62.9999980773926,8|8,0:2|0:2,0:0:0:0:
377,153,31120,2,0,L|378:80,1,62.9999980773926,8|0,0:2|0:2,0:0:0:0:
125,83,31365,1,8,0:2:0:0:
256,192,32835,5,2,2:0:0:0:
256,192,33018,12,0,35773,0:0:0:0:
