osu file format v14

[General]
AudioFilename: audio.mp3
AudioLeadIn: 0
PreviewTime: 14941
Countdown: 0
SampleSet: Soft
StackLeniency: 0.7
Mode: 2
LetterboxInBreaks: 0
WidescreenStoryboard: 1

[Editor]
DistanceSpacing: 1.1
BeatDivisor: 12
GridSize: 16
TimelineZoom: 4.199998

[Metadata]
Title:Presidential Palace Adventure Theme Song
TitleUnicode:Presidential Palace Adventure Theme Song
Artist:SimpleInfo Design
ArtistUnicode:簡訊設計
Creator:Quix
Version:050's Deluge
Source:總統府大冒險
Tags:什麼!台灣高中三年二班的我竟然掉入了異世界而且還遇見了總統!? pv 小英日常製作委員會 志祺七七 x 圖文不符 taiwan taiwanese 蔡英文 民進黨 What! In the second class of Taiwan's third grade high school, I fell into a different world and met the president!? tsai ing-wen ing wen democratic progressive party dpp jazz instrumental promotional video video game visual novel vn adventure game avg chinese china bluirre Mniam BlackBN BlackBq -Mercury- bighzonda bigh 050
BeatmapID:3611926
BeatmapSetID:1763195

[Difficulty]
HPDrainRate:6
CircleSize:5
OverallDifficulty:9.5
ApproachRate:9.5
SliderMultiplier:2.02
SliderTickRate:2

[Events]
//Background and Video events
0,0,"BG.jpg",0,0
//Break Periods
//Storyboard Layer 0 (Background)
//Storyboard Layer 1 (Fail)
//Storyboard Layer 2 (Pass)
//Storyboard Layer 3 (Foreground)
//Storyboard Layer 4 (Overlay)
//Storyboard Sound Samples

[TimingPoints]
295,352.941176470588,5,2,1,40,1,0
2037,-100,5,2,1,5,0,0
2059,-100,5,2,1,40,0,0
3096,-100,5,2,1,5,0,0
3118,-100,5,2,1,40,0,0
3736,-100,5,2,1,5,0,0
3824,-100,5,2,1,40,0,0
5500,-100,5,2,1,5,0,0
5588,-100,5,2,1,40,0,0
5589,352.941176470588,6,2,1,40,1,0
6978,-100,6,2,1,5,0,0
7000,-100,6,2,1,40,0,0
7441,-100,5,2,1,5,0,0
7529,-100,5,2,1,40,0,0
7706,352.941176470588,5,2,1,60,1,0
11058,-100,5,2,1,60,0,0
11235,-100,5,2,1,60,0,0
13000,-100,5,2,1,60,0,0
13353,-100,5,2,1,60,0,0
13705,-100,5,2,1,60,0,0
13882,-100,5,2,1,60,0,0
14058,-40,5,2,1,60,0,0
14941,-100,5,2,1,60,0,0
15110,352.941176470588,5,2,1,60,1,8
15110,-66.6666666666667,5,2,1,60,0,8
15286,-66.6666666666667,5,2,1,5,0,8
15374,-66.6666666666667,5,2,1,40,0,8
15551,-66.6666666666667,5,2,1,5,0,8
15639,-66.6666666666667,5,2,1,40,0,8
15727,-66.6666666666667,5,2,1,5,0,8
15823,400,5,2,1,75,1,0
15823,-50,5,2,1,75,0,0
16223,370.37037037037,5,2,1,75,1,8
16223,-57.1428571428571,5,2,1,75,0,0
16491,-57.1428571428571,5,2,1,5,0,0
16591,400,5,2,1,75,1,8
16591,-50,5,2,1,75,0,0
16791,247.933884297521,5,2,1,75,1,8
16914,372.670807453416,5,2,1,75,1,0
16914,-50,5,2,1,75,0,0
17287,346.820809248555,5,2,1,75,1,8
17585,379.746835443038,5,2,1,75,1,8
17964,352.941176470588,5,2,1,75,1,8
17964,-100,5,2,1,75,0,8
18140,491.803278688525,5,2,1,75,1,8
18387,244.897959183673,4,2,1,90,1,1
18631,-100,4,2,1,90,0,1
18999,-100,4,2,1,90,0,1
19244,-100,4,2,1,90,0,1
20101,244.897959183673,4,2,1,90,1,9
20101,-100,4,2,1,90,0,1
20345,-100,4,2,1,90,0,9
21203,-100,4,2,1,90,0,9
22305,-100,4,2,1,90,0,9
22672,-100,4,2,1,90,0,9
22794,-100,4,2,1,90,0,9
22917,-100,4,2,1,90,0,9
23162,-100,4,2,1,90,0,9
23774,244.897959183673,5,2,1,90,1,9
23774,-100,4,2,1,90,0,9
24018,-100,5,2,1,90,0,9
24263,-100,5,2,1,90,0,9
24386,-100,5,2,1,90,0,9
24508,-100,5,2,1,90,0,9
25733,244.897959183673,3,2,1,90,1,0
28120,-100,3,2,1,5,0,0
28181,-100,3,2,1,90,0,0
28365,-100,3,2,1,5,0,0
28426,-100,3,2,1,90,0,0
28610,-100,3,2,1,5,0,0
28671,-100,3,2,1,90,0,0
28855,-100,3,2,1,5,0,0
28916,-100,3,2,1,90,0,0
29100,-100,3,2,1,5,0,0
29161,-100,3,2,1,90,0,0
29345,-100,3,2,1,5,0,0
29406,-100,3,2,1,90,0,0
29590,-100,3,2,1,5,0,0
29651,-100,3,2,1,90,0,0
29835,-100,3,2,1,5,0,0
29896,-100,3,2,1,90,0,0
30141,-83.3333333333333,3,2,1,90,0,0
30324,-83.3333333333333,3,2,1,5,0,0
30386,-83.3333333333333,3,2,1,90,0,0
30569,-83.3333333333333,3,2,1,5,0,0
30630,-83.3333333333333,3,2,1,90,0,0
30814,-83.3333333333333,3,2,1,5,0,0
30875,-100,3,2,1,90,0,0
31304,-100,3,2,1,5,0,0
31365,-151.515151515152,3,2,1,90,0,0
32773,-166.666666666667,3,2,1,5,0,0
32835,-166.666666666667,3,2,1,40,0,0
33202,-100,3,2,1,40,0,0
33569,-100,3,2,1,35,0,0
33937,-100,3,2,1,30,0,0
34304,-100,3,2,1,25,0,0
34671,-100,3,2,1,20,0,0
35039,-100,3,2,1,15,0,0
35406,-100,3,2,1,10,0,0
35773,-100,3,2,1,5,0,0

[Colours]
Combo1 : 64,205,247
Combo2 : 203,228,124
Combo3 : 187,198,174

[HitObjects]
264,272,295,6,0,L|266:156,1,101,2|0,1:2|0:2,0:0:0:0:
163,157,647,2,0,L|158:50,1,101,2|2,0:2|0:2,0:0:0:0:
331,39,1000,2,0,P|486:169|230:306,1,593.375,2|0,0:2|0:0,0:0:0:0:
222,278,2059,6,0,L|220:162,1,101,2|0,0:2|0:0,0:0:0:0:
323,163,2411,2,0,L|328:56,1,101,2|2,0:2|0:2,0:0:0:0:
155,45,2765,2,0,B|54:46|54:46|146:45,1,189.375,2|0,0:2|0:0,0:0:0:0:
156,112,3118,2,0,L|153:235,1,101,2|0,0:3|0:0,0:0:0:0:
50,214,3471,2,0,P|21:269|97:314,1,151.5,2|0,0:3|0:0,0:0:0:0:
223,186,3824,6,0,L|352:185,1,101,2|0,1:2|0:0,0:0:0:0:
222,238,4177,2,0,L|209:134,1,101,2|2,0:3|1:2,0:0:0:0:
377,63,4530,2,0,P|445:114|372:170,1,202,2|0,0:3|0:0,0:0:0:0:
193,176,5059,1,2,0:3:0:0:
296,116,5236,2,0,B|369:170|369:170|304:190,1,151.5
170,182,5589,6,0,L|160:78,1,101,2|0,1:2|0:0,0:0:0:0:
259,136,5942,2,0,L|272:32,1,101,2|2,0:3|1:2,0:0:0:0:
106,54,6294,1,2,0:3:0:0:
266,38,6471,1,0,0:0:0:0:
106,54,6647,6,0,P|45:118|108:174,1,189.375,4|0,1:2|0:0,0:0:0:0:
119,175,7000,2,0,P|249:208|263:318,1,252.5
121,297,7530,1,8,0:2:0:0:
266,310,7618,1,8,0:2:0:0:
410,310,7706,6,0,L|522:310,1,101,4|2,0:2|0:2,0:0:0:0:
266,198,8058,2,0,L|138:198,1,101,10|0,0:2|1:0,0:0:0:0:
410,54,8411,2,0,L|410:166,1,101,2|2,0:2|1:2,0:0:0:0:
154,134,8764,2,0,L|282:134,1,101,8|2,0:2|3:2,0:0:0:0:
306,134,9029,1,0,0:0:0:0:
154,134,9117,2,0,B|106:166|106:166|164:166,1,101,2|0,1:2|0:0,0:0:0:0:
202,166,9382,1,0,0:0:0:0:
426,70,9470,6,0,L|314:70,1,101,4|2,1:2|0:2,0:0:0:0:
74,150,9822,2,0,L|74:262,1,101,2|8,1:2|0:2,0:0:0:0:
325,326,10175,2,0,L|426:326,1,101,2|2,0:2|1:2,0:0:0:0:
186,150,10528,2,0,L|58:150,1,101,8|2,0:2|1:2,0:0:0:0:
33,150,10793,1,0,0:0:0:0:
186,150,10881,2,0,B|234:118|234:118|176:118,1,101,2|2,1:2|1:2,0:0:0:0:
138,118,11146,1,0,0:0:0:0:
346,54,11235,6,0,L|474:54,1,101,4|2,1:2|0:2,0:0:0:0:
202,54,11588,2,0,L|90:54,1,101,10|0,0:2|1:0,0:0:0:0:
346,150,11941,2,0,L|458:150,1,101,2|2,0:2|1:2,0:0:0:0:
186,150,12294,1,8,0:2:0:0:
442,150,12470,2,0,L|511:150,1,50.5,2|0,3:2|0:0,0:0:0:0:
298,102,12647,2,0,L|186:102,1,101,2|2,1:2|3:2,0:0:0:0:
250,102,12911,1,2,3:2:0:0:
442,102,13000,6,0,B|488:150|488:150|438:182|438:182|334:183|334:183,1,202,4|0,1:2|1:0,0:0:0:0:
110,228,13529,2,0,L|3:227,1,101,10|2,0:2|1:2,0:0:0:0:
110,228,13882,1,2,1:2:0:0:
344,68,14058,2,0,B|397:184|397:184|440:65|440:65|458:118|458:118|479:145|477:181|477:181|497:97|497:97|482:49|482:49|560:164|470:288|470:288|443:241|429:180|429:180|390:242|390:242|356:281|356:281|236:217|98:290,1,1262.5,4|0,1:2|1:2,0:0:0:0:
52,292,15029,5,0,1:2:0:0:
282,214,15110,2,0,L|442:214,1,151.500005779267,8|0,0:2|1:0,0:0:0:0:
186,118,15374,2,0,L|26:118,1,151.500005779267,8|0,0:2|1:0,0:0:0:0:
282,54,15639,2,0,L|378:54,1,75.7500028896333,8|0,0:2|1:0,0:0:0:0:
122,54,15823,6,0,P|26:102|67:213,1,202,4|0,1:2|1:0,0:0:0:0:
121,219,16123,1,0,1:0:0:0:
346,64,16223,2,0,L|114:207,1,265.125002528429,4|0,1:2|1:0,0:0:0:0:
410,86,16591,2,0,P|515:137|442:177,1,202,4|0,1:2|1:2,0:0:0:0:
437,184,16852,1,0,1:2:0:0:
243,205,16914,6,0,B|172:206|85:199|85:199|91:155,1,202,4|0,3:2|3:0,0:0:0:0:
105,116,17162,1,0,3:0:0:0:
135,98,17224,1,0,3:0:0:0:
170,102,17286,1,0,3:0:0:0:
211,116,17344,1,0,3:0:0:0:
262,133,17402,1,0,3:0:0:0:
324,150,17460,1,0,3:0:0:0:
391,162,17518,1,0,3:0:0:0:
253,128,17585,5,0,3:0:0:0:
124,91,17648,1,0,3:0:0:0:
73,82,17711,1,0,3:0:0:0:
125,92,17774,1,0,3:0:0:0:
180,106,17838,1,0,3:0:0:0:
223,119,17901,1,0,3:0:0:0:
237,125,17964,1,0,3:0:0:0:
223,119,18022,1,0,3:0:0:0:
180,106,18081,1,0,3:0:0:0:
17,72,18140,1,8,3:2:0:0:
204,116,18262,1,8,0:2:0:0:
442,214,18387,6,0,L|218:214,1,202,4|2,1:2|1:2,0:0:0:0:
140,214,18754,1,0,0:0:0:0:
346,118,18876,2,0,L|218:118,2,101,10|8|4,0:2|0:3|0:3,0:0:0:0:
106,54,19244,5,12,0:2:0:0:
336,54,19366,1,8,0:2:0:0:
308,54,19488,1,8,0:3:0:0:
207,54,19611,1,8,0:3:0:0:
10,54,19733,1,4,0:3:0:0:
111,54,19856,1,0,1:0:0:0:
10,54,19978,1,4,0:3:0:0:
240,192,20101,6,0,L|368:192,1,101,4|0,1:2|0:0,0:0:0:0:
240,112,20345,2,0,L|128:112,1,101,0|0,1:0|1:0,0:0:0:0:
368,48,20590,2,0,L|240:48,2,101,8|8|4,0:2|0:3|0:3,0:0:0:0:
144,112,20958,6,0,L|368:112,1,202,4|0,1:2|1:0,0:0:0:0:
144,112,21325,1,8,0:2:0:0:
346,112,21447,1,8,0:2:0:0:
51,204,21570,2,0,L|179:204,1,101,0|0,1:0|1:0,0:0:0:0:
368,112,21815,1,8,0:2:0:0:
152,204,21937,1,8,0:2:0:0:
464,48,22060,6,0,L|240:48,1,202,4|0,1:2|1:2,0:0:0:0:
162,48,22427,1,0,0:0:0:0:
368,144,22549,2,0,L|240:144,2,101,10|4|4,0:2|0:3|0:3,0:0:0:0:
128,48,22917,6,0,L|352:48,1,202,12|0,0:2|1:0,0:0:0:0:
426,48,23284,1,8,0:2:0:0:
229,48,23406,1,8,0:3:0:0:
128,48,23529,1,4,0:3:0:0:
368,48,23651,1,0,1:0:0:0:
128,128,23774,6,0,B|229:127|229:127|128:128,1,202,4|0,1:2|1:0,0:0:0:0:
27,208,24141,1,8,0:2:0:0:
256,192,24263,1,8,0:2:0:0:
32,128,24386,1,8,0:2:0:0:
304,80,24508,2,0,L|192:80,1,101,4|8,1:2|0:2,0:0:0:0:
448,144,24753,1,8,0:3:0:0:
224,80,24876,1,4,0:3:0:0:
448,144,24998,5,0,1:0:0:0:
320,80,25121,1,8,0:2:0:0:
448,144,25243,2,8,L|525:144,2,67.3333333333333,0|0|0,1:2|0:0|0:0,0:2:0:0:
291,48,25488,2,0,L|195:48,2,67.3333333333333,8|0|0,1:2|0:0|0:0,0:0:0:0:
80,160,25733,6,0,L|288:160,1,202,4|2,1:2|1:2,0:0:0:0:
176,160,26100,1,2,0:2:0:0:
282,160,26222,1,2,0:2:0:0:
176,160,26345,1,2,0:2:0:0:
480,64,26467,6,0,L|272:64,1,202,8|2,0:2|0:2,0:0:0:0:
480,64,26834,1,2,1:2:0:0:
278,64,26956,1,2,0:2:0:0:
379,66,27079,1,2,0:2:0:0:
64,128,27202,6,0,L|192:128,1,101,2|0,1:2|0:0,0:0:0:0:
400,192,27447,2,0,L|288:192,1,101,2|0,1:2|0:0,0:0:0:0:
64,128,27692,1,2,1:2:0:0:
299,192,27814,1,0,0:0:0:0:
64,128,27937,6,0,P|16:176|82:219,1,151.5,10|0,1:2|0:0,0:0:0:0:
256,144,28181,2,0,P|304:96|238:53,1,151.5,2|0,1:2|0:0,0:0:0:0:
112,256,28426,2,0,P|48:208|80:144,1,151.5,2|0,1:2|0:0,0:0:0:0:
256,256,28671,6,0,L|416:256,1,151.5,4|0,1:2|0:0,0:0:0:0:
256,192,28916,2,0,B|155:192|155:192|155:138,1,151.5,0|0,1:0|0:0,0:0:0:0:
224,128,29161,2,0,B|325:128|325:128|325:74,1,151.5,0|0,1:0|0:0,0:0:0:0:
160,192,29406,6,0,B|59:192|59:192|59:141,1,151.5,8|0,0:2|0:0,0:0:0:0:
128,112,29651,2,0,B|229:112|229:112|229:162,1,151.5,0|0,1:0|0:0,0:0:0:0:
160,192,29896,2,0,L|96:112,1,101,0|0,1:0|1:0,0:0:0:0:
389,14,30141,6,0,L|224:128,1,181.799994451904,4|0,1:2|0:0,0:0:0:0:
464,80,30386,2,0,P|523:127|482:216,1,181.799994451904,0|0,1:0|0:0,0:0:0:0:
281,188,30630,2,0,L|441:76,1,181.799994451904,0|0,1:2|0:0,0:0:0:0:
233,76,30875,5,8,0:2:0:0:
25,60,30998,1,8,0:2:0:0:
233,76,31120,2,0,L|395:76,1,151.5,8|0,0:2|0:0,0:0:0:0:
160,104,31365,6,0,B|58:95|-30:138|-31:284|57:322|169:308|169:308|266:300|266:204|165:204|165:204|109:202|98:154|110:119|183:120,1,766.589997660553,8|0,0:2|0:0,0:0:0:0:
384,85,32835,5,2,2:0:0:0:
256,192,32957,12,0,35773,0:0:0:0:
