osu file format v14

[General]
AudioFilename: audio.mp3
AudioLeadIn: 0
PreviewTime: 15822
Countdown: 0
SampleSet: Normal
StackLeniency: 0.2
Mode: 1
LetterboxInBreaks: 0
WidescreenStoryboard: 1

[Editor]
DistanceSpacing: 2.2
BeatDivisor: 4
GridSize: 32
TimelineZoom: 2.4

[Metadata]
Title:Presidential Palace Adventure Theme Song
TitleUnicode:Presidential Palace Adventure Theme Song
Artist:SimpleInfo Design
ArtistUnicode:簡訊設計
Creator:[ TNTlealu ]
Version:Muzukashii
Source:總統府大冒險
Tags:Adventure Game AVG 什麼!台灣高中三年二班的我竟然掉入了異世界而且還遇見了總統!? pv taiwan taiwanese 蔡英文 民進黨 chinese 小英日常製作委員會 志祺七七 x 圖文不符 What! In the second class of Taiwan's third grade high school, I fell into a different world and met the president!? tsai ing-wen dpp jazz instrumental
BeatmapID:3483962
BeatmapSetID:1704973

[Difficulty]
HPDrainRate:6
CircleSize:2
OverallDifficulty:5
ApproachRate:10
SliderMultiplier:1.4
SliderTickRate:1

[Events]
//Background and Video events
0,0,"cat.jpg",0,0
//Break Periods
//Storyboard Layer 0 (Background)
//Storyboard Layer 1 (Fail)
//Storyboard Layer 2 (Pass)
//Storyboard Layer 3 (Foreground)
//Storyboard Layer 4 (Overlay)
//Storyboard Sound Samples

[TimingPoints]
295,352.941176470588,5,1,0,50,1,0
5589,352.941176470588,6,1,0,50,1,0
7706,352.941176470588,5,1,0,70,1,0
7706,-100,5,1,0,70,0,0
15110,352.941176470588,5,1,0,70,1,8
15823,400,5,1,0,80,1,0
15823,-88.4955752212389,5,1,0,80,0,0
16023,-85.4700854700855,5,1,0,80,0,0
16123,-84.0336134453781,5,1,0,80,0,0
16223,370.37037037037,5,1,0,80,1,8
16223,-90.0900900900901,5,1,0,80,0,8
16408,-86.9565217391304,5,1,0,80,0,8
16500,-85.4700854700855,5,1,0,80,0,8
16591,400,5,1,0,80,1,8
16591,-79.3650793650794,5,1,0,80,0,8
16791,247.933884297521,5,1,0,80,1,8
16791,-128.205128205128,5,1,0,80,0,0
16852,-125,5,1,0,80,0,0
16914,372.670807453416,5,1,0,80,1,0
16914,-80.6451612903226,5,1,0,80,0,0
17038,-78.125,5,1,0,80,0,0
17100,-76.9230769230769,5,1,0,80,0,0
17162,-75.7575757575758,5,1,0,80,0,0
17287,346.820809248555,5,1,0,80,1,8
17287,-78.7401574803149,5,1,0,80,0,0
17344,-77.5193798449612,5,1,0,80,0,0
17402,-76.3358778625954,5,1,0,80,0,0
17460,-75.187969924812,5,1,0,80,0,0
17518,-74.0740740740741,5,1,0,80,0,0
17585,379.746835443038,5,1,0,80,1,8
17585,-66.6666666666667,5,1,0,80,0,0
17711,-64.5161290322581,5,1,0,80,0,0
17838,-64.5161290322581,5,1,0,80,0,0
17905,-64.9350649350649,5,1,0,80,0,0
17964,352.941176470588,5,1,0,80,1,8
17964,-70.4225352112676,5,1,0,80,0,0
18022,-70.9219858156028,5,1,0,80,0,0
18081,-71.4285714285714,5,1,0,80,0,0
18140,491.803278688525,5,1,0,80,1,8
18140,-51.8134715025907,5,1,0,80,0,0
18387,244.897959183673,4,1,0,90,1,1
20101,244.897959183673,4,1,0,90,1,9
23774,244.897959183673,5,1,0,90,1,9
24508,244.897959183673,3,1,0,90,1,1
24873,-101.456138273943,3,1,0,90,0,1
24995,-102.942942942943,3,1,0,90,0,1
25117,-104.47397293673,3,1,0,90,0,1
25240,-106.064356435644,3,1,0,90,0,1
25322,-107.151787946987,3,1,0,90,0,1
25403,-108.248073765315,3,1,0,90,0,1
25485,-109.380982769623,3,1,0,90,0,1
25607,-111.111111111111,3,1,0,90,0,1
25733,244.897959183673,3,1,0,90,1,1
25733,-111.111111111111,3,1,0,90,0,1
31365,-111.111111111111,3,1,0,90,0,0
32957,-111.111111111111,3,1,0,20,0,0

[HitObjects]
256,192,295,5,0,0:0:0:0:
256,192,471,1,0,0:0:0:0:
256,192,647,1,0,0:0:0:0:
256,192,824,1,0,0:0:0:0:
256,192,1000,1,2,0:0:0:0:
256,192,2059,1,0,0:0:0:0:
256,192,2236,1,0,0:0:0:0:
256,192,2412,1,2,0:0:0:0:
256,192,2589,1,0,0:0:0:0:
256,192,2765,1,2,0:0:0:0:
256,192,3824,1,0,0:0:0:0:
256,192,4000,1,0,0:0:0:0:
256,192,4177,1,0,0:0:0:0:
256,192,4353,1,0,0:0:0:0:
256,192,4530,1,2,0:0:0:0:
256,192,5589,1,0,0:0:0:0:
256,192,5765,1,0,0:0:0:0:
256,192,5941,1,2,0:0:0:0:
256,192,6118,1,0,0:0:0:0:
256,192,6294,1,2,0:0:0:0:
256,192,6471,1,2,0:0:0:0:
256,192,6647,1,2,0:0:0:0:
256,192,7530,1,0,0:0:0:0:
256,192,7618,1,0,0:0:0:0:
256,192,7706,1,0,0:0:0:0:
256,192,7882,1,2,0:0:0:0:
256,192,8058,1,2,0:0:0:0:
256,192,8411,1,0,0:0:0:0:
256,192,8588,1,2,0:0:0:0:
256,192,8941,1,0,0:0:0:0:
256,192,9294,1,0,0:0:0:0:
256,192,9470,1,2,0:0:0:0:
256,192,9647,1,2,0:0:0:0:
256,192,9823,1,2,0:0:0:0:
256,192,10176,1,0,0:0:0:0:
256,192,10353,1,2,0:0:0:0:
256,192,10705,1,0,0:0:0:0:
256,192,11058,1,0,0:0:0:0:
256,192,11235,1,0,0:0:0:0:
256,192,11411,1,2,0:0:0:0:
256,192,11588,1,2,0:0:0:0:
256,192,11941,1,0,0:0:0:0:
256,192,12117,1,2,0:0:0:0:
256,192,12470,1,0,0:0:0:0:
256,192,12823,1,2,0:0:0:0:
256,192,12911,1,2,0:0:0:0:
256,192,13000,1,2,0:0:0:0:
256,192,13529,1,0,0:0:0:0:
256,192,13705,1,2,0:0:0:0:
256,192,13882,1,0,0:0:0:0:
256,192,14058,1,6,0:0:0:0:
256,192,14940,1,0,0:0:0:0:
256,192,15110,1,6,0:0:0:0:
256,192,15374,1,6,0:0:0:0:
256,192,15639,1,6,0:0:0:0:
256,192,15823,1,0,0:0:0:0:
256,192,16223,1,2,0:0:0:0:
256,192,16592,1,2,0:0:0:0:
256,192,16914,1,2,0:0:0:0:
256,192,17162,12,0,18140,0:0:0:0:
256,192,18387,5,2,0:0:0:0:
256,192,18631,1,2,0:0:0:0:
256,192,18876,1,2,0:0:0:0:
256,192,18999,1,2,0:0:0:0:
256,192,19121,1,0,0:0:0:0:
256,192,19244,1,2,0:0:0:0:
256,192,19489,1,2,0:0:0:0:
256,192,19733,1,2,0:0:0:0:
256,192,19978,1,0,0:0:0:0:
256,192,20101,1,0,0:0:0:0:
256,192,20345,1,2,0:0:0:0:
256,192,20590,1,0,0:0:0:0:
256,192,20713,1,0,0:0:0:0:
256,192,20835,1,2,0:0:0:0:
256,192,20958,1,2,0:0:0:0:
256,192,21325,1,2,0:0:0:0:
256,192,21570,1,2,0:0:0:0:
256,192,22060,1,2,0:0:0:0:
256,192,22305,1,2,0:0:0:0:
256,192,22549,1,2,0:0:0:0:
256,192,22672,1,2,0:0:0:0:
256,192,22794,1,0,0:0:0:0:
256,192,22917,1,2,0:0:0:0:
256,192,23162,1,2,0:0:0:0:
256,192,23407,1,2,0:0:0:0:
256,192,23652,1,2,0:0:0:0:
256,192,23774,1,2,0:0:0:0:
256,192,24018,1,0,0:0:0:0:
256,192,24141,1,0,0:0:0:0:
256,192,24263,1,2,0:0:0:0:
256,192,24508,1,2,0:0:0:0:
256,192,24753,1,2,0:0:0:0:
256,192,24876,1,2,0:0:0:0:
256,192,24998,1,0,0:0:0:0:
256,192,25243,1,2,0:0:0:0:
256,192,25488,1,2,0:0:0:0:
256,192,25733,1,4,0:0:0:0:
256,192,26222,1,0,0:0:0:0:
256,192,26467,1,2,0:0:0:0:
256,192,26712,1,2,0:0:0:0:
256,192,26835,1,2,0:0:0:0:
256,192,26957,1,0,0:0:0:0:
256,192,27202,1,2,0:0:0:0:
256,192,27447,1,2,0:0:0:0:
256,192,27692,1,2,0:0:0:0:
256,192,27937,1,0,0:0:0:0:
256,192,28426,1,2,0:0:0:0:
256,192,28671,1,0,0:0:0:0:
256,192,28916,1,2,0:0:0:0:
256,192,29161,1,2,0:0:0:0:
256,192,29406,1,0,0:0:0:0:
256,192,29651,1,2,0:0:0:0:
256,192,29896,1,2,0:0:0:0:
256,192,30141,1,0,0:0:0:0:
256,192,30386,1,2,0:0:0:0:
256,192,30630,1,2,0:0:0:0:
256,192,30875,1,2,0:0:0:0:
256,192,30998,1,2,0:0:0:0:
256,192,31120,1,0,0:0:0:0:
256,192,31365,1,6,0:0:0:0:
256,192,32835,1,0,0:0:0:0:
256,192,32957,12,0,35773,0:0:0:0:
