osu file format v14

[General]
AudioFilename: audio.mp3
AudioLeadIn: 0
PreviewTime: 15822
Countdown: 0
SampleSet: Normal
StackLeniency: 0.2
Mode: 1
LetterboxInBreaks: 0
WidescreenStoryboard: 1

[Editor]
DistanceSpacing: 2.2
BeatDivisor: 4
GridSize: 32
TimelineZoom: 2.4

[Metadata]
Title:Presidential Palace Adventure Theme Song
TitleUnicode:Presidential Palace Adventure Theme Song
Artist:SimpleInfo Design
ArtistUnicode:簡訊設計
Creator:[ TNTlealu ]
Version:Futsuu
Source:總統府大冒險
Tags:Adventure Game AVG 什麼!台灣高中三年二班的我竟然掉入了異世界而且還遇見了總統!? pv taiwan taiwanese 蔡英文 民進黨 chinese 小英日常製作委員會 志祺七七 x 圖文不符 What! In the second class of Taiwan's third grade high school, I fell into a different world and met the president!? tsai ing-wen dpp jazz instrumental
BeatmapID:3483961
BeatmapSetID:1704973

[Difficulty]
HPDrainRate:7
CircleSize:2
OverallDifficulty:4
ApproachRate:10
SliderMultiplier:1.4
SliderTickRate:1

[Events]
//Background and Video events
0,0,"cat.jpg",0,0
//Break Periods
//Storyboard Layer 0 (Background)
//Storyboard Layer 1 (Fail)
//Storyboard Layer 2 (Pass)
//Storyboard Layer 3 (Foreground)
//Storyboard Layer 4 (Overlay)
//Storyboard Sound Samples

[TimingPoints]
295,352.941176470588,5,1,0,50,1,0
5589,352.941176470588,6,1,0,50,1,0
7706,352.941176470588,5,1,0,70,1,0
7706,-100,6,1,0,70,0,0
15110,352.941176470588,5,1,0,70,1,8
15823,400,5,1,0,80,1,0
15823,-88.4955752212389,5,1,0,80,0,0
16223,370.37037037037,5,1,0,80,1,8
16223,-95.2380952380952,5,1,0,80,0,8
16591,400,5,1,0,80,1,8
16591,-88.4955752212389,5,1,0,80,0,8
16791,247.933884297521,5,1,0,80,1,8
16791,-142.857142857143,5,1,0,80,0,8
16914,372.670807453416,5,1,0,80,1,0
16914,-94.3396226415094,5,1,0,80,0,0
17287,346.820809248555,5,1,0,80,1,8
17287,-102.040816326531,5,1,0,80,0,8
17585,379.746835443038,5,1,0,80,1,8
17585,-93.0232558139535,5,1,0,80,0,8
17964,352.941176470588,5,1,0,80,1,8
18140,491.803278688525,5,1,0,80,1,8
18140,-71.4285714285714,5,1,0,80,0,8
18387,244.897959183673,4,1,0,90,1,1
18387,-144.927536231884,4,1,0,90,0,1
20101,244.897959183673,4,1,0,90,1,9
20101,-144.927536231884,4,1,0,90,0,9
23774,244.897959183673,5,1,0,90,1,9
23774,-144.927536231884,5,1,0,90,0,9
24508,244.897959183673,3,1,0,90,1,1
24508,-144.927536231884,3,1,0,90,0,1
25733,244.897959183673,3,1,0,90,1,1
25733,-144.927536231884,3,1,0,90,0,1
31365,-144.927536231884,3,1,0,90,0,0
35773,-144.927536231884,3,1,0,20,0,0

[HitObjects]
256,192,295,5,0,1:0:0:0:
256,192,647,1,0,1:0:0:0:
256,192,824,1,2,1:0:0:0:
256,192,1000,1,2,1:0:0:0:
256,192,2059,1,0,1:0:0:0:
256,192,2412,1,0,1:0:0:0:
256,192,2589,1,0,1:0:0:0:
256,192,2765,1,2,1:0:0:0:
256,192,3824,1,0,1:0:0:0:
256,192,4177,1,0,1:0:0:0:
256,192,4353,1,2,1:0:0:0:
256,192,4530,1,2,1:0:0:0:
256,192,5589,1,0,1:0:0:0:
256,192,5941,1,0,1:0:0:0:
256,192,6118,1,0,1:0:0:0:
256,192,6294,1,2,1:0:0:0:
256,192,6471,1,2,1:0:0:0:
256,192,6647,1,0,1:0:0:0:
256,192,7706,1,0,1:0:0:0:
256,192,7883,1,2,1:0:0:0:
256,192,8059,1,2,1:0:0:0:
256,192,8412,1,2,1:0:0:0:
256,192,8941,1,0,1:0:0:0:
256,192,9471,1,0,1:0:0:0:
256,192,9647,1,2,1:0:0:0:
256,192,9824,1,2,1:0:0:0:
256,192,10177,1,0,1:0:0:0:
256,192,10706,1,2,1:0:0:0:
256,192,11236,1,2,1:0:0:0:
256,192,11412,1,0,1:0:0:0:
256,192,11589,1,0,1:0:0:0:
256,192,11941,1,2,1:0:0:0:
256,192,12471,1,0,1:0:0:0:
256,192,12824,1,0,1:0:0:0:
256,192,13000,1,2,1:0:0:0:
256,192,13530,1,2,1:0:0:0:
256,192,13706,1,0,1:0:0:0:
256,192,14059,1,6,1:0:0:0:
256,192,15110,1,2,1:0:0:0:
256,192,15374,1,2,1:0:0:0:
256,192,15639,1,2,1:0:0:0:
256,192,15823,1,0,1:0:0:0:
256,192,16223,1,2,1:0:0:0:
256,192,16591,1,2,1:0:0:0:
256,192,16914,1,2,1:0:0:0:
256,192,17162,12,0,18140,1:0:0:0:
256,192,18387,5,0,1:0:0:0:
256,192,18631,5,2,1:0:0:0:
256,192,19244,1,0,1:0:0:0:
256,192,19489,1,2,1:0:0:0:
256,192,19733,1,0,1:0:0:0:
256,192,20101,1,0,1:0:0:0:
256,192,20345,1,2,1:0:0:0:
256,192,20958,1,2,1:0:0:0:
256,192,21325,1,2,1:0:0:0:
256,192,21570,1,2,1:0:0:0:
256,192,22060,1,0,1:0:0:0:
256,192,22305,1,2,1:0:0:0:
256,192,22917,1,2,1:0:0:0:
256,192,23162,1,2,1:0:0:0:
256,192,23407,1,0,1:0:0:0:
256,192,23774,1,2,1:0:0:0:
256,192,24018,1,0,1:0:0:0:
256,192,24508,1,2,1:0:0:0:
256,192,25733,1,0,1:0:0:0:
256,192,25977,1,2,1:0:0:0:
256,192,26222,1,2,1:0:0:0:
256,192,26467,1,0,1:0:0:0:
256,192,26957,1,0,1:0:0:0:
256,192,27202,1,2,1:0:0:0:
256,192,27692,1,2,1:0:0:0:
256,192,27937,1,0,1:0:0:0:
256,192,28426,1,2,1:0:0:0:
256,192,28671,1,0,1:0:0:0:
256,192,28916,1,2,1:0:0:0:
256,192,29406,1,0,1:0:0:0:
256,192,29651,1,2,1:0:0:0:
256,192,30141,1,0,1:0:0:0:
256,192,30386,1,2,1:0:0:0:
256,192,30630,1,2,1:0:0:0:
256,192,30875,1,0,1:0:0:0:
256,192,31120,1,0,1:0:0:0:
256,192,31365,1,6,1:0:0:0:
256,192,32835,1,0,1:0:0:0:
256,192,32957,12,0,35773,1:0:0:0:
