osu file format v14

[General]
AudioFilename: audio.mp3
AudioLeadIn: 0
PreviewTime: 30444
Countdown: 1
SampleSet: Soft
StackLeniency: 0.7
Mode: 0
LetterboxInBreaks: 0
WidescreenStoryboard: 1

[Editor]
Bookmarks: 30444,48513,66076
DistanceSpacing: 0.6
BeatDivisor: 4
GridSize: 32
TimelineZoom: 1

[Metadata]
Title:You Suck at Love (Speed Up Ver)
TitleUnicode:You Suck at Love (Speed Up Ver)
Artist:Simple Plan
ArtistUnicode:Simple Plan
Creator:carc1nogen
Version:Insane
Source:
Tags:
BeatmapID:2020616
BeatmapSetID:954544

[Difficulty]
HPDrainRate:5
CircleSize:4.2
OverallDifficulty:8
ApproachRate:9
SliderMultiplier:1.6
SliderTickRate:1

[Events]
//Background and Video events
0,0,"anime-girl-crying-tears-sad-sunset-clouds-scenic-sky.jpeg",0,0
//Break Periods
//Storyboard Layer 0 (Background)
//Storyboard Layer 1 (Fail)
//Storyboard Layer 2 (Pass)
//Storyboard Layer 3 (Foreground)
//Storyboard Sound Samples

[TimingPoints]
1230,337.742752603434,4,2,0,65,1,0
5367,-100,4,2,0,5,0,0
5451,-100,4,2,0,65,0,0
9335,-125,4,2,0,65,0,0
19636,-80,4,2,0,65,0,0
30444,-80,4,2,0,65,0,1
31542,-80,4,2,0,5,0,1
31626,-80,4,2,0,65,0,1
36355,-57.1428571428571,4,2,0,65,0,1
37030,-80,4,2,0,65,0,1
37706,-57.1428571428571,4,2,0,65,0,1
38212,-80,4,2,0,65,0,1
47163,-80,4,2,0,65,0,0
49864,-57.1428571428571,4,2,0,65,0,0
50202,-80,4,2,0,65,0,1
55268,-57.1428571428571,4,2,0,65,0,1
55775,-80,4,2,0,65,0,1
56619,-57.1428571428571,4,2,0,65,0,1
57127,-80,4,2,0,65,0,1
62108,-80,4,2,0,5,0,1
62192,-80,4,2,0,65,0,1
72831,-100,4,2,0,65,0,0

[Colours]
Combo1 : 255,102,204
Combo2 : 32,178,170
Combo3 : 242,193,77
Combo4 : 89,171,255

[HitObjects]
256,192,1230,12,0,3763,0:0:0:0:
327,173,3931,5,0,0:0:0:0:
287,325,4100,1,0,0:0:0:0:
421,197,4269,1,0,0:0:0:0:
285,240,4438,1,0,0:0:0:0:
285,240,4607,2,0,L|202:237,1,80
114,339,4945,5,0,0:0:0:0:
52,265,5114,2,0,P|109:244|171:261,1,120
222,308,5451,1,0,0:0:0:0:
222,308,5620,2,0,P|267:320|304:309,1,80
285,142,5958,5,0,0:0:0:0:
246,132,6042,1,0,0:0:0:0:
207,138,6126,1,0,0:0:0:0:
345,197,6296,5,0,0:0:0:0:
383,206,6380,1,0,0:0:0:0:
424,189,6465,2,0,L|456:165,1,40
512,119,6633,5,0,0:0:0:0:
424,283,6802,1,0,0:0:0:0:
378,118,6971,1,0,0:0:0:0:
299,271,7140,1,0,0:0:0:0:
299,271,7309,2,0,L|306:358,1,80
226,158,7647,1,0,0:0:0:0:
226,158,7816,2,0,L|219:245,1,80
299,131,8153,1,0,0:0:0:0:
156,276,8322,1,0,0:0:0:0:
256,192,8407,12,0,9166,0:0:0:0:
305,123,9335,6,0,P|303:166|318:198,1,64
385,256,9673,1,0,0:0:0:0:
204,181,9842,6,0,P|232:212|266:224,1,64
385,256,10180,1,0,0:0:0:0:
305,123,10349,1,0,0:0:0:0:
181,288,10517,1,0,0:0:0:0:
181,288,10686,6,0,L|183:353,1,64
303,186,11024,2,0,L|305:121,1,64
89,172,11362,2,0,P|128:176|155:167,1,64
224,125,11700,2,0,P|185:121|158:130,1,64
63,216,12037,6,0,P|59:258|66:287,1,64
143,350,12375,1,0,0:0:0:0:
209,166,12544,1,0,0:0:0:0:
209,166,12713,2,0,P|213:208|206:237,1,64
143,350,13050,1,0,0:0:0:0:
208,229,13219,1,0,0:0:0:0:
208,229,13388,6,0,P|250:225|279:232,1,64
383,312,13726,2,0,P|341:316|312:309,1,64
421,239,14064,2,0,P|463:235|492:242,2,64
421,239,14570,1,0,0:0:0:0:
308,195,14739,6,0,P|312:153|333:130,1,64
435,89,15077,1,0,0:0:0:0:
244,108,15246,1,0,0:0:0:0:
244,108,15415,2,0,P|270:74|300:67,1,64
435,89,15752,1,0,0:0:0:0:
308,195,15921,1,0,0:0:0:0:
308,195,16090,6,0,P|267:206|238:194,1,64
389,151,16428,2,0,P|429:139|458:151,1,64
352,269,16766,2,0,L|341:348,1,64
421,227,17103,1,0,0:0:0:0:
252,344,17272,6,0,L|247:272,1,64
182,149,17610,1,0,0:0:0:0:
93,258,17779,1,0,0:0:0:0:
93,258,17948,2,0,L|98:330,1,64
217,138,18286,1,0,0:0:0:0:
288,254,18454,1,0,0:0:0:0:
288,254,18623,6,0,L|209:249,1,64
329,148,18961,1,0,0:0:0:0:
329,148,19130,2,0,L|399:146,1,64
246,91,19468,1,0,0:0:0:0:
283,320,19636,5,0,0:0:0:0:
283,320,19805,1,0,0:0:0:0:
201,160,19974,5,0,0:0:0:0:
201,160,20059,1,0,0:0:0:0:
200,159,20143,2,0,P|247:173|294:157,1,100
368,57,20481,1,0,0:0:0:0:
339,260,20650,1,0,0:0:0:0:
222,193,20819,2,0,P|174:178|127:194,1,100
48,309,21156,1,0,0:0:0:0:
224,234,21325,1,0,0:0:0:0:
224,234,21494,6,0,L|215:340,1,100
386,206,21832,2,0,L|395:100,1,100
465,333,22170,1,0,0:0:0:0:
303,218,22338,1,0,0:0:0:0:
483,150,22507,1,0,0:0:0:0:
369,332,22676,1,0,0:0:0:0:
369,332,22845,6,0,L|376:222,1,100
227,71,23183,1,0,0:0:0:0:
227,71,23352,2,0,L|234:181,1,100
330,290,23689,1,0,0:0:0:0:
268,120,23858,1,0,0:0:0:0:
166,268,24027,1,0,0:0:0:0:
166,268,24196,6,0,P|159:338|166:377,1,100
304,255,24534,2,0,P|311:185|304:146,1,100
348,292,24871,2,0,P|355:222|348:183,1,100
268,79,25209,1,0,0:0:0:0:
200,244,25378,1,0,0:0:0:0:
200,244,25547,5,0,0:0:0:0:
92,145,25716,1,0,0:0:0:0:
281,179,25885,1,0,0:0:0:0:
90,273,26054,1,0,0:0:0:0:
163,114,26222,2,0,P|179:172|168:217,1,100
62,111,26560,2,0,P|54:62|70:15,1,100
255,202,26898,5,0,0:0:0:0:
156,310,27067,1,0,0:0:0:0:
201,116,27236,1,0,0:0:0:0:
284,312,27405,1,0,0:0:0:0:
163,202,27573,2,0,L|64:198,1,100
286,126,27911,2,0,L|385:122,1,100
236,244,28249,5,0,0:0:0:0:
351,339,28418,1,0,0:0:0:0:
289,177,28587,1,0,0:0:0:0:
279,378,28756,1,0,0:0:0:0:
388,216,28924,5,0,0:0:0:0:
192,312,29093,1,0,0:0:0:0:
435,301,29262,1,0,0:0:0:0:
205,226,29431,1,0,0:0:0:0:
352,193,29600,6,0,P|400:153|400:101,1,100
264,48,29938,1,0,0:0:0:0:
332,272,30107,1,0,0:0:0:0:
117,125,30951,6,0,P|134:189|128:227,1,100
60,360,31289,2,0,P|152:328|201:343,1,150
181,278,31626,2,0,P|164:214|170:176,1,100
228,65,31964,1,0,0:0:0:0:
266,217,32133,6,0,B|362:250|362:250|474:207,1,200
281,119,32640,2,0,L|180:110,1,100
363,174,32977,2,0,B|413:151|413:151|438:102,1,100
266,217,33315,2,0,L|271:325,1,100
