osu file format v14

[General]
AudioFilename: audio.mp3
AudioLeadIn: 0
PreviewTime: 30301
Countdown: 0
SampleSet: Soft
StackLeniency: 0.4
Mode: 0
LetterboxInBreaks: 0
WidescreenStoryboard: 0

[Editor]
DistanceSpacing: 0.6
BeatDivisor: 4
GridSize: 8
TimelineZoom: 1.6

[Metadata]
Title:You Suck At Love (Speed Up Ver.)
TitleUnicode:You Suck At Love (Speed Up Ver.)
Artist:Simple Plan
ArtistUnicode:Simple Plan
Creator:Reform
Version:shardex' Extra
Source:
Tags:Get Your Heart On! nightcore Kujinn Rolniczy Shardex P4ndemonium P4nde Naitsirk IceBolt
BeatmapID:1720423
BeatmapSetID:819112

[Difficulty]
HPDrainRate:5
CircleSize:3.8
OverallDifficulty:9
ApproachRate:9.2
SliderMultiplier:1.8
SliderTickRate:1

[Events]
//Background and Video events
0,0,"BG.png",0,0
//Break Periods
//Storyboard Layer 0 (Background)
//Storyboard Layer 1 (Fail)
//Storyboard Layer 2 (Pass)
//Storyboard Layer 3 (Foreground)
//Storyboard Sound Samples

[TimingPoints]
1230,337.742752603434,4,2,2,65,1,0
9335,-111.111111111111,4,2,2,45,0,0
20143,-105.263157894737,4,2,2,55,0,0
28249,-105.263157894737,4,2,2,60,0,0
29600,-105.263157894737,4,2,2,70,0,0
30951,-86.9565217391304,4,2,2,85,0,1
39057,-86.9565217391304,4,2,2,65,0,0
41759,-86.9565217391304,4,2,2,85,0,1
46994,-86.9565217391304,4,2,2,65,0,0
49864,-86.9565217391304,4,2,2,85,0,1
57970,-86.9565217391304,4,2,2,65,0,0
60672,-86.9565217391304,4,2,2,85,0,1
66076,-86.9565217391304,4,2,2,90,0,1
72831,-125,4,2,2,65,0,0
74097,-125,4,2,2,5,0,0
74182,-125,4,2,2,65,0,0
76208,-86.9565217391304,4,2,2,65,0,0
78066,-121.951219512195,4,2,2,65,0,0
79079,-121.951219512195,4,2,2,5,0,0

[Colours]
Combo1 : 164,47,47
Combo2 : 118,135,203
Combo3 : 177,190,224

[HitObjects]
256,192,1230,12,0,3594,0:0:0:0:
129,64,3931,5,6,1:0:0:0:
133,68,4100,2,0,P|115:114|111:164,1,90,2|8,1:0|0:0,0:0:0:0:
294,207,4438,1,2,1:0:0:0:
294,207,4607,2,0,P|288:162|271:120,1,90,2|0,1:0|0:0,0:0:0:0:
182,262,4945,5,10,0:0:0:0:
182,262,5114,2,0,P|187:306|204:348,1,90,2|0,1:0|0:0,0:0:0:0:
363,278,5451,1,2,1:0:0:0:
363,278,5620,2,0,P|381:232|385:182,1,90,10|0,0:0|1:0,0:0:0:0:
307,49,5958,5,8,0:0:0:0:
307,49,6042,1,0,3:0:0:0:
307,49,6127,2,0,L|287:103,1,45,0|0,3:0|3:0,0:0:0:0:
222,228,6296,1,8,0:0:0:0:
222,228,6380,1,0,3:0:0:0:
222,228,6465,2,0,L|202:174,1,45,0|0,3:0|3:0,0:0:0:0:
68,69,6633,5,6,1:0:0:0:
68,69,6802,2,0,L|90:186,1,90,2|8,1:0|0:0,0:0:0:0:
209,17,7140,1,2,1:0:0:0:
209,17,7309,2,0,L|192:105,1,90,2|0,1:0|0:0,0:0:0:0:
341,209,7647,5,10,0:0:0:0:
341,209,7816,2,0,L|324:120,1,90,2|0,1:0|0:0,0:0:0:0:
481,179,8153,1,2,1:0:0:0:
481,179,8322,2,0,L|497:90,1,90,10|0,0:0|0:0,0:0:0:0:
350,47,8660,1,0,1:0:0:0:
265,220,8829,1,8,0:0:0:0:
176,58,8998,2,0,L|232:69,1,45,10|0,0:0|0:0,0:0:0:0:
414,113,9166,1,0,0:0:0:0:
414,113,9251,1,0,0:0:0:0:
414,113,9335,6,0,L|395:225,1,80.9999975280763,6|0,1:0|0:0,0:0:0:0:
431,298,9673,1,8,0:0:0:0:
431,298,9842,1,2,0:0:0:0:
301,225,10011,2,0,L|320:337,1,80.9999975280763,2|0,1:0|0:0,0:0:0:0:
224,362,10349,1,8,0:0:0:0:
224,362,10517,1,2,0:0:0:0:
178,192,10686,6,0,L|170:285,1,80.9999975280763,2|2,1:0|0:0,0:0:0:0:
226,102,11024,2,0,L|219:21,1,80.9999975280763,10|0,0:0|0:0,0:0:0:0:
280,211,11362,1,0,1:0:0:0:
120,91,11531,1,0,0:0:0:0:
88,241,11700,1,10,0:0:0:0:
226,102,11868,1,0,0:0:0:0:
321,308,12037,6,0,L|434:282,1,80.9999975280763,2|0,1:0|0:0,0:0:0:0:
445,203,12375,1,8,0:0:0:0:
445,203,12544,1,2,0:0:0:0:
304,120,12713,2,0,L|225:101,1,80.9999975280763,2|0,1:0|0:0,0:0:0:0:
151,182,13050,1,8,0:0:0:0:
151,182,13219,1,2,0:0:0:0:
241,314,13388,6,0,L|231:198,1,80.9999975280763,2|2,1:0|0:0,0:0:0:0:
62,135,13726,2,0,L|55:215,1,80.9999975280763,10|0,0:0|0:0,0:0:0:0:
197,128,14064,1,0,1:0:0:0:
36,44,14233,1,0,0:0:0:0:
221,26,14401,1,10,0:0:0:0:
69,139,14570,1,0,0:0:0:0:
288,171,14739,6,0,L|386:148,1,80.9999975280763,2|0,1:0|0:0,0:0:0:0:
443,213,15077,1,8,0:0:0:0:
443,213,15246,1,2,0:0:0:0:
288,284,15415,2,0,L|209:265,1,80.9999975280763,2|0,1:0|0:0,0:0:0:0:
132,184,15752,1,8,0:0:0:0:
132,184,15921,1,2,0:0:0:0:
77,335,16090,6,0,L|65:226,1,80.9999975280763,2|2,1:0|0:0,0:0:0:0:
212,99,16428,2,0,L|220:179,1,80.9999975280763,10|0,0:0|0:0,0:0:0:0:
69,102,16766,1,0,1:0:0:0:
216,20,16935,1,0,0:0:0:0:
35,25,17103,1,10,0:0:0:0:
206,94,17272,1,2,0:0:0:0:
58,318,17441,6,0,L|46:222,1,80.9999975280763,0|2,1:0|0:0,0:0:0:0:
116,161,17779,1,8,0:0:0:0:
116,161,17948,1,2,0:0:0:0:
215,302,18117,2,0,L|232:198,1,80.9999975280763,0|2,1:0|0:0,0:0:0:0:
285,134,18454,1,8,0:0:0:0:
285,134,18623,1,2,0:0:0:0:
407,264,18792,6,0,L|384:162,1,80.9999975280763,0|2,1:0|0:0,0:0:0:0:
362,96,19130,1,8,0:0:0:0:
362,96,19299,1,2,0:0:0:0:
296,224,19468,1,0,1:0:0:0:
196,63,19636,5,10,0:0:0:0:
208,269,19805,1,10,0:0:0:0:
285,34,19974,1,10,0:0:0:0:
395,262,20143,6,0,P|436:253|483:209,1,85.4999977169037,2|0,1:0|0:0,0:0:0:0:
402,143,20481,1,8,0:0:0:0:
402,143,20650,1,2,0:0:0:0:
231,207,20819,2,0,P|190:198|143:154,1,85.4999977169037,2|0,1:0|0:0,0:0:0:0:
224,88,21156,1,8,0:0:0:0:
224,88,21326,1,2,0:0:0:0:
342,238,21494,6,0,P|332:287|310:328,1,85.4999977169037,2|2,1:0|0:0,0:0:0:0:
139,384,21832,2,0,P|120:345|113:303,1,85.4999977169037,10|0,0:0|0:0,0:0:0:0:
162,149,22170,1,2,1:0:0:0:
217,288,22338,1,2,0:0:0:0:
63,189,22507,1,10,0:0:0:0:
258,120,22676,1,0,0:0:0:0:
77,73,22845,6,0,P|33:58|-9:32,1,85.4999977169037,2|0,1:0|0:0,0:0:0:0:
128,0,23183,1,8,0:0:0:0:
128,0,23352,1,2,0:0:0:0:
258,120,23521,2,0,P|298:106|335:85,1,85.4999977169037,2|0,1:0|0:0,0:0:0:0:
207,47,23859,1,8,0:0:0:0:
207,47,24028,1,2,0:0:0:0:
136,229,24196,6,0,P|147:281|173:331,1,85.4999977169037,2|2,1:0|0:0,0:0:0:0:
337,375,24534,2,0,P|353:335|361:293,1,85.4999977169037,10|0,0:0|0:0,0:0:0:0:
275,139,24871,1,2,1:0:0:0:
261,310,25040,1,2,0:0:0:0:
386,188,25209,1,10,0:0:0:0:
186,102,25378,1,2,0:0:0:0:
391,93,25547,5,2,1:0:0:0:
217,213,25716,1,2,0:0:0:0:
268,31,25885,1,10,0:0:0:0:
381,196,26054,1,2,1:0:0:0:
201,111,26222,1,2,1:0:0:0:
408,89,26391,1,2,0:0:0:0:
185,206,26560,1,10,0:0:0:0:
336,130,26729,1,2,0:0:0:0:
94,80,26898,5,2,1:0:0:0:
231,270,27067,1,2,0:0:0:0:
215,45,27236,1,10,0:0:0:0:
125,278,27405,1,2,1:0:0:0:
277,115,27573,1,2,1:0:0:0:
50,160,27742,1,2,0:0:0:0:
311,235,27911,1,10,0:0:0:0:
135,160,28080,1,2,0:0:0:0:
391,71,28249,5,2,1:0:0:0:
312,261,28418,1,2,0:0:0:0:
253,77,28587,1,0,1:0:0:0:
412,243,28756,1,2,0:0:0:0:
315,22,28924,1,0,1:0:0:0:
226,285,29093,1,2,0:0:0:0:
150,57,29262,1,0,1:0:0:0:
324,292,29431,1,2,0:0:0:0:
217,12,29600,5,10,0:0:0:0:
132,342,29769,1,2,1:0:0:0:
313,215,29938,1,2,1:0:0:0:
61,63,30107,5,10,0:0:0:0:
61,63,30951,6,0,B|149:57|107:131|248:103,1,155.250002961159,6|0,1:0|0:0,0:0:0:0:
288,95,31289,2,0,L|273:218,1,103.500001974106,10|0,0:0|0:0,0:0:0:0:
445,341,31626,2,0,L|432:238,1,103.500001974106,2|0,1:0|0:0,0:0:0:0:
305,338,31964,1,10,0:0:0:0:
168,194,32133,6,0,P|112:186|50:209,1,103.500001974106,2|0,0:0|1:0,0:0:0:0:
174,289,32471,1,2,0:0:0:0:
234,120,32640,1,10,0:0:0:0:
169,303,32808,1,0,0:0:0:0:
240,102,32977,2,0,L|351:79,1,103.500001974106,2|0,1:0|0:0,0:0:0:0:
159,137,33315,2,0,L|57:116,1,103.500001974106,10|0,0:0|0:0,0:0:0:0:
393,13,33653,6,0,P|424:71|408:133,1,103.500001974106,0|2,1:0|0:0,0:0:0:0:
310,247,33991,2,0,L|190:235,1,103.500001974106,10|0,0:0|0:0,0:0:0:0:
401,286,34328,2,0,L|527:268,1,103.500001974106,2|0,1:0|0:0,0:0:0:0:
384,135,34666,1,10,0:0:0:0:
226,349,34835,6,0,P|207:278|242:131,1,207.000003948212,2|2,0:0|0:0,0:0:0:0:
130,311,35342,2,0,L|3:292,1,103.500001974106,10|2,0:0|0:0,0:0:0:0:
284,235,35679,2,0,L|386:219,1,103.500001974106,2|0,1:2|0:0,0:0:0:0:
140,138,36017,2,0,P|110:95|131:29,1,103.500001974106,10|0,0:0|0:0,0:0:0:0:
448,26,36355,6,0,B|434:96|434:96|403:131|403:131|381:241,1,207.000003948212,6|8,1:0|0:0,0:0:0:0:
223,114,36861,1,2,0:0:0:0:
392,226,37030,1,2,1:0:0:0:
209,281,37199,1,2,0:0:0:0:
398,232,37368,1,10,0:0:0:0:
216,109,37537,1,0,0:0:0:0:
114,311,37706,6,0,P|81:213|99:113,1,207.000003948212,6|8,1:0|0:0,0:0:0:0:
274,201,38212,1,2,0:0:0:0:
99,113,38381,1,2,1:0:0:0:
284,20,38550,1,2,0:0:0:0:
88,109,38719,1,10,0:0:0:0:
279,205,38888,1,0,0:0:0:0:
79,21,39057,5,2,1:0:0:0:
143,292,39226,1,2,1:0:0:0:
262,121,39394,1,8,0:0:0:0:
38,185,39563,5,2,1:0:0:0:
315,287,39732,1,2,1:0:0:0:
57,181,40070,5,10,0:0:0:0:
334,283,40239,1,2,1:0:0:0:
76,177,40577,5,2,1:0:0:0:
353,279,40745,1,10,0:0:0:0:
95,173,41083,5,0,1:0:0:0:
336,76,41252,1,10,0:0:0:0:
105,44,41421,1,10,0:0:0:0:
356,166,41590,1,10,0:0:0:0:
162,343,41759,6,0,B|182:204|182:204|212:225,1,155.250002961159,6|0,1:0|0:0,0:0:0:0:
256,268,42096,2,0,P|299:283|367:256,1,103.500001974106,10|0,0:0|0:0,0:0:0:0:
320,65,42434,2,0,L|308:185,1,103.500001974106,2|0,1:0|0:0,0:0:0:0:
419,48,42772,1,10,0:0:0:0:
172,0,42941,6,0,L|192:140,1,103.500001974106,2|0,0:0|1:0,0:0:0:0:
240,259,43278,1,2,0:0:0:0:
89,181,43447,1,10,0:0:0:0:
254,266,43616,1,2,0:0:0:0:
69,170,43785,2,0,P|40:214|42:279,1,103.500001974106,2|0,1:0|0:0,0:0:0:0:
222,359,44123,2,0,P|250:316|253:265,1,103.500001974106,10|0,0:0|0:0,0:0:0:0:
158,66,44461,6,0,L|278:49,1,103.500001974106,0|0,1:0|0:0,0:0:0:0:
408,175,44798,2,0,L|305:160,1,103.500001974106,10|0,0:0|0:0,0:0:0:0:
511,144,45136,2,0,P|513:202|471:261,1,103.500001974106,2|0,1:0|0:0,0:0:0:0:
401,80,45474,1,10,0:0:0:0:
245,320,45643,6,0,B|269:233|198:217|230:109,1,207.000003948212,2|2,0:0|0:0,0:0:0:0:
167,283,46149,2,0,L|64:297,1,103.500001974106,10|0,0:0|0:0,0:0:0:0:
305,160,46487,2,0,L|407:174,1,103.500001974106,2|0,1:0|0:0,0:0:0:0:
155,100,46825,2,0,P|135:44|156:-7,1,103.500001974106,10|2,0:0|0:0,0:0:0:0:
361,84,47163,5,10,0:0:0:0:
130,182,47331,1,2,1:0:0:0:
384,212,47500,5,8,0:0:0:0:
155,100,47669,1,2,1:0:0:0:
454,85,47838,5,8,0:0:0:0:
228,178,48007,1,2,1:0:0:0:
491,224,48176,5,8,0:0:0:0:
304,93,48345,1,2,1:0:0:0:
292,350,48513,5,8,0:0:0:0:
378,177,48682,1,2,3:0:0:0:
378,177,48767,1,0,3:0:0:0:
378,177,48851,2,0,L|316:173,1,51.7500009870529,2|0,3:0|3:0,0:0:0:0:
146,223,49020,2,0,L|211:223,1,51.7500009870529,0|0,3:0|3:0,0:0:0:0:
219,75,49189,2,0,L|220:149,1,51.7500009870529,2|0,3:0|3:0,0:0:0:0:
306,312,49358,2,0,L|305:259,1,51.7500009870529,2|0,3:0|3:0,0:0:0:0:
303,57,49527,1,0,3:0:0:0:
272,15,49611,1,0,3:0:0:0:
224,0,49695,1,2,3:0:0:0:
173,9,49780,1,0,3:0:0:0:
139,46,49864,6,0,L|110:204,1,155.250002961159,6|0,1:0|0:0,0:0:0:0:
119,278,50202,2,0,B|168:288|168:288|241:237,1,103.500001974106,10|0,0:0|0:0,0:0:0:0:
365,104,50540,2,0,B|316:94|316:94|243:145,1,103.500001974106,2|0,1:0|0:0,0:0:0:0:
430,212,50878,1,10,0:0:0:0:
321,341,51047,6,0,L|293:213,1,103.500001974106,2|0,0:0|1:0,0:0:0:0:
252,48,51384,1,2,0:0:0:0:
152,191,51553,1,10,0:0:0:0:
263,32,51722,1,0,0:0:0:0:
137,209,51891,2,0,L|22:192,1,103.500001974106,2|0,1:0|0:0,0:0:0:0:
81,21,52229,2,0,L|183:5,1,103.500001974106,10|0,0:0|0:0,0:0:0:0:
259,166,52566,6,0,P|241:107|257:42,1,103.500001974106,0|0,1:0|0:0,0:0:0:0:
450,88,52904,2,0,L|337:108,1,103.500001974106,10|0,0:0|0:0,0:0:0:0:
333,277,53242,2,0,L|434:295,1,103.500001974106,2|0,1:0|0:0,0:0:0:0:
356,120,53580,1,10,0:0:0:0:
282,343,53748,6,0,P|278:253|236:125,1,207.000003948212,2|2,0:0|0:0,0:0:0:0:
44,53,54255,2,0,P|30:114|42:162,1,103.500001974106,10|2,0:0|0:0,0:0:0:0:
203,68,54593,2,0,P|157:25|109:11,1,103.500001974106,2|0,1:2|0:0,0:0:0:0:
112,199,54931,2,0,P|171:180|207:146,1,103.500001974106,10|0,0:2|0:0,0:0:0:0:
338,44,55268,6,0,P|434:51|403:167,1,207.000003948212,6|8,1:0|0:0,0:0:0:0:
318,290,55775,1,2,0:0:0:0:
433,150,55944,1,2,1:0:0:0:
242,124,56113,1,2,0:0:0:0:
428,159,56282,1,10,0:0:0:0:
312,297,56450,1,0,0:0:0:0:
307,70,56619,6,0,B|198:57|240:140|97:109,1,207.000003948212,6|8,1:0|0:0,0:0:0:0:
281,156,57126,1,2,0:0:0:0:
145,23,57295,1,2,1:0:0:0:
112,218,57464,1,2,0:0:0:0:
245,34,57633,1,10,0:0:0:0:
322,261,57801,1,0,0:0:0:0:
418,38,57970,5,2,1:0:0:0:
420,326,58139,1,2,1:0:0:0:
247,122,58308,1,8,0:0:0:0:
417,213,58477,5,2,1:0:0:0:
172,333,58646,1,2,1:0:0:0:
423,192,58984,5,10,0:0:0:0:
178,312,59153,1,2,1:0:0:0:
245,136,59321,1,2,1:0:0:0:
309,301,59490,5,10,0:0:0:0:
309,301,59575,1,8,0:0:0:0:
309,301,59659,1,2,1:0:0:0:
172,221,59828,1,0,1:0:0:0:
324,164,59997,2,0,L|327:112,1,51.7500009870529,10|8,0:0|0:0,0:0:0:0:
154,59,60166,1,10,0:0:0:0:
419,6,60334,1,10,0:0:0:0:
416,42,60418,1,8,0:0:0:0:
414,78,60502,1,10,0:0:0:0:
412,114,60587,1,8,0:0:0:0:
410,150,60672,6,0,B|401:264|401:264|372:220,1,155.250002961159,6|0,1:0|0:0,0:0:0:0:
324,164,61010,2,0,P|268:146|205:162,1,103.500001974106,10|0,0:0|0:0,0:0:0:0:
91,296,61348,2,0,P|147:314|210:298,1,103.500001974106,2|0,1:0|0:0,0:0:0:0:
97,146,61685,1,10,0:0:0:0:
216,5,61854,6,0,L|221:120,1,103.500001974106,2|0,0:0|1:0,0:0:0:0:
78,25,62192,1,2,0:0:0:0:
112,232,62361,1,10,0:0:0:0:
75,4,62530,1,2,0:0:0:0:
118,252,62699,2,0,P|178:258|228:218,1,103.500001974106,2|0,1:0|0:0,0:0:0:0:
95,88,63036,2,0,P|35:82|-15:122,1,103.500001974106,10|0,0:0|0:0,0:0:0:0:
201,143,63374,6,0,L|303:97,1,103.500001974106,0|0,1:0|0:0,0:0:0:0:
467,16,63712,2,0,L|451:134,1,103.500001974106,10|0,0:0|0:0,0:0:0:0:
322,281,64050,2,0,L|308:178,1,103.500001974106,2|0,1:0|0:0,0:0:0:0:
458,305,64387,1,10,0:0:0:0:
239,351,64556,6,0,P|184:303|50:323,1,207.000003948212,2|2,0:0|0:0,0:0:0:0:
232,237,65063,2,0,P|286:210|327:175,1,103.500001974106,10|0,0:0|0:0,0:0:0:0:
84,213,65401,2,0,P|35:178|8:128,1,103.500001974106,2|0,1:0|0:0,0:0:0:0:
192,17,65738,2,0,P|191:77|169:155,1,103.500001974106,10|0,0:0|0:0,0:0:0:0:
95,301,66076,5,10,0:0:0:0:
291,238,66245,1,2,1:0:0:0:
62,204,66414,5,8,0:0:0:0:
255,311,66583,1,2,1:0:0:0:
182,119,66752,5,8,0:0:0:0:
95,301,66920,1,2,1:0:0:0:
70,69,67089,5,8,0:0:0:0:
176,252,67258,1,2,1:0:0:0:
309,76,67427,5,10,0:0:0:0:
87,150,67596,1,2,1:0:0:0:
394,173,67765,5,8,0:0:0:0:
180,113,67934,1,2,1:0:0:0:
480,93,68103,5,8,0:0:0:0:
273,157,68271,1,2,1:0:0:0:
506,191,68440,5,8,0:0:0:0:
285,70,68609,1,2,1:0:0:0:
425,341,68778,5,10,0:0:0:0:
438,106,68947,1,2,1:0:0:0:
322,328,69116,5,8,0:0:0:0:
285,89,69285,1,2,1:0:0:0:
175,331,69454,5,8,0:0:0:0:
194,72,69622,1,2,1:0:0:0:
93,335,69791,5,8,0:0:0:0:
83,67,69960,1,2,1:0:0:0:
324,190,70129,5,10,0:0:0:0:
44,260,70298,1,2,1:0:0:0:
184,11,70467,5,8,0:0:0:0:
296,275,70636,1,2,1:0:0:0:
10,108,70805,5,8,0:0:0:0:
292,60,70973,1,2,1:0:0:0:
144,328,71142,5,10,0:0:0:0:
73,27,71311,1,2,1:0:0:0:
303,152,71480,5,10,0:0:0:0:
13,108,71649,1,2,1:0:0:0:
354,83,71818,5,10,0:0:0:0:
88,175,71987,1,2,1:0:0:0:
431,230,72155,5,10,0:0:0:0:
180,113,72324,1,2,1:0:0:0:
512,99,72493,5,10,0:0:0:0:
177,217,72662,1,2,1:0:0:0:
361,23,72831,6,0,B|356:155|443:117|461:224|434:314|356:290|297:301|252:209|265:146|323:126|350:142|370:197|350:255|346:297|299:315,1,540,2|0,1:0|0:0,0:0:0:0:
260,361,74182,5,2,1:0:0:0:
190,110,74351,1,2,1:0:0:0:
173,362,74689,5,2,1:0:0:0:
276,90,74858,1,10,0:0:0:0:
369,384,75196,5,2,1:0:0:0:
120,170,75365,1,2,1:0:0:0:
492,116,75702,5,2,1:0:0:0:
203,259,75871,1,2,1:0:0:0:
462,287,76208,5,10,0:0:0:0:
343,164,76377,2,0,B|337:220|337:220|366:277,1,103.500001974106,2|0,1:0|1:0,0:0:0:0:
408,102,76715,1,10,0:0:0:0:
408,102,76799,1,8,0:0:0:0:
408,102,76884,5,2,1:0:0:0:
162,271,77053,1,2,1:0:0:0:
473,302,77390,5,2,1:0:0:0:
145,172,77558,1,10,0:0:0:0:
444,27,77897,5,10,1:2:0:0:
317,362,78066,2,0,B|375:266|244:249|244:204|366:171|375:142|372:88|341:40|297:26|248:37|206:63|211:132|244:137,1,442.800006756592,10|0,1:2|0:0,0:0:0:0:
