osu file format v14

[General]
AudioFilename: audio.mp3
AudioLeadIn: 0
PreviewTime: 30301
Countdown: 0
SampleSet: Soft
StackLeniency: 0.3
Mode: 0
LetterboxInBreaks: 0
WidescreenStoryboard: 0

[Editor]
DistanceSpacing: 1
BeatDivisor: 4
GridSize: 16
TimelineZoom: 1.6

[Metadata]
Title:You Suck At Love (Speed Up Ver.)
TitleUnicode:You Suck At Love (Speed Up Ver.)
Artist:Simple Plan
ArtistUnicode:Simple Plan
Creator:Reform
Version:P4nde's Insane
Source:
Tags:Get Your Heart On! nightcore Kujinn Rolniczy Shardex P4ndemonium P4nde Naitsirk IceBolt
BeatmapID:1726474
BeatmapSetID:819112

[Difficulty]
HPDrainRate:5
CircleSize:3.5
OverallDifficulty:8
ApproachRate:9
SliderMultiplier:1.5
SliderTickRate:1

[Events]
//Background and Video events
0,0,"BG.png",0,0
//Break Periods
//Storyboard Layer 0 (Background)
//Storyboard Layer 1 (Fail)
//Storyboard Layer 2 (Pass)
//Storyboard Layer 3 (Foreground)
//Storyboard Sound Samples

[TimingPoints]
1230,337.742752603434,4,2,2,65,1,0
1230,-100,4,2,2,65,0,0
9335,-133.333333333333,4,2,2,45,0,0
20143,-133.333333333333,4,2,2,55,0,0
28249,-133.333333333333,4,2,2,60,0,0
29600,-133.333333333333,4,2,2,70,0,0
30951,-83.3333333333333,4,2,2,85,0,1
39057,-83.3333333333333,4,2,2,65,0,1
41252,-133.333333333333,4,2,2,65,0,1
41759,-83.3333333333333,4,2,2,85,0,1
46994,-83.3333333333333,4,2,2,65,0,1
49864,-83.3333333333333,4,2,2,85,0,1
57970,-83.3333333333333,4,2,2,65,0,1
59321,-133.333333333333,4,2,2,65,0,1
60672,-83.3333333333333,4,2,2,85,0,1
66076,-83.3333333333333,4,2,2,90,0,1
72831,-100,4,2,2,65,0,0
78066,-100,4,2,2,65,0,0
79164,-100,4,2,2,5,0,0

[Colours]
Combo1 : 164,47,47
Combo2 : 118,135,203
Combo3 : 177,190,224

[HitObjects]
256,192,1230,12,0,3594,0:0:0:0:
52,101,3931,5,6,1:0:0:0:
140,161,4100,2,0,P|124:194|114:231,1,75,2|8,1:0|0:0,0:0:0:0:
294,38,4438,5,2,1:0:0:0:
206,98,4607,2,0,P|221:131|231:168,1,75,2|0,1:0|0:0,0:0:0:0:
34,94,4945,5,10,0:0:0:0:
122,154,5114,2,0,P|106:187|96:224,1,75,2|0,1:0|0:0,0:0:0:0:
309,6,5452,5,2,1:0:0:0:
224,91,5621,2,0,P|239:124|249:161,1,75,10|0,0:0|1:0,0:0:0:0:
154,295,5958,1,8,0:0:0:0:
178,280,6042,1,0,3:0:0:0:
205,274,6126,1,0,3:0:0:0:
233,275,6211,1,0,3:0:0:0:
259,282,6296,2,0,P|276:288|295:290,3,37.5,8|0|0|0,0:0|3:0|3:0|3:0,0:0:0:0:
376,252,6633,5,6,1:0:0:0:
286,196,6802,2,0,L|272:122,1,75,2|8,1:0|0:0,0:0:0:0:
82,293,7140,5,2,1:0:0:0:
172,237,7309,2,0,L|185:163,1,75,2|0,1:0|0:0,0:0:0:0:
397,249,7647,5,10,0:0:0:0:
307,193,7816,2,0,L|293:119,1,75,2|0,1:0|0:0,0:0:0:0:
61,290,8154,5,2,1:0:0:0:
151,234,8323,2,0,L|164:160,1,75,10|0,0:0|0:0,0:0:0:0:
269,317,8660,5,0,1:0:0:0:
172,237,8829,1,8,0:0:0:0:
307,193,8998,2,0,P|342:181|379:180,1,75,10|0,0:0|0:0,0:0:0:0:
450,327,9335,6,0,B|382:332|414:357|346:363,1,112.500004291535,6|8,1:0|0:0,0:0:0:0:
269,317,9842,1,2,0:0:0:0:
184,372,10011,2,0,P|177:316|152:267,1,112.500004291535,2|8,1:0|0:0,0:0:0:0:
72,229,10517,1,2,0:0:0:0:
144,177,10686,6,0,P|151:149|164:125,1,56.2500021457673,2|2,1:0|0:0,0:0:0:0:
142,34,11024,2,0,B|236:30|210:80|301:74,1,168.750006437302,10|0,0:0|0:0,0:0:0:0:
410,40,11700,2,0,P|396:64|389:91,1,56.2500021457673,10|0,0:0|0:0,0:0:0:0:
423,177,12037,6,0,B|355:182|387:207|319:213,1,112.500004291535,2|8,1:0|0:0,0:0:0:0:
264,285,12544,1,2,0:0:0:0:
184,203,12713,2,0,P|177:258|151:308,1,112.500004291535,2|8,1:0|0:0,0:0:0:0:
78,362,13219,1,2,0:0:0:0:
51,275,13388,6,0,P|43:247|30:223,1,56.2500021457673,2|2,1:0|0:0,0:0:0:0:
102,164,13726,2,0,P|133:86|191:25,1,168.750006437302,10|0,0:0|0:0,0:0:0:0:
293,137,14401,2,0,P|279:112|272:85,1,56.2500021457673,10|0,0:0|0:0,0:0:0:0:
187,191,14739,6,0,B|255:196|223:221|291:227,1,112.500004291535,2|8,1:0|0:0,0:0:0:0:
371,181,15246,1,2,0:0:0:0:
455,247,15415,2,0,P|461:191|487:141,1,112.500004291535,2|8,1:0|0:0,0:0:0:0:
446,61,15921,1,2,0:0:0:0:
360,91,16090,6,0,P|332:83|308:70,1,56.2500021457673,2|2,1:0|0:0,0:0:0:0:
247,137,16428,2,0,B|152:133|178:183|87:177,1,168.750006437302,10|0,0:0|0:0,0:0:0:0:
25,111,17103,1,10,0:0:0:0:
88,42,17272,6,0,P|115:50|139:63,1,56.2500021457673,2|0,0:0|1:0,0:0:0:0:
224,121,17610,2,0,P|251:113|275:100,1,56.2500021457673,2|8,0:0|0:0,0:0:0:0:
82,62,17948,2,0,P|109:69|133:82,1,56.2500021457673,2|0,0:0|1:0,0:0:0:0:
231,140,18286,2,0,P|258:132|282:119,1,56.2500021457673,2|8,0:0|0:0,0:0:0:0:
75,81,18623,6,0,P|102:88|126:101,1,56.2500021457673,2|0,0:0|1:0,0:0:0:0:
238,159,18961,2,0,P|265:151|289:138,1,56.2500021457673,2|8,0:0|0:0,0:0:0:0:
68,100,19299,2,0,P|95:107|119:120,1,56.2500021457673,2|0,0:0|1:0,0:0:0:0:
370,86,19636,5,10,0:0:0:0:
289,138,19805,1,10,0:0:0:0:
324,1,19974,1,10,0:0:0:0:
447,185,20143,6,0,B|379:190|411:215|343:221,1,112.500004291535,2|8,1:0|0:0,0:0:0:0:
266,172,20650,1,2,0:0:0:0:
181,232,20819,2,0,P|174:176|148:126,1,112.500004291535,2|8,1:0|0:0,0:0:0:0:
79,68,21325,1,2,0:0:0:0:
45,153,21494,6,0,P|29:176|7:194,1,56.2500021457673,2|2,1:0|0:0,0:0:0:0:
34,300,21832,2,0,P|61:302|88:311,1,56.2500021457673,10|0,0:0|0:0,0:0:0:0:
59,169,22170,2,0,P|43:192|21:210,1,56.2500021457673,2|2,1:0|0:0,0:0:0:0:
167,237,22507,2,0,P|154:211|149:184,1,56.2500021457673,10|0,0:0|0:0,0:0:0:0:
199,110,22845,6,0,B|267:115|235:140|303:146,1,112.500004291535,2|8,1:0|0:0,0:0:0:0:
372,204,23352,1,2,0:0:0:0:
492,152,23521,2,0,P|466:201|459:257,1,112.500004291535,2|8,1:0|0:0,0:0:0:0:
469,347,24027,1,2,0:0:0:0:
371,384,24196,6,0,P|346:370|319:363,1,56.2500021457673,2|2,1:0|0:0,0:0:0:0:
299,258,24534,2,0,P|323:243|343:223,1,56.2500021457673,10|0,0:0|0:0,0:0:0:0:
379,365,24871,2,0,P|354:351|327:344,1,56.2500021457673,2|2,1:0|0:0,0:0:0:0:
444,258,25209,2,0,P|444:286|451:313,1,56.2500021457673,10|2,0:0|0:0,0:0:0:0:
340,191,25547,6,0,L|395:181,1,56.2500021457673,2|2,1:0|0:0,0:0:0:0:
378,92,25885,2,0,L|322:101,1,56.2500021457673,10|2,0:0|1:0,0:0:0:0:
186,244,26222,6,0,L|241:253,1,56.2500021457673,2|2,1:0|0:0,0:0:0:0:
255,163,26560,2,0,L|199:153,1,56.2500021457673,10|2,0:0|0:0,0:0:0:0:
46,106,26898,6,0,L|101:96,1,56.2500021457673,2|2,1:0|0:0,0:0:0:0:
115,187,27236,2,0,L|59:196,1,56.2500021457673,10|2,0:0|1:0,0:0:0:0:
173,42,27573,6,0,L|228:51,1,56.2500021457673,2|2,1:0|0:0,0:0:0:0:
241,253,27911,2,0,L|186:244,1,56.2500021457673,10|2,0:0|0:0,0:0:0:0:
386,113,28249,5,2,1:0:0:0:
322,215,28418,1,2,0:0:0:0:
302,88,28587,5,0,1:0:0:0:
406,240,28756,1,2,0:0:0:0:
402,87,28924,5,0,1:0:0:0:
306,241,29093,1,2,0:0:0:0:
284,62,29262,5,0,1:0:0:0:
424,266,29431,1,2,0:0:0:0:
440,47,29600,6,0,P|426:71|418:98,2,56.2500021457673,10|2|2,0:0|1:0|1:0,0:0:0:0:
512,0,30107,1,10,0:0:0:0:
512,0,30951,6,0,P|491:40|481:83,1,89.9999972534181,6|0,1:0|0:0,0:0:0:0:
403,153,31289,2,0,P|392:109|372:69,1,89.9999972534181,10|0,0:0|0:0,0:0:0:0:
261,203,31626,2,0,B|351:188|335:257|430:241,1,179.999994506836,2|10,1:0|0:0,0:0:0:0:
284,291,32133,2,0,P|243:311|200:321,1,89.9999972534181,2|0,0:0|1:0,0:0:0:0:
50,223,32471,5,2,0:0:0:0:
162,158,32640,2,0,P|205:168|245:188,1,89.9999972534181,10|0,0:0|0:0,0:0:0:0:
64,206,32977,2,0,P|53:162|33:122,1,89.9999972534181,2|0,1:0|0:0,0:0:0:0:
195,42,33315,2,0,P|174:82|164:125,1,89.9999972534181,10|0,0:0|0:0,0:0:0:0:
244,242,33653,6,0,P|288:239|331:226,1,89.9999972534181,0|2,1:0|0:0,0:0:0:0:
445,125,33991,2,0,P|455:81|475:41,1,89.9999972534181,10|0,0:0|0:0,0:0:0:0:
345,208,34328,2,0,P|334:164|314:124,1,89.9999972534181,2|0,1:0|0:0,0:0:0:0:
404,331,34666,1,10,0:0:0:0:
287,276,34835,6,0,B|197:261|213:330|118:314,1,179.999994506836,2|2,0:0|0:0,0:0:0:0:
4,273,35342,2,0,P|24:313|34:356,1,89.9999972534181,10|2,0:0|0:0,0:0:0:0:
145,226,35679,2,0,P|155:182|175:142,1,89.9999972534181,2|0,1:2|0:0,0:0:0:0:
47,47,36017,2,0,P|68:87|78:130,1,89.9999972534181,10|0,0:0|0:0,0:0:0:0:
345,104,36355,6,0,B|255:89|271:158|176:142,1,179.999994506836,6|8,1:0|0:0,0:0:0:0:
322,192,36861,2,0,P|342:232|352:275,2,89.9999972534181,2|2|2,0:0|1:0|0:0,0:0:0:0:
215,112,37368,2,0,P|225:68|245:28,1,89.9999972534181,10|0,0:0|0:0,0:0:0:0:
77,212,37706,6,0,B|167:197|151:266|246:250,1,179.999994506836,6|8,1:0|0:0,0:0:0:0:
99,300,38212,2,0,P|79:340|69:384,2,89.9999972534181,2|2|2,0:0|1:0|0:0,0:0:0:0:
203,218,38719,2,0,P|192:174|172:134,1,89.9999972534181,10|0,0:0|0:0,0:0:0:0:
299,353,39057,5,2,1:0:0:0:
449,288,39226,2,0,L|433:376,1,89.9999972534181,2|8,1:0|0:0,0:0:0:0:
272,274,39563,5,2,1:0:0:0:
467,284,39732,2,0,L|451:372,1,89.9999972534181,2|0,1:0|0:0,0:0:0:0:
288,192,40070,5,10,0:0:0:0:
485,280,40239,2,0,L|469:368,1,89.9999972534181,2|0,1:0|0:0,0:0:0:0:
342,128,40577,5,2,1:0:0:0:
503,276,40745,2,0,L|487:364,1,89.9999972534181,10|0,0:0|0:0,0:0:0:0:
420,99,41083,5,0,1:0:0:0:
302,246,41252,2,0,P|296:218|287:191,2,56.2500021457673,10|10|10,0:0|0:0|0:0,0:0:0:0:
381,303,41759,6,0,P|391:259|411:219,1,89.9999972534181,6|0,1:0|0:0,0:0:0:0:
251,164,42096,2,0,P|271:204|281:247,1,89.9999972534181,10|0,0:0|0:0,0:0:0:0:
179,337,42434,2,0,B|89:322|105:391|10:375,1,179.999994506836,2|10,1:0|0:0,0:0:0:0:
53,244,42941,2,0,P|73:284|83:327,1,89.9999972534181,2|0,0:0|1:0,0:0:0:0:
147,124,43278,5,2,0:0:0:0:
218,205,43447,2,0,P|197:245|187:288,1,89.9999972534181,10|2,0:0|0:0,0:0:0:0:
159,102,43785,2,0,P|202:91|242:71,1,89.9999972534181,2|0,1:0|0:0,0:0:0:0:
332,228,44123,2,0,P|288:217|248:197,1,89.9999972534181,10|0,0:0|0:0,0:0:0:0:
456,97,44461,6,0,P|435:137|425:180,1,89.9999972534181,0|0,1:0|0:0,0:0:0:0:
376,331,44798,2,0,P|365:287|345:247,1,89.9999972534181,10|0,0:0|0:0,0:0:0:0:
167,211,45136,2,0,P|202:237|244:255,1,89.9999972534181,2|0,1:0|0:0,0:0:0:0:
269,52,45474,1,10,0:0:0:0:
191,123,45643,6,0,B|101:108|117:177|22:161,1,179.999994506836,2|2,0:0|0:0,0:0:0:0:
197,294,46149,2,0,P|187:251|167:211,1,89.9999972534181,10|0,0:0|0:0,0:0:0:0:
304,204,46487,2,0,P|313:161|334:121,1,89.9999972534181,2|0,1:0|0:0,0:0:0:0:
323,349,46825,2,0,P|364:331|400:304,1,89.9999972534181,10|2,0:0|0:0,0:0:0:0:
470,151,47163,5,10,0:0:0:0:
318,113,47331,1,2,1:0:0:0:
486,59,47500,5,8,0:0:0:0:
239,160,47669,1,2,1:0:0:0:
454,243,47838,5,8,0:0:0:0:
299,30,48007,1,2,1:0:0:0:
222,270,48176,5,8,0:0:0:0:
214,70,48345,1,2,1:0:0:0:
109,280,48513,6,0,P|68:300|25:310,1,89.9999972534181,8|2,0:0|3:0,0:0:0:0:
63,158,48851,2,0,P|106:168|146:188,1,89.9999972534181,2|0,3:0|3:0,0:0:0:0:
243,347,49189,1,2,3:0:0:0:
279,173,49358,2,0,P|228:245|224:334,1,179.999994506836,2|2,3:0|3:0,0:0:0:0:
374,366,49864,6,0,P|385:322|405:282,1,89.9999972534181,6|0,1:0|0:0,0:0:0:0:
460,154,50202,2,0,P|480:194|490:237,1,89.9999972534181,10|0,0:0|0:0,0:0:0:0:
350,206,50540,2,0,B|260:191|276:260|181:244,1,179.999994506836,2|10,1:0|0:0,0:0:0:0:
51,75,51047,2,0,P|94:65|134:45,1,89.9999972534181,2|0,0:0|1:0,0:0:0:0:
253,141,51384,5,2,0:0:0:0:
169,224,51553,2,0,P|126:214|86:194,1,89.9999972534181,10|0,0:0|0:0,0:0:0:0:
195,384,51891,2,0,P|205:340|225:300,1,89.9999972534181,2|0,1:0|0:0,0:0:0:0:
319,207,52229,2,0,P|339:247|350:291,1,89.9999972534181,10|0,0:0|0:0,0:0:0:0:
237,122,52566,6,0,P|280:112|320:92,1,89.9999972534181,0|0,1:0|0:0,0:0:0:0:
468,158,52904,2,0,P|447:198|437:241,1,89.9999972534181,10|0,0:0|0:0,0:0:0:0:
328,298,53242,2,0,P|317:254|297:214,1,89.9999972534181,2|0,1:0|0:0,0:0:0:0:
156,112,53580,1,10,0:0:0:0:
246,40,53748,6,0,B|336:25|320:94|415:78,1,179.999994506836,2|2,0:0|0:0,0:0:0:0:
238,213,54255,2,0,P|248:170|269:130,1,89.9999972534181,10|2,0:0|0:0,0:0:0:0:
124,206,54593,2,0,P|144:246|155:290,1,89.9999972534181,2|0,1:2|0:0,0:0:0:0:
16,240,54931,2,0,P|26:196|46:156,1,89.9999972534181,10|0,0:2|0:0,0:0:0:0:
167,104,55268,6,0,B|257:89|241:158|336:142,1,179.999994506836,6|8,1:0|0:0,0:0:0:0:
190,192,55775,2,0,P|170:232|162:283,2,89.9999972534181,2|2|2,0:0|1:0|0:0,0:0:0:0:
297,112,56281,2,0,P|287:68|267:28,1,89.9999972534181,10|0,0:0|0:0,0:0:0:0:
435,212,56619,6,0,B|345:197|361:266|266:250,1,179.999994506836,6|8,1:0|0:0,0:0:0:0:
493,287,57126,2,0,P|473:327|463:371,2,89.9999972534181,2|2|2,0:0|1:0|0:0,0:0:0:0:
327,195,57633,2,0,P|317:152|297:111,1,89.9999972534181,10|0,0:0|0:0,0:0:0:0:
204,354,57970,5,2,1:0:0:0:
54,289,58139,2,0,L|69:377,1,89.9999972534181,2|8,1:0|0:0,0:0:0:0:
231,275,58476,5,2,1:0:0:0:
36,285,58646,2,0,L|51:373,1,89.9999972534181,2|0,1:0|0:0,0:0:0:0:
215,193,58983,5,10,0:0:0:0:
18,281,59152,2,0,L|33:369,1,89.9999972534181,2|2,1:0|1:0,0:0:0:0:
89,83,59490,6,0,P|85:69|80:56,1,28.1250010728836,10|8,0:0|0:0,0:0:0:0:
145,166,59659,2,0,P|171:174|199:180,1,56.2500021457673,2|0,1:0|1:0,0:0:0:0:
267,64,59997,6,0,L|271:91,1,28.1250010728836,10|8,0:0|0:0,0:0:0:0:
289,190,60166,1,10,0:0:0:0:
349,32,60334,6,0,L|353:59,1,28.1250010728836,10|8,0:0|0:0,0:0:0:0:
374,190,60503,1,10,0:0:0:0:
509,84,60672,6,0,P|469:104|426:115,1,89.9999972534181,6|0,1:0|0:0,0:0:0:0:
388,210,61010,2,0,P|431:220|471:240,1,89.9999972534181,10|0,0:0|0:0,0:0:0:0:
441,330,61348,2,0,B|351:315|367:384|272:368,1,179.999994506836,2|10,1:0|0:0,0:0:0:0:
163,294,61854,2,0,P|173:250|193:210,1,89.9999972534181,2|0,0:0|1:0,0:0:0:0:
40,317,62192,5,2,0:0:0:0:
53,152,62361,2,0,P|73:192|83:235,1,89.9999972534181,10|2,0:0|0:0,0:0:0:0:
246,324,62699,2,0,P|206:304|163:294,1,89.9999972534181,2|0,1:0|0:0,0:0:0:0:
202,191,63036,2,0,P|242:170|285:160,1,89.9999972534181,10|0,0:0|0:0,0:0:0:0:
365,320,63374,6,0,P|354:276|334:236,1,89.9999972534181,0|0,1:0|0:0,0:0:0:0:
481,189,63712,2,0,P|460:229|450:272,1,89.9999972534181,10|0,0:0|0:0,0:0:0:0:
390,161,64050,2,0,P|379:117|359:77,1,89.9999972534181,2|0,1:0|0:0,0:0:0:0:
248,209,64387,1,10,0:0:0:0:
169,121,64556,6,0,B|79:106|95:175|0:159,1,179.999994506836,2|2,0:0|0:0,0:0:0:0:
43,24,65063,2,0,P|63:64|73:107,1,89.9999972534181,10|0,0:0|0:0,0:0:0:0:
147,224,65401,2,0,P|158:180|179:141,1,89.9999972534181,2|0,1:0|0:0,0:0:0:0:
83,290,65738,2,0,P|103:330|113:373,1,89.9999972534181,10|0,0:0|0:0,0:0:0:0:
285,306,66076,5,10,0:0:0:0:
148,224,66245,1,2,1:0:0:0:
318,219,66414,5,8,0:0:0:0:
107,300,66583,1,2,1:0:0:0:
349,374,66752,5,8,0:0:0:0:
215,169,66920,1,2,1:0:0:0:
230,384,67089,5,8,0:0:0:0:
324,189,67258,1,2,1:0:0:0:
429,328,67427,6,0,P|469:348|512:358,1,89.9999972534181,10|2,0:0|1:0,0:0:0:0:
318,219,67765,2,0,P|274:229|234:249,1,89.9999972534181,8|2,0:0|1:0,0:0:0:0:
469,131,68103,6,0,L|484:42,1,89.9999972534181,8|2,0:0|1:0,0:0:0:0:
308,100,68440,2,0,L|323:188,1,89.9999972534181,8|2,0:0|1:0,0:0:0:0:
171,113,68778,5,10,0:0:0:0:
339,213,68947,1,2,1:0:0:0:
145,202,69116,5,8,0:0:0:0:
334,84,69285,1,2,1:0:0:0:
123,31,69454,5,8,0:0:0:0:
239,245,69622,1,2,1:0:0:0:
251,43,69791,5,8,0:0:0:0:
135,222,69960,1,2,1:0:0:0:
28,91,70129,6,0,P|68:71|111:61,1,89.9999972534181,10|2,0:0|1:0,0:0:0:0:
239,245,70467,2,0,P|196:235|156:215,1,89.9999972534181,8|2,0:0|1:0,0:0:0:0:
235,60,70805,6,0,L|251:149,1,89.9999972534181,8|2,0:0|1:0,0:0:0:0:
49,270,71142,2,0,L|65:182,1,89.9999972534181,10|2,0:0|1:0,0:0:0:0:
375,252,71480,5,10,0:0:0:0:
230,143,71649,1,2,1:0:0:0:
447,193,71818,5,10,0:0:0:0:
223,284,71987,1,2,1:0:0:0:
464,357,72155,5,10,0:0:0:0:
204,272,72324,1,2,1:0:0:0:
439,145,72493,5,10,0:0:0:0:
252,381,72662,1,2,1:0:0:0:
499,271,72831,5,2,1:0:0:0:
460,101,74182,5,2,1:0:0:0:
372,161,74351,2,0,P|388:194|398:231,1,75,2|0,1:0|0:0,0:0:0:0:
218,38,74689,5,2,1:0:0:0:
306,98,74858,2,0,P|291:131|281:168,1,75,10|0,0:0|0:0,0:0:0:0:
478,94,75196,5,2,1:0:0:0:
390,154,75365,2,0,P|406:187|416:224,1,75,2|0,1:0|0:0,0:0:0:0:
203,6,75703,5,2,1:0:0:0:
288,91,75872,2,0,P|273:124|263:161,1,75,2|0,1:0|0:0,0:0:0:0:
212,279,76208,2,0,P|202:242|186:208,1,75,10|2,0:0|1:0,0:0:0:0:
101,384,76546,2,0,P|110:347|126:313,1,75,0|10,1:0|0:0,0:0:0:0:
46,269,76884,5,2,1:0:0:0:
136,213,77053,2,0,L|150:139,1,75,2|0,1:0|0:0,0:0:0:0:
340,310,77391,5,2,1:0:0:0:
250,254,77560,2,0,L|237:180,1,75,10|0,0:0|0:0,0:0:0:0:
23,273,77897,5,10,1:2:0:0:
267,239,78066,6,0,B|271:212|284:191|309:179|309:179|344:164|376:130|371:76|328:47|295:45|259:64|259:64|226:65|199:42|199:42|170:36|152:58|152:58|135:71|112:73|112:73|100:83|90:97,1,487.5,10|0,1:2|0:0,0:0:0:0:
