osu file format v14

[General]
AudioFilename: audio.mp3
AudioLeadIn: 0
PreviewTime: 30275
Countdown: 0
SampleSet: None
StackLeniency: 1
Mode: 0
LetterboxInBreaks: 0
WidescreenStoryboard: 1

[Editor]
Bookmarks: 3931,9335,25547,30951,49864,66076,74182,78066
DistanceSpacing: 1
BeatDivisor: 4
GridSize: 16
TimelineZoom: 1.9

[Metadata]
Title:You Suck At Love (Speed Up Ver.)
TitleUnicode:You Suck At Love (Speed Up Ver.)
Artist:Simple Plan
ArtistUnicode:Simple Plan
Creator:-Nenecchi
Version:Normal
Source:
Tags:Get Your Heart On! nightcore
BeatmapID:2199997
BeatmapSetID:1052323

[Difficulty]
HPDrainRate:3
CircleSize:2.5
OverallDifficulty:3
ApproachRate:5
SliderMultiplier:1
SliderTickRate:1

[Events]
//Background and Video events
0,0,"qt.jpg",0,0
//Break Periods
//Storyboard Layer 0 (Background)
//Storyboard Layer 1 (Fail)
//Storyboard Layer 2 (Pass)
//Storyboard Layer 3 (Foreground)
//Storyboard Layer 4 (Overlay)
//Storyboard Sound Samples

[TimingPoints]
1230,337.742752603434,4,2,0,68,1,0
1230,-100,4,2,0,5,0,0
3931,-100,4,2,0,68,0,0
78150,-100,4,2,0,5,0,0

[Colours]
Combo1 : 148,131,241
Combo2 : 209,90,165
Combo3 : 138,138,255
Combo4 : 255,128,192

[HitObjects]
256,192,1230,12,2,3256,0:0:0:0:
164,134,3931,6,0,L|159:191,1,50,4|2,0:0|0:0,0:0:0:0:
213,268,4438,2,0,L|208:211,1,50,2|2,0:0|0:0,0:0:0:0:
268,137,4945,2,0,L|263:194,1,50,8|2,0:0|0:0,0:0:0:0:
317,271,5452,2,0,L|312:214,1,50,2|8,0:0|0:0,0:0:0:0:
395,165,5958,6,0,P|427:247|423:280,1,100,0|0,3:0|3:0,0:0:0:0:
380,345,6633,6,0,L|321:352,1,50,6|2,0:0|0:0,0:0:0:0:
260,279,7140,2,0,L|319:286,1,50,2|2,0:0|0:0,0:0:0:0:
378,211,7647,2,0,L|319:218,1,50,8|2,0:0|0:0,0:0:0:0:
258,145,8154,2,0,L|317:152,1,50,2|8,0:0|0:0,0:0:0:0:
372,74,8660,6,0,L|313:81,1,50,2|8,0:0|0:0,0:0:0:0:
276,59,8998,1,8,0:0:0:0:
191,113,9335,6,0,P|180:179|191:236,1,100,2|8,0:0|0:0,0:0:0:0:
256,280,10011,2,0,P|334:276|368:283,1,100,0|8,0:0|0:0,0:0:0:0:
430,345,10686,2,0,P|455:282|431:218,2,100,0|8|0,0:0|0:0|0:0,0:0:0:0:
355,279,11700,5,10,0:0:0:0:
355,279,11868,1,2,0:0:0:0:
355,279,12037,2,0,P|340:202|354:153,1,100,2|8,0:0|0:0,0:0:0:0:
397,97,12713,2,0,P|321:82|289:59,1,100,0|8,0:0|0:0,0:0:0:0:
225,6,13388,2,0,P|201:62|212:116,2,100,0|8|0,0:0|0:0|0:0,0:0:0:0:
302,70,14401,5,10,0:0:0:0:
302,70,14570,1,2,0:0:0:0:
302,70,14739,2,0,P|321:108|321:169,1,100,2|8,0:0|0:0,0:0:0:0:
243,227,15415,2,0,P|263:310|304:341,1,100,0|8,0:0|0:0,0:0:0:0:
368,342,16090,2,0,L|447:328,2,50,0|0|8,0:0|0:0|0:0,0:0:0:0:
270,318,16766,2,0,P|188:293|140:313,1,100,0|10,0:0|0:0,0:0:0:0:
100,361,17441,5,2,0:0:0:0:
39,281,17779,1,8,0:0:0:0:
104,205,18117,1,2,0:0:0:0:
43,125,18455,1,8,0:0:0:0:
103,46,18792,2,0,P|157:38|211:67,1,100,2|8,0:0|0:0,0:0:0:0:
242,144,19468,5,2,0:0:0:0:
242,144,19636,1,8,0:0:0:0:
242,144,19805,2,0,L|331:166,1,50,8|8,0:0|0:0,0:0:0:0:
338,171,20143,6,0,P|310:234|326:301,1,100,2|8,0:0|0:0,0:0:0:0:
369,345,20819,2,0,P|301:363|252:343,1,100,0|8,0:0|0:0,0:0:0:0:
192,297,21494,2,0,L|119:306,1,50,2|2,0:0|0:0,0:0:0:0:
92,312,21832,2,0,P|113:243|93:184,1,100,8|0,0:0|0:0,0:0:0:0:
38,145,22507,5,10,0:0:0:0:
38,145,22676,1,2,0:0:0:0:
38,145,22845,2,0,P|91:117|163:132,1,100,2|8,0:0|0:0,0:0:0:0:
198,191,23521,2,0,P|261:204|311:185,1,100,0|8,0:0|0:0,0:0:0:0:
362,121,24196,2,0,L|434:131,1,50,2|2,0:0|0:0,0:0:0:0:
460,137,24534,2,0,P|461:73|437:23,2,100,8|0|10,0:0|0:0|0:0,0:0:0:0:
392,210,25547,5,2,0:0:0:0:
333,291,25885,1,8,0:0:0:0:
238,257,26222,1,2,0:0:0:0:
164,324,26560,1,8,0:0:0:0:
63,325,26898,6,0,P|80:264|115:231,1,100,2|8,0:0|0:0,0:0:0:0:
152,223,27405,1,2,0:0:0:0:
152,223,27573,2,0,P|136:161|108:125,1,100,2|8,0:0|0:0,0:0:0:0:
19,103,28249,5,4,0:0:0:0:
95,38,28587,1,2,0:0:0:0:
193,54,28924,1,2,0:0:0:0:
243,139,29262,1,2,0:0:0:0:
210,232,29600,2,0,L|132:204,2,50,8|2|2,0:0|0:0|0:0,0:0:0:0:
258,246,30107,5,8,0:0:0:0:
409,47,30951,6,0,P|371:121|374:172,1,100,6|10,0:0|0:0,0:0:0:0:
411,227,31626,1,2,0:0:0:0:
363,315,31964,2,0,P|294:325|248:309,1,100,8|0,0:0|0:0,0:0:0:0:
202,239,32640,2,0,P|174:275|170:346,2,100,8|2|8,0:0|0:0|0:0,0:0:0:0:
295,204,33653,6,0,P|299:128|270:83,1,100,2|8,0:0|0:0,0:0:0:0:
202,59,34328,1,2,0:0:0:0:
133,131,34666,1,8,0:0:0:0:
176,220,35004,1,2,0:0:0:0:
126,306,35342,2,0,P|61:323|19:311,2,100,8|2|10,0:0|0:0|0:0,0:0:0:0:
176,220,36355,6,0,P|240:195|302:211,1,100,6|8,0:0|0:0,0:0:0:0:
347,260,37030,1,8,0:0:0:0:
347,260,37199,1,2,0:0:0:0:
347,260,37368,1,8,0:0:0:0:
404,178,37706,6,0,P|402:112|375:68,1,100,6|8,0:0|0:0,0:0:0:0:
293,46,38381,1,2,0:0:0:0:
214,108,38719,1,10,0:0:0:0:
124,63,39057,5,2,0:0:0:0:
124,63,39226,1,2,0:0:0:0:
124,63,39394,2,0,P|115:132|141:182,1,100,8|2,0:0|0:0,0:0:0:0:
208,214,40070,5,8,0:0:0:0:
208,214,40239,2,0,P|198:286|167:325,1,100,2|2,0:0|0:0,0:0:0:0:
139,328,40745,1,8,0:0:0:0:
59,267,41083,5,2,0:0:0:0:
59,267,41252,2,0,L|3:275,2,50,10|10|10,0:0|0:0|0:0,0:0:0:0:
94,230,41759,6,0,P|91:160|124:101,1,100,6|8,0:0|0:0,0:0:0:0:
180,72,42434,1,2,0:0:0:0:
260,130,42772,1,8,0:0:0:0:
227,224,43110,2,0,P|264:300|312:320,1,100,0|10,0:0|0:0,0:0:0:0:
364,263,43785,2,0,P|437:265|484:286,2,100,2|10|2,0:0|0:0|0:0,0:0:0:0:
274,307,44798,5,8,0:0:0:0:
227,218,45136,1,2,0:0:0:0:
292,142,45474,1,8,0:0:0:0:
384,180,45812,2,0,P|463:170|497:141,1,100,0|10,0:0|0:0,0:0:0:0:
510,65,46487,1,2,0:0:0:0:
433,0,46825,2,0,L|351:13,1,50,8|2,0:0|0:0,0:0:0:0:
356,50,47163,5,8,0:0:0:0:
356,50,47331,2,0,P|292:36|223:46,1,100,2|2,0:0|0:0,0:0:0:0:
236,83,47838,1,8,0:0:0:0:
236,83,48007,2,0,P|170:95|136:82,1,100,2|2,0:0|0:0,0:0:0:0:
103,46,48513,6,0,L|90:108,1,50,8|8,0:0|0:0,0:0:0:0:
80,143,48851,1,2,0:0:0:0:
145,218,49189,1,0,3:0:0:0:
93,302,49527,1,2,0:0:0:0:
156,377,49864,6,0,P|218:343|280:342,1,100,6|10,0:0|0:0,0:0:0:0:
343,365,50540,1,2,0:0:0:0:
429,315,50878,2,0,P|443:248|429:198,1,100,8|0,0:0|0:0,0:0:0:0:
358,156,51553,2,0,P|404:121|458:121,2,100,8|2|10,0:0|0:0|0:0,0:0:0:0:
335,253,52566,6,0,P|273:276|205:267,1,100,2|8,0:0|0:0,0:0:0:0:
164,209,53242,1,2,0:0:0:0:
64,221,53580,1,8,0:0:0:0:
3,140,53917,1,0,0:0:0:0:
43,50,54255,2,0,P|93:32|161:53,2,100,10|2|8,0:0|0:0|0:0,0:0:0:0:
99,132,55268,6,0,P|104:195|91:234,1,100,6|8,0:0|0:0,0:0:0:0:
6,278,55944,1,8,0:0:0:0:
6,278,56113,1,2,0:0:0:0:
6,278,56282,1,8,0:0:0:0:
60,361,56619,6,0,P|131:374|192:356,1,100,6|8,0:0|0:0,0:0:0:0:
228,298,57295,1,8,0:0:0:0:
322,331,57633,1,8,0:0:0:0:
401,270,57970,5,2,0:0:0:0:
401,270,58139,1,2,0:0:0:0:
401,270,58308,2,0,P|414:197|391:134,1,100,8|2,0:0|0:0,0:0:0:0:
334,105,58984,5,8,0:0:0:0:
334,105,59152,2,0,P|253:117|202:101,1,100,2|8,0:0|0:0,0:0:0:0:
195,84,59659,2,0,L|117:98,1,50,8|0,0:0|0:0,0:0:0:0:
98,74,59997,1,8,3:2:0:0:
98,74,60166,2,0,P|111:130|96:195,1,100,8|8,3:2|0:0,0:0:0:0:
68,205,60672,6,0,P|73:288|102:328,1,100,6|8,0:0|0:0,0:0:0:0:
173,337,61348,1,2,0:0:0:0:
258,285,61685,1,8,0:0:0:0:
348,327,62023,2,0,P|420:326|462:306,1,100,0|10,0:0|0:0,0:0:0:0:
443,215,62699,2,0,P|477:158|531:134,2,100,2|8|2,0:0|0:0|0:0,0:0:0:0:
445,316,63712,5,8,0:0:0:0:
349,349,64050,1,2,0:0:0:0:
287,267,64387,1,8,0:0:0:0:
345,182,64725,2,0,P|348:123|325:68,1,100,0|10,0:0|0:0,0:0:0:0:
246,37,65401,1,2,0:0:0:0:
175,107,65738,2,0,L|100:102,1,50,8|2,0:0|0:0,0:0:0:0:
78,85,66076,5,12,0:0:0:0:
78,85,66245,2,0,P|94:146|87:200,1,100,2|2,0:0|0:0,0:0:0:0:
58,220,66752,1,8,0:0:0:0:
58,220,66920,2,0,P|82:290|122:318,1,100,2|2,0:0|0:0,0:0:0:0:
146,287,67427,6,0,L|218:281,1,50,8|2,0:0|0:0,0:0:0:0:
224,324,67765,2,0,L|304:323,1,50,8|2,0:0|0:0,0:0:0:0:
294,277,68103,2,0,L|366:271,1,50,8|2,0:0|0:0,0:0:0:0:
372,314,68441,2,0,L|452:313,1,50,8|2,0:0|0:0,0:0:0:0:
457,277,68778,5,8,0:0:0:0:
457,277,68947,2,0,P|435:195|447:145,1,100,2|2,0:0|0:0,0:0:0:0:
464,139,69454,1,8,0:0:0:0:
464,139,69622,2,0,P|426:71|378:46,1,100,2|2,0:0|0:0,0:0:0:0:
363,78,70129,6,0,L|283:96,1,50,8|2,0:0|0:0,0:0:0:0:
288,45,70467,2,0,L|210:39,1,50,8|2,0:0|0:0,0:0:0:0:
219,87,70805,2,0,L|139:105,1,50,8|2,0:0|0:0,0:0:0:0:
144,54,71143,2,0,L|66:48,1,50,8|2,0:0|0:0,0:0:0:0:
52,78,71480,5,8,0:0:0:0:
52,78,71649,2,0,P|28:137|41:202,1,100,2|2,0:0|0:0,0:0:0:0:
73,197,72155,1,8,0:0:0:0:
73,197,72324,2,0,P|100:255|91:320,1,100,2|2,0:0|0:0,0:0:0:0:
79,335,72831,5,12,0:3:0:0:
241,260,74182,6,0,L|231:192,1,50,6|2,0:0|0:0,0:0:0:0:
304,139,74689,2,0,L|294:207,1,50,2|10,0:0|0:0,0:0:0:0:
358,267,75195,2,0,L|348:199,1,50,2|2,0:0|0:0,0:0:0:0:
421,146,75702,2,0,L|411:214,1,50,2|2,0:0|0:0,0:0:0:0:
464,281,76208,2,0,P|439:345|401:369,1,100,8|0,0:0|0:0,0:0:0:0:
323,323,76884,6,0,L|251:316,1,50,6|2,0:0|0:0,0:0:0:0:
192,376,77390,2,0,L|264:369,1,50,2|10,0:0|0:0,0:0:0:0:
122,295,77897,5,8,0:0:0:0:
122,295,78066,1,8,0:0:0:0:
256,192,78150,12,0,79079,0:0:0:0:
