osu file format v14

[General]
AudioFilename: audio.mp3
AudioLeadIn: 0
PreviewTime: 30275
Countdown: 0
SampleSet: Soft
StackLeniency: 0.6
Mode: 0
LetterboxInBreaks: 0
WidescreenStoryboard: 1

[Editor]
Bookmarks: 3931,9335,25547,30951,49864,66076,74182,78066
DistanceSpacing: 0.4
BeatDivisor: 4
GridSize: 16
TimelineZoom: 1.9

[Metadata]
Title:You Suck At Love (Speed Up Ver.)
TitleUnicode:You Suck At Love (Speed Up Ver.)
Artist:Simple Plan
ArtistUnicode:Simple Plan
Creator:-Nenecchi
Version:Insane
Source:
Tags:Get Your Heart On! nightcore
BeatmapID:2199214
BeatmapSetID:1052323

[Difficulty]
HPDrainRate:5
CircleSize:3.5
OverallDifficulty:7.8
ApproachRate:8.7
SliderMultiplier:1.5
SliderTickRate:1

[Events]
//Background and Video events
0,0,"qt.jpg",0,0
//Break Periods
//Storyboard Layer 0 (Background)
//Storyboard Layer 1 (Fail)
//Storyboard Layer 2 (Pass)
//Storyboard Layer 3 (Foreground)
//Storyboard Layer 4 (Overlay)
//Storyboard Sound Samples

[TimingPoints]
1230,337.742752603434,4,2,0,68,1,0
1230,-100,4,2,0,5,0,0
3931,-100,4,2,0,68,0,0
9335,-133.333333333333,4,2,0,68,0,0
30951,-100,4,2,0,68,0,0
72915,-100,4,2,0,5,0,0
74182,-100,4,2,0,68,0,0
78150,-100,4,2,0,5,0,0

[Colours]
Combo1 : 148,131,241
Combo2 : 209,90,165
Combo3 : 138,138,255
Combo4 : 255,128,192

[HitObjects]
256,192,1230,12,0,3847,0:0:0:0:
194,37,3931,5,4,0:0:0:0:
194,37,4100,2,0,P|250:41|288:51,1,75,2|8,0:0|0:0,0:0:0:0:
126,142,4438,5,2,0:0:0:0:
126,142,4607,2,0,P|198:132|225:123,1,75,2|0,0:0|0:0,0:0:0:0:
19,76,4945,5,8,0:0:0:0:
19,76,5114,2,0,P|9:138|8:163,1,75,2|0,0:0|0:0,0:0:0:0:
101,253,5451,5,2,0:0:0:0:
101,253,5620,2,0,P|89:302|66:348,1,75,8|0,0:0|0:0,0:0:0:0:
204,312,5958,6,0,L|244:304,3,37.5,0|0|0|0,3:0|3:0|3:0|3:0,0:0:0:0:
343,378,6296,2,0,L|298:375,3,37.5,0|0|0|0,3:0|3:0|3:0|3:0,0:0:0:0:
444,338,6633,5,6,0:0:0:0:
444,338,6802,2,0,P|437:273|427:244,1,75,2|8,0:0|0:0,0:0:0:0:
334,206,7140,5,2,0:0:0:0:
334,206,7309,2,0,P|344:149|360:112,1,75,2|0,0:0|0:0,0:0:0:0:
501,117,7647,5,8,0:0:0:0:
501,117,7815,2,0,P|447:139|419:145,1,75,2|0,0:0|0:0,0:0:0:0:
302,54,8153,5,2,0:0:0:0:
302,54,8322,2,0,P|228:58|210:63,1,75,8|0,0:0|0:0,0:0:0:0:
111,176,8660,5,2,0:0:0:0:
267,153,8829,1,8,0:0:0:0:
182,232,8998,1,8,0:0:0:0:
267,153,9166,1,0,0:0:0:0:
132,85,9335,6,0,P|96:85|69:91,1,56.2500021457673,2|0,0:0|0:0,0:0:0:0:
58,219,9673,2,0,P|95:191|111:175,1,56.2500021457673,8|0,0:0|0:0,0:0:0:0:
116,298,10011,2,0,P|106:331|106:363,1,56.2500021457673,0|0,0:0|0:0,0:0:0:0:
256,381,10349,2,0,P|225:359|199:351,1,56.2500021457673,8|0,0:0|0:0,0:0:0:0:
337,311,10686,5,0,0:0:0:0:
337,311,10855,2,0,P|377:335|403:340,1,56.2500021457673,0|8,0:0|0:0,0:0:0:0:
412,230,11193,1,0,0:0:0:0:
344,146,11362,2,0,L|347:80,1,56.2500021457673,0|0,0:0|0:0,0:0:0:0:
511,0,11700,5,10,0:0:0:0:
511,0,11868,1,2,0:0:0:0:
439,67,12037,1,2,0:0:0:0:
484,157,12206,2,0,P|468:200|444:227,1,56.2500021457673,0|8,0:0|0:0,0:0:0:0:
294,222,12544,5,0,0:0:0:0:
294,222,12713,2,0,P|334:200|359:195,1,56.2500021457673,0|0,0:0|0:0,0:0:0:0:
283,344,13050,5,8,0:0:0:0:
283,344,13219,1,0,0:0:0:0:
200,262,13388,2,0,L|203:195,1,56.2500021457673,0|0,0:0|0:0,0:0:0:0:
95,252,13726,2,0,L|86:330,1,56.2500021457673,8|0,0:0|0:0,0:0:0:0:
182,372,14064,5,0,0:0:0:0:
182,372,14233,1,0,0:0:0:0:
127,177,14401,5,10,0:0:0:0:
18,265,14570,1,2,0:0:0:0:
37,117,14739,5,2,0:0:0:0:
37,117,14908,2,0,P|54:61|60:47,1,56.2500021457673,0|8,0:0|0:0,0:0:0:0:
198,65,15246,1,0,0:0:0:0:
198,65,15415,2,0,P|157:91|138:99,1,56.2500021457673,0|0,0:0|0:0,0:0:0:0:
262,128,15752,2,0,P|299:128|325:132,1,56.2500021457673,8|0,0:0|0:0,0:0:0:0:
403,229,16090,5,0,0:0:0:0:
403,229,16259,1,0,0:0:0:0:
434,133,16428,2,0,L|425:63,1,56.2500021457673,8|0,0:0|0:0,0:0:0:0:
512,228,16766,2,0,L|501:297,1,56.2500021457673,0|0,0:0|0:0,0:0:0:0:
325,365,17103,5,10,0:0:0:0:
325,365,17272,2,0,P|326:329|330:294,1,56.2500021457673,2|2,0:0|0:0,0:0:0:0:
217,226,17610,1,0,0:0:0:0:
217,226,17779,2,0,P|226:256|231:293,1,56.2500021457673,8|0,0:0|0:0,0:0:0:0:
179,384,18117,5,2,0:0:0:0:
179,384,18286,1,0,0:0:0:0:
114,289,18454,2,0,L|121:212,1,56.2500021457673,8|0,0:0|0:0,0:0:0:0:
0,317,18792,5,2,0:0:0:0:
0,317,18961,1,0,0:0:0:0:
47,205,19130,2,0,L|41:139,1,56.2500021457673,8|0,0:0|0:0,0:0:0:0:
1,48,19468,5,2,0:0:0:0:
181,116,19636,1,8,0:0:0:0:
82,143,19805,1,8,0:0:0:0:
181,24,19974,1,8,0:0:0:0:
265,173,20143,6,0,P|253:215|240:243,1,56.2500021457673,2|0,0:0|0:0,0:0:0:0:
345,345,20481,2,0,P|327:301|325:284,1,56.2500021457673,8|0,0:0|0:0,0:0:0:0:
447,228,20819,2,0,P|435:266|414:294,1,56.2500021457673,0|0,0:0|0:0,0:0:0:0:
367,152,21156,2,0,P|373:101|377:80,1,56.2500021457673,8|0,0:0|0:0,0:0:0:0:
512,27,21494,5,2,0:0:0:0:
450,126,21663,1,2,0:0:0:0:
300,62,21832,2,0,L|229:70,1,56.2500021457673,8|0,0:0|0:0,0:0:0:0:
134,184,22170,2,0,L|200:190,1,56.2500021457673,0|0,0:0|0:0,0:0:0:0:
59,96,22507,5,10,0:0:0:0:
59,96,22676,1,2,0:0:0:0:
0,223,22845,6,0,P|6:273|12:295,1,56.2500021457673,2|0,0:0|0:0,0:0:0:0:
139,317,23183,2,0,P|114:283|98:272,1,56.2500021457673,8|0,0:0|0:0,0:0:0:0:
202,166,23521,2,0,P|187:208|185:234,1,56.2500021457673,0|0,0:0|0:0,0:0:0:0:
311,296,23858,2,0,P|298:249|286:223,1,56.2500021457673,8|0,0:0|0:0,0:0:0:0:
416,73,24196,5,2,0:0:0:0:
331,162,24365,1,2,0:0:0:0:
406,286,24534,2,0,L|412:363,1,56.2500021457673,8|0,0:0|0:0,0:0:0:0:
422,180,24871,5,0,0:0:0:0:
422,180,25040,1,0,0:0:0:0:
324,80,25209,2,0,L|328:12,1,56.2500021457673,10|2,0:0|0:0,0:0:0:0:
424,82,25547,5,2,0:0:0:0:
424,82,25716,1,0,0:0:0:0:
340,163,25885,2,0,L|260:169,1,56.2500021457673,8|2,0:0|0:0,0:0:0:0:
134,128,26222,5,2,0:0:0:0:
235,90,26391,1,0,0:0:0:0:
134,128,26560,1,8,0:0:0:0:
235,90,26729,1,0,0:0:0:0:
70,48,26898,5,2,0:0:0:0:
70,48,27067,1,0,0:0:0:0:
10,133,27236,2,0,L|12:203,1,56.2500021457673,8|2,0:0|0:0,0:0:0:0:
85,325,27573,5,2,0:0:0:0:
118,214,27742,1,0,0:0:0:0:
172,316,27911,1,8,0:0:0:0:
205,205,28080,1,0,0:0:0:0:
344,353,28249,5,4,0:0:0:0:
267,287,28418,1,0,0:0:0:0:
396,274,28587,5,2,0:0:0:0:
247,366,28756,1,0,0:0:0:0:
334,204,28924,5,2,0:0:0:0:
445,350,29093,1,0,0:0:0:0:
467,167,29262,5,2,0:0:0:0:
340,337,29431,1,0,0:0:0:0:
373,115,29600,5,8,0:0:0:0:
464,263,29769,1,2,0:0:0:0:
464,263,29938,1,2,0:0:0:0:
262,279,30107,5,8,0:0:0:0:
262,279,30951,6,0,B|240:214|292:213|266:133,1,150,6|10,0:0|0:0,0:0:0:0:
105,124,31457,1,0,0:0:0:0:
105,124,31626,2,0,P|140:157|171:169,1,75,2|2,0:0|0:0,0:0:0:0:
61,33,31964,5,8,0:0:0:0:
18,131,32133,2,0,L|11:219,1,75,2|0,0:0|0:0,0:0:0:0:
125,305,32471,1,2,0:0:0:0:
125,305,32640,2,0,L|118:223,1,75,8|2,0:0|0:0,0:0:0:0:
278,125,32977,6,0,P|229:157|232:257,2,150,2|8|2,0:0|0:0|0:0,0:0:0:0:
373,206,33822,5,2,0:0:0:0:
373,206,33991,2,0,P|337:209|271:197,1,75,8|0,0:0|0:0,0:0:0:0:
422,111,34328,2,0,P|469:150|480:181,1,75,2|0,0:0|0:0,0:0:0:0:
425,275,34666,1,8,0:0:0:0:
322,116,34835,6,0,L|331:28,1,75,2|2,0:0|0:0,0:0:0:0:
199,125,35173,1,2,0:0:0:0:
199,125,35342,2,0,L|197:212,1,75,8|0,0:0|0:0,0:0:0:0:
349,329,35679,6,0,P|329:276|299:251,1,75,2|2,0:0|0:0,0:0:0:0:
168,331,36017,2,0,L|267:337,1,75,10|2,0:0|0:0,0:0:0:0:
429,270,36355,6,0,L|308:262,1,112.5,6|0,0:0|0:0,0:0:0:0:
316,263,36692,5,8,0:0:0:0:
381,173,36861,1,2,0:0:0:0:
241,81,37030,5,8,0:0:0:0:
286,179,37199,1,2,0:0:0:0:
334,74,37368,2,0,L|325:-13,1,75,8|2,0:0|0:0,0:0:0:0:
197,190,37706,6,0,L|189:315,1,112.5,6|0,0:0|0:0,0:0:0:0:
189,302,38043,5,8,0:0:0:0:
74,257,38212,1,2,0:0:0:0:
74,257,38381,2,0,L|-21:269,1,75,2|0,0:0|0:0,0:0:0:0:
93,372,38719,2,0,L|184:387,1,75,10|0,0:0|0:0,0:0:0:0:
288,262,39057,5,2,0:0:0:0:
189,302,39226,1,2,0:0:0:0:
352,344,39394,1,8,0:0:0:0:
216,196,39563,5,2,0:0:0:0:
263,365,39732,1,2,0:0:0:0:
253,381,40070,5,8,0:0:0:0:
363,242,40239,1,2,0:0:0:0:
375,234,40577,5,2,0:0:0:0:
174,292,40745,1,8,0:0:0:0:
183,305,41083,5,2,0:0:0:0:
281,249,41252,1,10,0:0:0:0:
363,326,41421,1,10,0:0:0:0:
461,271,41590,1,10,0:0:0:0:
439,160,41759,5,6,0:0:0:0:
439,160,41928,1,2,0:0:0:0:
336,233,42096,2,0,L|247:235,1,75,8|0,0:0|0:0,0:0:0:0:
162,120,42434,2,0,L|266:130,1,75,2|0,0:0|0:0,0:0:0:0:
56,203,42772,5,8,0:0:0:0:
56,203,42941,2,0,P|44:157|48:119,1,75,2|0,0:0|0:0,0:0:0:0:
166,248,43278,2,0,P|157:292|139:333,1,75,2|10,0:0|0:0,0:0:0:0:
294,325,43616,5,0,0:0:0:0:
294,325,43785,2,0,P|371:306|455:332,2,150,2|10|2,0:0|0:0|0:0,0:0:0:0:
425,227,44629,5,2,0:0:0:0:
425,227,44798,2,0,P|438:189|431:124,1,75,8|0,0:0|0:0,0:0:0:0:
283,112,45136,2,0,P|309:142|368:169,1,75,2|0,0:0|0:0,0:0:0:0:
453,46,45474,1,8,0:0:0:0:
453,46,45643,2,0,P|413:53|360:91,1,75,2|0,0:0|0:0,0:0:0:0:
273,19,45980,1,2,0:0:0:0:
273,19,46149,2,0,L|167:14,1,75,10|2,0:0|0:0,0:0:0:0:
120,150,46487,6,0,P|172:114|187:85,1,75,2|0,0:0|0:0,0:0:0:0:
88,59,46825,1,8,0:0:0:0:
88,59,46994,1,2,0:0:0:0:
1,167,47163,5,8,0:0:0:0:
134,266,47331,1,2,0:0:0:0:
27,267,47500,5,8,0:0:0:0:
184,182,47669,1,2,0:0:0:0:
86,176,47838,5,8,0:0:0:0:
191,339,48007,1,2,0:0:0:0:
279,223,48176,5,8,0:0:0:0:
105,324,48345,1,2,0:0:0:0:
345,374,48513,5,8,0:0:0:0:
255,335,48682,2,0,L|204:334,2,37.5,8|8|2,0:0|0:0|0:0,0:0:0:0:
387,278,49020,5,0,3:0:0:0:
397,258,49105,1,0,3:0:0:0:
401,235,49189,1,0,3:0:0:0:
398,212,49273,1,0,3:0:0:0:
390,190,49358,2,0,L|406:142,5,37.5,8|0|2|0|8|0,0:0|0:0|0:0|0:0|0:0|0:0,0:0:0:0:
389,71,49864,6,0,P|339:109|304:120,1,75,6|2,0:0|0:0,0:0:0:0:
219,63,50202,2,0,P|169:68|136:85,1,75,10|0,0:0|0:0,0:0:0:0:
176,228,50540,2,0,P|203:183|209:149,1,75,2|2,0:0|0:0,0:0:0:0:
37,144,50878,5,8,0:0:0:0:
37,144,51047,2,0,L|19:236,1,75,2|0,0:0|0:0,0:0:0:0:
131,328,51384,1,2,0:0:0:0:
131,328,51553,2,0,L|130:241,1,75,8|2,0:0|0:0,0:0:0:0:
272,182,51891,6,0,P|253:206|247:327,2,150,2|10|2,0:0|0:0|0:0,0:0:0:0:
422,245,52735,5,2,0:0:0:0:
422,245,52904,2,0,P|373:265|332:268,1,75,8|0,0:0|0:0,0:0:0:0:
400,140,53242,2,0,L|486:148,1,75,2|0,0:0|0:0,0:0:0:0:
309,41,53580,5,8,0:0:0:0:
309,41,53748,2,0,L|223:49,1,75,2|0,0:0|0:0,0:0:0:0:
248,144,54086,5,2,0:0:0:0:
248,144,54254,2,0,L|162:152,1,75,10|0,0:0|0:0,0:0:0:0:
28,89,54593,6,0,P|69:107|96:154,1,75,2|2,0:0|0:0,0:0:0:0:
1,261,54931,2,0,L|8:175,1,75,8|2,0:0|0:0,0:0:0:0:
97,18,55268,6,0,L|85:138,1,112.5,6|0,0:0|0:0,0:0:0:0:
86,130,55605,5,8,0:0:0:0:
184,79,55774,1,2,0:0:0:0:
253,231,55943,5,8,0:0:0:0:
163,171,56112,1,2,0:0:0:0:
295,149,56282,2,0,L|381:156,1,75,8|2,0:0|0:0,0:0:0:0:
512,292,56619,6,0,L|373:305,1,112.5,6|0,0:0|0:0,0:0:0:0:
399,302,56957,5,8,0:0:0:0:
493,182,57126,1,2,0:0:0:0:
493,182,57295,2,0,P|482:106|477:83,1,75,8|2,0:0|0:0,0:0:0:0:
314,58,57633,2,0,P|348:100|399:124,1,75,8|2,0:0|0:0,0:0:0:0:
416,21,57970,5,2,0:0:0:0:
300,174,58139,1,2,0:0:0:0:
282,169,58477,5,2,0:0:0:0:
471,129,58646,1,2,0:0:0:0:
485,148,58984,5,8,0:0:0:0:
300,56,59152,2,0,P|262:57|196:93,1,112.5,2|0,0:0|0:0,0:0:0:0:
197,91,59490,1,8,0:0:0:0:
197,91,59575,1,8,0:0:0:0:
197,91,59659,6,0,P|167:155|129:188,1,112.5,8|2,0:0|0:0,0:0:0:0:
136,183,59997,1,8,3:2:0:0:
136,183,60081,1,8,3:2:0:0:
136,183,60166,1,8,3:2:0:0:
91,91,60334,5,8,0:0:0:0:
91,91,60419,1,8,0:0:0:0:
91,91,60503,1,8,0:0:0:0:
35,202,60672,6,0,P|38:258|47:283,1,75,6|0,0:0|0:0,0:0:0:0:
164,284,61010,2,0,P|225:298|251:313,1,75,8|0,0:0|0:0,0:0:0:0:
362,384,61348,2,0,P|350:335|356:296,1,75,2|2,0:0|0:0,0:0:0:0:
491,266,61685,5,8,0:0:0:0:
491,266,61854,2,0,P|474:301|443:335,1,75,2|0,0:0|0:0,0:0:0:0:
371,216,62192,2,0,L|383:128,1,75,2|10,0:0|0:0,0:0:0:0:
469,29,62530,5,0,0:0:0:0:
469,29,62699,2,0,P|414:48|313:26,2,150,2|8|2,0:0|0:0|0:0,0:0:0:0:
489,141,63543,5,0,0:0:0:0:
489,141,63712,2,0,P|489:183|481:230,1,75,8|2,0:0|0:0,0:0:0:0:
322,212,64050,2,0,P|357:184|392:171,1,75,2|0,0:0|0:0,0:0:0:0:
488,314,64387,5,8,0:0:0:0:
488,314,64556,2,0,P|447:299|408:278,1,75,2|0,0:0|0:0,0:0:0:0:
339,361,64894,1,2,0:0:0:0:
339,361,65063,2,0,P|292:363|257:371,1,75,10|0,0:0|0:0,0:0:0:0:
177,225,65401,6,0,P|225:266|234:304,1,75,2|0,0:0|0:0,0:0:0:0:
115,384,65738,2,0,P|127:328|153:294,1,75,8|2,0:0|0:0,0:0:0:0:
39,175,66076,5,12,0:0:0:0:
95,307,66245,1,2,0:0:0:0:
152,165,66414,5,8,0:0:0:0:
95,307,66583,1,2,0:0:0:0:
192,253,66752,6,0,L|281:248,1,75,8|2,0:0|0:0,0:0:0:0:
376,344,67089,2,0,L|276:337,1,75,8|2,0:0|0:0,0:0:0:0:
398,239,67427,5,8,0:0:0:0:
398,239,67596,2,0,P|423:179|414:136,1,75,2|8,0:0|0:0,0:0:0:0:
276,103,67934,2,0,P|315:154|357:168,1,75,2|8,0:0|0:0,0:0:0:0:
454,65,68271,1,2,0:0:0:0:
454,65,68440,2,0,P|389:73|356:102,1,75,8|2,0:0|0:0,0:0:0:0:
486,295,68778,5,8,0:0:0:0:
439,155,68947,1,2,0:0:0:0:
391,316,69116,5,8,0:0:0:0:
439,155,69285,1,2,0:0:0:0:
343,250,69454,6,0,L|257:263,1,75,8|2,0:0|0:0,0:0:0:0:
169,163,69791,2,0,L|276:174,1,75,8|2,0:0|0:0,0:0:0:0:
93,243,70129,5,8,0:0:0:0:
93,243,70298,2,0,P|68:183|77:140,1,75,2|8,0:0|0:0,0:0:0:0:
215,107,70636,2,0,P|175:158|133:172,1,75,2|8,0:0|0:0,0:0:0:0:
37,69,70973,1,2,0:0:0:0:
37,69,71142,2,0,P|101:77|134:106,1,75,8|2,0:0|0:0,0:0:0:0:
178,263,71480,5,8,0:0:0:0:
60,161,71649,1,2,0:0:0:0:
211,175,71818,5,8,0:0:0:0:
85,281,71987,1,2,0:0:0:0:
147,107,72155,5,8,0:0:0:0:
259,253,72324,1,2,0:0:0:0:
283,97,72493,5,8,0:0:0:0:
175,259,72662,1,2,0:0:0:0:
401,193,72831,5,12,0:3:0:0:
256,192,72915,12,0,74097,0:0:0:0:
0,187,74182,5,6,0:0:0:0:
0,187,74351,2,0,P|4:243|14:281,1,75,2|0,0:0|0:0,0:0:0:0:
105,119,74689,5,2,0:0:0:0:
105,119,74858,2,0,P|95:191|86:218,1,75,10|0,0:0|0:0,0:0:0:0:
39,12,75196,5,2,0:0:0:0:
39,12,75365,2,0,P|101:2|126:1,1,75,2|0,0:0|0:0,0:0:0:0:
216,94,75702,5,2,0:0:0:0:
216,94,75871,2,0,P|265:82|311:59,1,75,2|0,0:0|0:0,0:0:0:0:
219,199,76208,6,0,P|198:258|195:301,1,75,8|2,0:0|0:0,0:0:0:0:
245,384,76546,1,0,0:0:0:0:
340,253,76715,1,8,0:0:0:0:
340,253,76799,1,8,0:0:0:0:
340,253,76884,5,6,0:0:0:0:
384,334,77053,2,0,P|419:364|451:378,1,75,2|0,0:0|0:0,0:0:0:0:
378,145,77390,5,2,0:0:0:0:
441,218,77559,2,0,P|461:271|464:294,1,75,10|0,0:0|0:0,0:0:0:0:
473,101,77897,5,8,0:0:0:0:
343,257,78066,1,8,0:0:0:0:
256,192,78150,12,0,79079,0:0:0:0:
