osu file format v14

[General]
AudioFilename: audio.mp3
AudioLeadIn: 0
PreviewTime: 30275
Countdown: 0
SampleSet: Soft
StackLeniency: 0.6
Mode: 0
LetterboxInBreaks: 0
WidescreenStoryboard: 0

[Editor]
Bookmarks: 3931,9335,25547,30951,49864,66076,74182,78066
DistanceSpacing: 1.3
BeatDivisor: 4
GridSize: 16
TimelineZoom: 1.9

[Metadata]
Title:You Suck At Love (Speed Up Ver.)
TitleUnicode:You Suck At Love (Speed Up Ver.)
Artist:Simple Plan
ArtistUnicode:Simple Plan
Creator:-Nenecchi
Version:Extra
Source:
Tags:Get Your Heart On! nightcore
BeatmapID:2199164
BeatmapSetID:1052323

[Difficulty]
HPDrainRate:5
CircleSize:3.8
OverallDifficulty:8.6
ApproachRate:9.2
SliderMultiplier:1.7
SliderTickRate:1

[Events]
//Background and Video events
0,0,"qt.jpg",0,0
//Break Periods
//Storyboard Layer 0 (Background)
//Storyboard Layer 1 (Fail)
//Storyboard Layer 2 (Pass)
//Storyboard Layer 3 (Foreground)
//Storyboard Layer 4 (Overlay)
//Storyboard Sound Samples

[TimingPoints]
1230,337.742752603434,4,2,0,68,1,0
1230,-250,4,2,0,68,0,0
1736,-166.666666666667,4,2,0,68,0,0
2243,-125,4,2,0,68,0,0
2749,-100,4,2,0,68,0,0
3931,-100,4,2,0,68,0,0
9335,-166.666666666667,4,2,0,68,0,0
25547,-125,4,2,0,68,0,0
30444,-100,4,2,0,68,0,0
36355,-76.9230769230769,4,2,0,68,0,0
38381,-100,4,2,0,68,0,0
55268,-76.9230769230769,4,2,0,68,0,0
58646,-100,4,2,0,68,0,0
59152,-151.515151515152,4,2,0,68,0,0
59490,-100,4,2,0,68,0,0
72915,-100,4,2,0,5,0,0
74182,-100,4,2,0,68,0,0
76377,-150.15015015015,4,2,0,68,0,0
76715,-100,4,2,0,68,0,0
78150,-100,4,2,0,5,0,0

[Colours]
Combo1 : 148,131,241
Combo2 : 209,90,165
Combo3 : 138,138,255
Combo4 : 255,128,192

[HitObjects]
163,348,1230,6,0,L|128:343,2,34,2|0|0,0:0|0:0|0:0,0:0:0:0:
227,286,1736,2,0,L|279:278,2,50.9999984436036,2|0|0,0:0|0:0|0:0,0:0:0:0:
150,211,2243,2,0,L|69:199,2,68,2|0|0,0:0|0:0|0:0,0:0:0:0:
242,121,2749,2,0,L|333:107,2,85,2|0|0,0:0|0:0|0:0,0:0:0:0:
105,56,3256,5,2,0:0:0:0:
156,123,3425,1,2,0:0:0:0:
189,46,3594,1,2,0:0:0:0:
72,133,3763,1,2,0:0:0:0:
335,238,3931,5,4,0:0:0:0:
276,134,4100,2,0,P|277:89|286:39,1,85,2|8,0:0|0:0,0:0:0:0:
329,253,4438,5,2,0:0:0:0:
396,95,4607,2,0,P|392:54|381:3,1,85,2|0,0:0|0:0,0:0:0:0:
192,172,4945,5,8,0:0:0:0:
428,204,5114,2,0,P|484:200|527:190,1,85,2|0,0:0|0:0,0:0:0:0:
245,327,5451,5,2,0:0:0:0:
319,133,5620,1,8,0:0:0:0:
383,353,5789,5,0,0:0:0:0:
319,133,5958,2,0,P|316:159|313:179,3,42.5,0|0|0|0,3:0|3:0|3:0|3:0,3:0:0:0:
236,245,6296,2,0,P|226:222|220:183,3,42.5,0|0|0|0,3:0|3:0|3:0|3:0,3:0:0:0:
240,122,6633,5,6,0:0:0:0:
136,317,6802,1,2,0:0:0:0:
317,262,6971,1,8,0:0:0:0:
115,192,7140,5,2,0:0:0:0:
237,336,7309,2,0,P|282:359|341:373,1,85,2|0,0:0|0:0,0:0:0:0:
133,321,7647,5,8,0:0:0:0:
314,266,7815,2,0,P|375:259|424:259,1,85,2|0,0:0|0:0,0:0:0:0:
224,167,8153,5,2,0:0:0:0:
458,345,8322,2,0,B|483:317|483:317|498:250,1,85,8|0,0:0|0:0,0:0:0:0:
308,59,8660,5,2,0:0:0:0:
382,237,8829,1,8,0:0:0:0:
433,112,8998,5,8,0:0:0:0:
382,237,9166,1,0,0:0:0:0:
198,157,9335,6,0,P|239:152|271:151,1,50.9999984436036,2|0,0:0|0:0,0:0:0:0:
210,279,9673,2,0,P|188:297|165:310,1,50.9999984436036,8|0,0:0|0:0,0:0:0:0:
62,150,10011,5,0,0:0:0:0:
123,222,10180,1,0,0:0:0:0:
58,323,10349,2,0,L|61:376,1,50.9999984436036,8|0,0:0|0:0,0:0:0:0:
24,232,10686,5,0,0:0:0:0:
144,318,10855,1,0,0:0:0:0:
120,218,11024,2,0,P|122:189|127:157,1,50.9999984436036,8|0,0:0|0:0,0:0:0:0:
30,58,11362,2,0,P|39:95|42:123,1,50.9999984436036
24,232,11700,5,10,0:0:0:0:
24,232,11868,1,2,0:0:0:0:
147,322,12037,2,0,P|187:333|212:336,1,50.9999984436036,2|0,0:0|0:0,0:0:0:0:
291,242,12375,2,0,P|243:248|227:254,1,50.9999984436036,8|0,0:0|0:0,0:0:0:0:
355,384,12713,5,0,0:0:0:0:
355,384,12882,2,0,P|374:357|384:333,1,50.9999984436036,0|8,0:0|0:0,0:0:0:0:
249,163,13219,5,0,0:0:0:0:
293,324,13388,1,0,0:0:0:0:
372,189,13557,1,0,0:0:0:0:
181,291,13726,6,0,P|147:287|127:282,1,50.9999984436036,8|0,0:0|0:0,0:0:0:0:
291,242,14064,2,0,P|320:248|344:258,1,50.9999984436036
160,200,14401,5,10,0:0:0:0:
290,328,14570,1,2,0:0:0:0:
319,139,14739,6,0,P|313:93|306:69,1,50.9999984436036,2|0,0:0|0:0,0:0:0:0:
176,84,15077,2,0,P|209:112|231:124,1,50.9999984436036,8|0,0:0|0:0,0:0:0:0:
434,55,15415,5,0,0:0:0:0:
434,55,15584,2,0,P|388:56|368:60,1,50.9999984436036,0|8,0:0|0:0,0:0:0:0:
319,212,15921,5,0,0:0:0:0:
411,148,16090,1,0,0:0:0:0:
298,108,16259,1,0,0:0:0:0:
416,255,16428,2,0,P|420:294|418:324,1,50.9999984436036,8|0,0:0|0:0,0:0:0:0:
281,329,16766,2,0,P|314:306|335:295,1,50.9999984436036
478,384,17103,5,10,0:0:0:0:
478,384,17272,1,2,0:0:0:0:
419,305,17441,6,0,P|419:269|421:238,1,50.9999984436036,2|0,0:0|0:0,0:0:0:0:
511,127,17779,2,0,P|508:159|501:189,1,50.9999984436036,8|0,0:0|0:0,0:0:0:0:
324,268,18117,6,0,P|324:232|326:201,1,50.9999984436036,2|0,0:0|0:0,0:0:0:0:
416,90,18455,2,0,P|413:122|406:152,1,50.9999984436036,8|0,0:0|0:0,0:0:0:0:
233,120,18792,6,0,P|274:114|297:112,1,50.9999984436036,2|0,0:0|0:0,0:0:0:0:
468,245,19130,2,0,P|435:243|416:240,1,50.9999984436036,8|0,0:0|0:0,0:0:0:0:
237,241,19468,6,0,L|267:233,1,25.4999992218018,2|0,0:0|0:0,0:0:0:0:
482,166,19636,1,8,0:0:0:0:
230,116,19805,1,8,0:0:0:0:
482,166,19974,1,8,0:0:0:0:
261,344,20143,5,2,0:0:0:0:
261,344,20312,2,0,P|232:342|202:336,1,50.9999984436036,0|8,0:0|0:0,0:0:0:0:
94,368,20650,5,0,0:0:0:0:
141,281,20819,2,0,P|138:249|133:222,1,50.9999984436036
22,172,21156,2,0,P|34:217|42:238,1,50.9999984436036,8|0,0:0|0:0,0:0:0:0:
128,116,21494,5,2,0:0:0:0:
58,52,21663,1,2,0:0:0:0:
194,35,21832,2,0,L|283:43,1,50.9999984436036,8|0,0:0|0:0,0:0:0:0:
131,120,22170,5,0,0:0:0:0:
61,56,22338,1,0,0:0:0:0:
197,39,22507,1,10,0:0:0:0:
197,39,22676,1,2,0:0:0:0:
52,214,22845,5,2,0:0:0:0:
52,214,23014,2,0,P|64:169|73:154,1,50.9999984436036,0|8,0:0|0:0,0:0:0:0:
122,358,23352,5,0,0:0:0:0:
152,273,23521,2,0,P|146:237|131:200,1,50.9999984436036
1,285,23858,2,0,P|36:300|67:306,1,50.9999984436036,8|0,0:0|0:0,0:0:0:0:
195,209,24196,5,2,0:0:0:0:
43,272,24365,1,2,0:0:0:0:
198,341,24534,2,0,P|257:349|292:349,1,50.9999984436036,8|0,0:0|0:0,0:0:0:0:
192,205,24871,5,0,0:0:0:0:
40,268,25040,1,0,0:0:0:0:
198,341,25209,1,10,0:0:0:0:
198,341,25378,1,2,0:0:0:0:
101,134,25547,5,2,0:0:0:0:
139,278,25716,1,0,0:0:0:0:
229,180,25885,2,0,P|229:141|227:101,1,68,8|2,0:0|0:0,0:0:0:0:
38,348,26222,5,2,0:0:0:0:
152,201,26391,1,0,0:0:0:0:
173,381,26560,5,8,0:0:0:0:
152,201,26729,1,0,0:0:0:0:
47,195,26898,5,2,0:0:0:0:
111,300,27067,1,0,0:0:0:0:
246,264,27236,2,0,P|282:265|330:274,1,68,8|2,0:0|0:0,0:0:0:0:
470,366,27573,5,2,0:0:0:0:
277,282,27742,1,0,0:0:0:0:
470,366,27911,5,8,0:0:0:0:
349,201,28080,1,0,0:0:0:0:
279,384,28249,5,4,0:0:0:0:
365,310,28418,1,0,0:0:0:0:
237,183,28587,5,2,0:0:0:0:
280,286,28756,1,0,0:0:0:0:
405,154,28924,5,2,0:0:0:0:
175,264,29093,1,0,0:0:0:0:
436,259,29262,5,2,0:0:0:0:
139,146,29431,1,0,0:0:0:0:
440,57,29600,5,8,0:0:0:0:
322,241,29769,1,2,0:0:0:0:
322,241,29938,1,2,0:0:0:0:
265,19,30107,5,8,0:0:0:0:
265,19,30444,2,0,B|228:89|303:106|261:191,1,170
63,165,30951,6,0,B|32:150|32:150|136:140,1,127.5,6|0,0:0|0:0,0:0:0:0:
192,109,31289,2,0,L|99:117,1,85,10|0,0:0|0:0,0:0:0:0:
12,271,31626,5,2,0:0:0:0:
153,208,31795,1,2,0:0:0:0:
0,149,31964,1,8,0:0:0:0:
121,298,32133,6,0,B|189:314|183:274|255:293,1,127.5,2|0,0:0|0:0,0:0:0:0:
245,291,32471,1,2,0:0:0:0:
150,203,32640,5,8,0:0:0:0:
227,384,32808,1,2,0:0:0:0:
359,196,32977,6,0,P|355:129|325:67,1,127.5,2|0,0:0|0:0,0:0:0:0:
323,69,33315,2,0,P|292:123|286:162,1,85,8|0,0:0|0:0,0:0:0:0:
490,252,33653,5,2,0:0:0:0:
392,152,33822,1,2,0:0:0:0:
237,273,33991,2,0,P|190:279|145:270,1,85,8|0,0:0|0:0,0:0:0:0:
106,84,34328,2,0,P|161:114|191:179,1,127.5,2|0,0:0|0:0,0:0:0:0:
189,170,34666,1,8,0:0:0:0:
296,78,34835,6,0,L|413:87,1,85,2|2,0:0|0:0,0:0:0:0:
386,269,35173,1,2,0:0:0:0:
386,269,35342,2,0,P|336:225|326:188,1,85,8|0,0:0|0:0,0:0:0:0:
511,43,35679,5,2,0:0:0:0:
420,182,35848,1,2,0:0:0:0:
388,45,36017,5,10,0:0:0:0:
512,240,36186,1,2,0:0:0:0:
235,334,36355,6,0,P|212:264|267:184,1,165.749992412568,6|0,0:0|0:0,0:0:0:0:
256,189,36692,5,8,0:0:0:0:
121,269,36861,1,2,0:0:0:0:
310,271,37030,5,8,0:0:0:0:
88,162,37199,1,2,0:0:0:0:
357,190,37368,5,8,0:0:0:0:
16,242,37537,1,2,0:0:0:0:
324,380,37706,6,0,P|400:323|381:199,1,220.999989883423,6|8,0:0|0:0,0:0:0:0:
210,235,38212,1,2,0:0:0:0:
210,235,38381,2,0,P|258:263|302:268,1,85,2|0,0:0|0:0,0:0:0:0:
359,96,38719,2,0,P|309:125|281:169,1,85,10|0,0:0|0:0,0:0:0:0:
511,358,39057,5,2,0:0:0:0:
373,184,39226,1,2,0:0:0:0:
423,336,39394,1,8,0:0:0:0:
512,156,39563,1,2,0:0:0:0:
321,292,39732,2,0,P|260:283|217:271,1,85,2|0,0:0|0:0,0:0:0:0:
463,244,40070,5,8,0:0:0:0:
241,171,40239,2,0,P|186:180|151:192,1,85,2|0,0:0|0:0,0:0:0:0:
274,384,40577,5,2,0:0:0:0:
349,197,40745,2,0,L|336:92,1,85,8|0,0:0|0:0,0:0:0:0:
34,107,41083,5,2,0:0:0:0:
19,118,41252,1,10,0:0:0:0:
135,258,41421,1,10,0:0:0:0:
268,175,41590,1,10,0:0:0:0:
399,264,41759,5,6,0:0:0:0:
399,264,41928,1,2,0:0:0:0:
232,350,42096,6,0,P|255:293|297:261,1,85,8|0,0:0|0:0,0:0:0:0:
430,348,42434,2,0,B|467:382|467:382|328:365,1,170,2|8,0:0|0:0,0:0:0:0:
135,258,42941,6,0,P|195:249|244:269,1,85,2|0,0:0|0:0,0:0:0:0:
408,251,43278,1,2,0:0:0:0:
408,251,43447,2,0,P|355:218|331:171,1,85,10|0,0:0|0:0,0:0:0:0:
235,18,43785,6,0,P|243:77|211:141,1,127.5,2|0,0:0|0:0,0:0:0:0:
202,145,44123,2,0,P|189:198|197:238,1,85,10|0,0:0|0:0,0:0:0:0:
442,148,44461,5,2,0:0:0:0:
291,194,44629,1,2,0:0:0:0:
458,339,44798,2,0,P|446:272|420:233,1,85,8|0,0:0|0:0,0:0:0:0:
235,314,45136,2,0,P|291:329|338:324,1,85,2|0,0:0|0:0,0:0:0:0:
180,179,45474,5,8,0:0:0:0:
111,278,45643,2,0,P|104:335|104:382,1,85,2|0,0:0|0:0,0:0:0:0:
33,125,45980,5,2,0:0:0:0:
33,125,46149,2,2,P|35:179|34:216,1,85,10|2,0:0|0:0,0:0:0:0:
191,24,46487,6,0,P|147:73|131:108,1,85,2|0,0:0|0:0,0:0:0:0:
183,282,46825,1,8,0:0:0:0:
183,282,46994,1,2,0:0:0:0:
213,113,47163,5,8,0:0:0:0:
100,250,47331,1,2,0:0:0:0:
95,52,47500,5,8,0:0:0:0:
244,214,47669,1,2,0:0:0:0:
312,38,47838,5,8,0:0:0:0:
123,169,48007,1,2,0:0:0:0:
400,249,48176,5,8,0:0:0:0:
203,68,48345,1,2,0:0:0:0:
152,297,48513,5,8,0:0:0:0:
383,66,48682,1,8,0:0:0:0:
400,85,48767,1,8,0:0:0:0:
407,109,48851,2,0,L|400:163,1,42.5,2|0,0:0|0:0,0:0:0:0:
299,217,49020,1,0,3:0:0:0:
291,254,49105,1,0,3:0:0:0:
299,291,49189,1,0,3:0:0:0:
320,322,49273,1,0,3:0:0:0:
352,343,49358,5,8,0:0:0:0:
122,241,49527,1,2,0:0:0:0:
397,253,49696,5,8,0:0:0:0:
109,370,49864,1,6,0:0:0:0:
109,370,50033,1,2,0:0:0:0:
389,347,50202,6,0,P|463:318|487:261,1,127.5,10|0,0:0|0:0,0:0:0:0:
485,255,50540,2,0,P|468:189|473:153,1,85,2|2,0:0|0:0,0:0:0:0:
511,37,50878,1,8,0:0:0:0:
338,130,51047,6,0,L|243:121,1,85,2|0,0:0|0:0,0:0:0:0:
117,69,51384,1,2,0:0:0:0:
290,43,51553,1,8,0:0:0:0:
117,69,51722,1,2,0:0:0:0:
313,238,51891,6,0,P|385:231|445:201,1,127.5,2|0,0:0|0:0,0:0:0:0:
452,186,52229,2,0,P|400:172|342:170,1,85,10|0,0:0|0:0,0:0:0:0:
308,384,52566,6,0,P|359:354|382:318,1,85,2|2,0:0|0:0,0:0:0:0:
237,130,52904,2,0,P|237:177|242:227,1,85,8|0,0:0|0:0,0:0:0:0:
68,350,53242,6,0,P|73:276|100:222,1,127.5,2|0,0:0|0:0,0:0:0:0:
95,228,53580,1,8,0:0:0:0:
198,311,53748,6,0,P|244:310|291:303,1,85,2|0,0:0|0:0,0:0:0:0:
345,125,54086,1,2,0:0:0:0:
345,125,54255,2,0,P|300:148|267:192,1,85,10|0,0:0|0:0,0:0:0:0:
472,376,54593,5,2,0:0:0:0:
364,223,54762,1,2,0:0:0:0:
357,382,54931,5,8,0:0:0:0:
497,183,55099,1,2,0:0:0:0:
229,65,55268,6,0,P|200:129|246:220,1,165.749992412568,6|0,0:0|0:0,0:0:0:0:
235,212,55606,5,8,0:0:0:0:
91,142,55775,1,2,0:0:0:0:
298,134,55944,5,8,0:0:0:0:
78,247,56113,1,2,0:0:0:0:
348,227,56282,5,8,0:0:0:0:
0,183,56450,1,2,0:0:0:0:
384,320,56619,6,0,P|437:260|425:161,1,165.749992412568,6|0,0:0|0:0,0:0:0:0:
435,178,56957,5,8,0:0:0:0:
490,355,57126,1,2,0:0:0:0:
502,104,57295,5,8,0:0:0:0:
389,310,57464,1,2,0:0:0:0:
371,32,57633,5,8,0:0:0:0:
512,269,57801,1,2,0:0:0:0:
220,226,57970,5,2,0:0:0:0:
377,148,58139,1,2,0:0:0:0:
183,188,58308,1,8,0:0:0:0:
395,302,58477,1,2,0:0:0:0:
186,363,58646,2,0,P|133:354|99:343,1,85,2|0,0:0|0:0,0:0:0:0:
293,314,58984,5,8,0:0:0:0:
94,244,59152,2,0,P|48:243|3:257,1,84.1499997431946,2|0,0:0|0:0,0:0:0:0:
27,281,59490,5,8,0:0:0:0:
70,316,59575,1,8,0:0:0:0:
124,313,59659,1,8,0:0:0:0:
162,275,59743,1,2,0:0:0:0:
165,221,59828,2,0,L|154:172,1,42.5,0|2,0:0|0:0,0:0:0:0:
29,69,59997,5,8,3:2:0:0:
9,84,60081,1,8,3:2:0:0:
0,108,60166,2,0,L|61:93,1,42.5,8|2,3:2|3:2,3:2:0:0:
205,29,60334,5,8,0:0:0:0:
253,55,60419,1,8,0:0:0:0:
280,102,60503,1,8,0:0:0:0:
271,156,60588,1,8,0:0:0:0:
237,199,60672,2,0,P|225:276|274:333,1,127.5,6|0,0:0|0:0,0:0:0:0:
398,271,61010,6,0,B|417:254|417:254|361:232|301:254,1,127.5,8|0,0:0|0:0,0:0:0:0:
316,248,61348,1,2,0:0:0:0:
413,369,61517,1,2,0:0:0:0:
506,222,61685,1,8,0:0:0:0:
311,359,61854,6,0,P|260:368|201:371,1,85,2|0,0:0|0:0,0:0:0:0:
188,167,62192,1,2,0:0:0:0:
188,167,62361,2,0,P|225:209|240:251,1,85,10|0,0:0|0:0,0:0:0:0:
50,384,62699,6,0,P|46:305|75:240,1,127.5,2|0,0:0|0:0,0:0:0:0:
78,254,63036,2,0,P|103:182|83:104,1,127.5,8|0,0:0|0:0,0:0:0:0:
23,90,63374,6,0,P|59:118|102:133,1,85,2|0,0:0|0:0,0:0:0:0:
264,103,63712,1,8,0:0:0:0:
116,29,63881,1,2,0:0:0:0:
359,20,64050,2,0,P|390:71|398:113,1,85,2|0,0:0|0:0,0:0:0:0:
267,212,64387,5,8,0:0:0:0:
267,212,64556,2,0,P|277:139|287:117,1,85,2|0,0:0|0:0,0:0:0:0:
392,293,64894,5,2,0:0:0:0:
392,293,65063,2,0,P|385:230|373:193,1,85,10|0,0:0|0:0,0:0:0:0:
253,350,65401,6,0,P|316:381|354:387,1,85,2|0,0:0|0:0,0:0:0:0:
487,326,65738,1,8,0:0:0:0:
487,326,65907,1,2,0:0:0:0:
297,125,66076,5,12,0:0:0:0:
353,275,66245,1,2,0:0:0:0:
427,96,66414,5,8,0:0:0:0:
353,275,66583,1,2,0:0:0:0:
350,27,66752,5,8,0:0:0:0:
267,256,66920,1,2,0:0:0:0:
350,27,67089,5,8,0:0:0:0:
434,285,67258,1,2,0:0:0:0:
253,121,67427,5,8,0:0:0:0:
253,121,67596,2,0,P|205:121|141:128,1,85,2|8,0:0|0:0,0:0:0:0:
132,311,67934,6,0,P|156:269|181:210,1,85,2|8,0:0|0:0,0:0:0:0:
27,111,68271,1,2,0:0:0:0:
27,111,68440,2,0,P|51:152|89:204,1,85,8|2,0:0|0:0,0:0:0:0:
235,152,68778,5,8,0:0:0:0:
14,246,68947,1,2,0:0:0:0:
283,289,69116,5,8,0:0:0:0:
14,246,69285,1,2,0:0:0:0:
332,205,69454,5,8,0:0:0:0:
2,147,69622,1,2,0:0:0:0:
332,205,69791,5,8,0:0:0:0:
21,343,69960,1,2,0:0:0:0:
402,323,70129,5,8,0:0:0:0:
402,323,70298,2,0,P|431:265|439:228,1,85,2|8,0:0|0:0,0:0:0:0:
308,123,70636,5,2,0:0:0:0:
308,123,70805,2,0,P|323:186|340:219,1,85,8|2,0:0|0:0,0:0:0:0:
415,0,71142,5,8,0:0:0:0:
415,0,71311,1,2,0:0:0:0:
208,259,71480,5,8,0:0:0:0:
263,90,71649,1,2,0:0:0:0:
317,297,71818,5,8,0:0:0:0:
259,72,71987,1,2,0:0:0:0:
220,346,72155,5,8,0:0:0:0:
342,54,72324,1,2,0:0:0:0:
222,363,72493,5,8,0:0:0:0:
172,12,72662,1,2,0:0:0:0:
9,375,72831,5,12,0:3:0:0:
256,192,72915,12,0,74097,0:0:0:0:
230,102,74182,5,6,0:0:0:0:
287,212,74351,2,0,P|282:286|276:327,1,85,2|0,0:0|0:0,0:0:0:0:
238,81,74689,5,2,0:0:0:0:
163,272,74857,2,0,P|168:336|174:371,1,85,10|0,0:0|0:0,0:0:0:0:
86,138,75195,5,2,0:0:0:0:
329,81,75364,2,0,P|380:85|426:97,1,85,2|0,0:0|0:0,0:0:0:0:
75,30,75702,5,2,0:0:0:0:
306,133,75871,2,0,P|371:117|413:102,1,85,2|0,0:0|0:0,0:0:0:0:
186,51,76208,5,8,0:0:0:0:
186,51,76377,2,0,P|162:100|159:150,1,84.9150020731202,2|0,0:0|0:0,0:0:0:0:
182,163,76715,1,8,0:0:0:0:
201,214,76799,1,8,0:0:0:0:
180,265,76884,5,6,0:0:0:0:
272,102,77053,2,0,P|279:43|276:0,1,85,2|0,0:0|0:0,0:0:0:0:
260,306,77390,5,2,0:0:0:0:
177,145,77559,2,0,P|185:74|197:41,1,85,10|0,0:0|0:0,0:0:0:0:
431,118,77897,5,8,0:0:0:0:
87,298,78066,1,8,0:0:0:0:
256,192,78150,12,0,79079,0:0:0:0:
