osu file format v14

[General]
AudioFilename: audio.mp3
AudioLeadIn: 0
PreviewTime: 38672
Countdown: 0
SampleSet: Soft
StackLeniency: 0.7
Mode: 0
LetterboxInBreaks: 0
WidescreenStoryboard: 1

[Editor]
DistanceSpacing: 1
BeatDivisor: 4
GridSize: 8
TimelineZoom: 1

[Metadata]
Title:What's New Scooby-Doo? (TV Size)
TitleUnicode:What's New Scooby-Doo? (TV Size)
Artist:Simple Plan
ArtistUnicode:Simple Plan
Creator:Log Off Now
Version:Normal
Source:What's New Scooby-Doo?
Tags:english rock pop punk cartoon wb animation series intro opening whats new scooby doo warner bros. brothers shaggy
BeatmapID:3976460
BeatmapSetID:1925508

[Difficulty]
HPDrainRate:4
CircleSize:3.3
OverallDifficulty:4
ApproachRate:5.3
SliderMultiplier:1
SliderTickRate:1

[Events]
//Background and Video events
0,0,"LAND_16_9-SERIES.jpg",0,0
//Break Periods
//Storyboard Layer 0 (Background)
//Storyboard Layer 1 (Fail)
//Storyboard Layer 2 (Pass)
//Storyboard Layer 3 (Foreground)
//Storyboard Layer 4 (Overlay)
//Storyboard Sound Samples

[TimingPoints]
33,379.746835443038,4,2,1,80,1,0
51678,-90.9090909090909,4,2,1,88,0,1
63165,-90.9090909090909,4,2,1,88,0,0
64210,-90.9090909090909,4,2,1,10,0,0

[Colours]
Combo1 : 249,176,6
Combo2 : 166,213,115
Combo3 : 159,145,113
Combo4 : 173,72,234

[HitObjects]
96,129,33,6,0,L|164:149,1,50,6|0,3:2|3:0,0:0:0:0:
180,176,412,2,0,L|280:146,1,100,8|0,0:0|3:0,0:0:0:0:
305,106,982,1,0,3:0:0:0:
305,106,1172,1,8,0:0:0:0:
382,169,1551,6,0,L|362:237,1,50,2|0,3:2|3:0,0:0:0:0:
330,250,1931,2,0,L|350:318,1,50,8|2,0:0|3:2,0:0:0:0:
374,337,2311,2,0,L|354:405,2,50,10|10|10,0:0|0:0|0:0,0:0:0:0:
458,282,3070,6,0,L|488:177,1,100,6|8,3:2|0:0,0:0:0:0:
473,142,3640,1,2,3:2:0:0:
473,142,3830,2,0,P|437:110|416:108,1,50,2|2,3:2|3:2,0:0:0:0:
387,97,4210,1,10,0:0:0:0:
306,155,4589,2,0,L|318:212,1,50,2|0,3:2|3:0,0:0:0:0:
282,241,4969,6,0,P|245:264|174:257,1,100,8|2,0:0|3:2,0:0:0:0:
148,235,5539,1,2,3:2:0:0:
68,174,5919,2,0,B|93:131|93:131|78:77,1,100,2|0,0:0|3:0,0:0:0:0:
61,35,6488,1,10,0:0:0:0:
155,1,6868,1,2,3:2:0:0:
155,1,7058,2,0,P|185:35|250:34,1,100,2|2,3:2|0:0,0:0:0:0:
281,17,7627,6,0,P|321:20|346:34,1,50,0|0,3:0|3:0,0:0:0:0:
366,58,8007,1,8,0:0:0:0:
303,136,8387,1,2,3:2:0:0:
311,166,8577,1,10,0:0:0:0:
319,196,8767,2,0,L|333:245,1,50,14|2,0:0|0:0,0:0:0:0:
355,288,9146,2,0,P|395:311|454:288,1,100,2|8,3:2|0:0,0:0:0:0:
496,211,9906,6,0,L|482:157,1,50,2|2,3:2|3:2,0:0:0:0:
444,130,10286,2,0,L|458:76,1,50,10|2,0:0|0:0,0:0:0:0:
471,33,10665,2,0,P|436:5|380:9,1,100,2|8,3:2|0:0,0:0:0:0:
320,86,11425,1,2,3:2:0:0:
320,86,11615,2,0,L|338:151,2,50,2|10|2,3:2|0:0|0:2,0:0:0:0:
277,59,12184,5,0,3:0:0:0:
194,115,12564,2,0,P|141:100|88:88,2,100,10|0|8,0:0|3:0|0:0,0:0:0:0:
251,197,13703,1,0,3:0:0:0:
178,266,14083,6,0,L|192:320,1,50,8|0,0:0|3:0,0:0:0:0:
229,345,14463,2,0,L|278:359,1,50,10|10,0:0|0:0,0:0:0:0:
326,365,14843,2,0,L|371:342,1,50,10|10,0:0|0:0,0:0:0:0:
401,303,15222,6,0,P|401:269|345:218,1,100,6|8,3:2|0:0,0:0:0:0:
269,266,15982,2,0,L|220:252,1,50,2|2,3:2|3:2,0:0:0:0:
188,213,16362,2,0,L|139:227,1,50,10|2,0:0|0:0,0:0:0:0:
91,239,16741,2,0,P|52:208|54:156,1,100,2|8,3:2|0:0,0:0:0:0:
104,75,17501,1,2,3:2:0:0:
104,75,17691,1,2,3:2:0:0:
178,141,18070,6,0,L|292:106,1,100,2|0,0:0|3:0,0:0:0:0:
305,73,18640,1,10,0:0:0:0:
382,136,19020,1,2,3:2:0:0:
382,136,19210,2,0,P|405:172|389:226,1,100,2|2,3:2|0:0,0:0:0:0:
356,260,19779,6,0,L|371:319,1,50,0|0,3:0|3:0,0:0:0:0:
385,355,20159,1,8,0:0:0:0:
288,379,20539,1,10,0:0:0:0:
258,371,20729,1,8,0:3:0:0:
228,363,20919,2,0,L|179:349,1,50,10|10,0:0|0:0,0:0:0:0:
131,339,21298,2,0,P|108:299|131:240,1,100,6|8,3:2|0:0,0:0:0:0:
210,202,22058,6,0,L|196:148,1,50,2|2,3:2|3:2,0:0:0:0:
158,121,22438,2,0,L|172:67,1,50,10|2,0:0|0:0,0:0:0:0:
185,24,22817,2,0,P|150:-4|94:0,1,100,2|8,3:2|0:0,0:0:0:0:
20,63,23577,2,0,L|34:117,1,50,2|2,3:2|3:2,0:0:0:0:
72,144,23957,2,0,L|58:198,1,50,10|2,0:0|3:2,0:0:0:0:
26,230,24336,5,8,0:0:0:0:
92,304,24716,1,10,0:0:0:0:
175,249,25096,2,0,L|232:266,1,50,8|0,0:0|3:0,0:0:0:0:
254,302,25476,2,0,L|311:285,1,50,8|0,0:0|3:0,0:0:0:0:
332,248,25855,1,8,0:0:0:0:
415,302,26235,6,0,L|432:245,1,50,4|8,0:3|0:0,0:0:0:0:
470,225,26615,1,8,0:0:0:0:
462,195,26805,1,8,0:3:0:0:
454,165,26995,2,0,L|440:116,1,50,4|2,0:3|3:2,0:0:0:0:
429,68,27374,6,0,P|384:41|331:54,1,100,14|8,3:2|0:2,0:0:0:0:
268,119,28134,1,10,0:0:0:0:
268,119,28324,1,2,3:2:0:0:
317,202,28703,2,0,L|288:301,1,100,2|0,3:2|0:0,0:0:0:0:
275,346,29273,1,8,0:0:0:0:
188,295,29653,1,10,0:0:0:0:
188,295,29843,1,2,3:2:0:0:
102,347,30222,6,0,P|58:333|62:229,1,150,2|8,3:2|0:0,0:0:0:0:
118,169,31172,1,10,0:0:0:0:
118,169,31362,1,2,3:2:0:0:
57,89,31741,1,6,3:2:0:0:
195,31,32311,6,0,B|237:58|237:58|302:40,1,100,4|8,3:2|0:0,0:0:0:0:
333,30,32881,1,0,3:0:0:0:
333,30,33070,2,0,L|383:44,1,50,8|0,0:0|3:0,0:0:0:0:
429,56,33450,6,0,P|450:99|422:151,1,100,14|8,0:0|0:0,0:0:0:0:
354,208,34210,1,10,0:0:0:0:
354,208,34400,1,2,3:2:0:0:
380,304,34779,2,0,P|345:344|290:349,1,100,2|0,3:2|0:0,0:0:0:0:
257,325,35349,1,8,0:0:0:0:
204,246,35729,1,10,0:0:0:0:
204,246,35919,1,0,3:2:0:0:
264,166,36298,6,0,P|275:95|213:41,1,150,2|10,3:2|0:0,0:0:0:0:
143,104,37248,1,10,0:0:0:0:
143,104,37438,1,2,3:2:0:0:
45,84,37817,6,0,P|8:113|58:248,1,200,6|8,3:2|0:0,0:0:0:0:
131,198,38957,1,8,0:3:0:0:
131,198,39146,1,4,0:3:0:0:
196,273,39526,6,0,L|180:324,1,50,2|2,3:2|3:2,0:0:0:0:
210,361,39906,2,0,L|309:329,1,100,8|0,0:0|0:0,0:0:0:0:
331,288,40476,1,0,3:2:0:0:
331,288,40665,1,8,0:0:0:0:
410,348,41045,6,0,L|424:300,1,50,2|2,3:2|3:2,0:0:0:0:
461,266,41425,2,0,L|447:218,1,50,8|8,0:0|0:3,0:0:0:0:
431,170,41805,1,4,0:3:0:0:
431,170,41995,1,4,0:3:0:0:
347,224,42374,6,0,L|248:192,1,100,2|2,0:3|3:2,0:0:0:0:
204,175,42944,1,8,0:0:0:0:
128,240,43324,1,2,0:0:0:0:
128,240,43514,1,0,3:0:0:0:
50,177,43893,6,0,L|18:78,1,100,2|2,0:0|3:2,0:0:0:0:
2,34,44463,1,8,0:0:0:0:
99,10,44843,2,0,L|118:69,1,50,2|2,3:2|3:2,0:0:0:0:
153,89,45222,2,0,L|133:148,1,50,8|2,0:0|0:3,0:0:0:0:
121,184,45602,6,0,P|157:224|207:218,1,100,2|8,3:2|0:0,0:0:0:0:
279,160,46362,2,0,L|263:112,1,50,2|0,0:0|3:0,0:0:0:0:
252,63,46741,2,0,P|276:41|305:36,1,50,10|0,0:0|0:0,0:0:0:0:
339,53,47121,6,0,P|376:74|439:81,1,100,2|8,3:2|0:0,0:0:0:0:
508,147,47881,2,0,L|489:211,1,50,4|4,0:3|0:3,0:0:0:0:
456,228,48260,2,0,L|475:292,1,50,8|0,0:0|3:0,0:0:0:0:
485,323,48640,5,12,0:0:0:0:
402,379,49020,1,12,0:0:0:0:
309,340,49400,2,0,L|328:276,1,50,12|0,0:0|3:0,0:0:0:0:
361,259,49779,2,0,L|342:195,1,50,12|0,0:0|3:0,0:0:0:0:
313,173,50159,2,0,L|332:109,2,50,12|8|8,0:0|0:0|0:0,0:0:0:0:
227,226,50919,5,6,3:2:0:0:
235,256,51109,1,8,0:0:0:0:
243,286,51299,2,0,L|257:335,1,50,8|8,0:0|0:3,0:0:0:0:
218,374,51678,2,0,L|94:343,1,110.000003356934,6|8,3:2|0:0,0:0:0:0:
92,238,52438,6,0,L|159:254,1,55.0000016784668,2|2,3:2|3:2,0:0:0:0:
190,283,52817,2,0,L|257:266,1,55.0000016784668,10|2,0:0|0:0,0:0:0:0:
295,252,53197,2,0,P|315:206|282:140,1,110.000003356934,2|8,3:2|0:0,0:0:0:0:
215,75,53957,1,2,3:2:0:0:
215,75,54146,1,2,3:2:0:0:
308,17,54526,6,0,B|350:27|350:27|369:46|369:46|416:55,1,110.000003356934,2|0,0:0|3:0,0:0:0:0:
462,63,55096,1,10,0:0:0:0:
394,150,55476,1,2,3:2:0:0:
394,150,55665,2,0,L|409:211,1,55.0000016784668,2|8,3:2|0:0,0:0:0:0:
421,256,56045,2,0,P|386:311|336:312,1,110.000003356934,2|0,3:2|0:0,0:0:0:0:
301,282,56615,1,8,0:0:0:0:
235,193,56995,6,0,L|169:213,1,55.0000016784668,2|10,3:2|0:0,0:0:0:0:
145,249,57374,1,10,0:0:0:0:
115,241,57564,1,2,3:2:0:0:
85,233,57754,2,0,P|31:270|26:331,1,110.000003356934,2|8,3:2|0:0,0:0:0:0:
113,372,58514,6,0,L|165:356,1,55.0000016784668,2|2,3:2|3:2,0:0:0:0:
207,320,58893,2,0,L|259:335,1,55.0000016784668,10|2,0:0|3:2,0:0:0:0:
312,350,59273,2,0,P|349:320|341:242,1,110.000003356934,2|8,3:2|0:0,0:0:0:0:
273,184,60033,2,0,L|257:131,1,55.0000016784668,2|2,3:2|3:2,0:0:0:0:
237,79,60412,1,10,0:0:0:0:
237,79,60602,2,0,P|264:41|343:41,1,110.000003356934,2|0,0:0|3:0,0:0:0:0:
370,61,61172,1,14,0:0:0:0:
320,158,61551,6,0,L|339:218,1,55.0000016784668,12|0,0:0|3:0,0:0:0:0:
380,244,61931,2,0,L|361:304,1,55.0000016784668,12|0,0:0|3:0,0:0:0:0:
318,328,62311,6,0,L|224:358,2,82.5000025177003,8|8|4,0:0|0:3|0:3,0:0:0:0:
383,378,63165,1,0,3:0:0:0:
