osu file format v14

[General]
AudioFilename: audio.mp3
AudioLeadIn: 0
PreviewTime: 38672
Countdown: 0
SampleSet: Soft
StackLeniency: 0.7
Mode: 0
LetterboxInBreaks: 0
WidescreenStoryboard: 1

[Editor]
DistanceSpacing: 1.4
BeatDivisor: 4
GridSize: 8
TimelineZoom: 1

[Metadata]
Title:What's New Scooby-Doo? (TV Size)
TitleUnicode:What's New Scooby-Doo? (TV Size)
Artist:Simple Plan
ArtistUnicode:Simple Plan
Creator:Log Off Now
Version:Hard
Source:What's New Scooby-Doo?
Tags:english rock pop punk cartoon wb animation series intro opening whats new scooby doo warner bros. brothers shaggy
BeatmapID:3976747
BeatmapSetID:1925508

[Difficulty]
HPDrainRate:4.5
CircleSize:3.6
OverallDifficulty:6
ApproachRate:7
SliderMultiplier:1.2
SliderTickRate:1

[Events]
//Background and Video events
0,0,"LAND_16_9-SERIES.jpg",0,0
//Break Periods
//Storyboard Layer 0 (Background)
//Storyboard Layer 1 (Fail)
//Storyboard Layer 2 (Pass)
//Storyboard Layer 3 (Foreground)
//Storyboard Layer 4 (Overlay)
//Storyboard Sound Samples

[TimingPoints]
33,379.746835443038,4,2,1,80,1,0
51678,-86.9565217391304,4,2,1,88,0,1
63165,-86.9565217391304,4,2,1,88,0,0
64210,-86.9565217391304,4,2,1,10,0,0

[Colours]
Combo1 : 249,176,6
Combo2 : 166,213,115
Combo3 : 159,145,113
Combo4 : 173,72,234

[HitObjects]
148,208,33,6,0,L|218:226,1,60,6|0,3:2|3:0,0:0:0:0:
270,276,412,2,0,L|362:252,1,90,8|8,0:0|0:0,0:0:0:0:
378,216,792,1,0,3:0:0:0:
440,272,982,1,0,3:0:0:0:
500,213,1172,1,8,0:0:0:0:
409,71,1551,6,0,L|427:141,1,60,2|0,3:2|3:0,0:0:0:0:
355,178,1931,2,0,L|340:119,1,60,8|2,0:0|3:2,0:0:0:0:
262,86,2311,2,0,L|251:43,3,30,10|8|10|8,0:0|0:0|0:0|0:0,0:0:0:0:
233,133,2691,2,0,L|240:162,3,30,10|8|10|8,0:0|0:0|0:0|0:0,0:0:0:0:
151,101,3070,6,0,B|95:76|95:76|26:111,1,120,6|8,3:2|0:0,0:0:0:0:
7,179,3640,1,2,3:2:0:0:
7,179,3735,1,8,0:0:0:0:
7,179,3830,2,0,P|18:223|24:250,1,60,2|2,3:2|3:2,0:0:0:0:
75,301,4210,2,0,P|111:314|146:333,1,60,10|2,0:0|0:0,0:0:0:0:
205,285,4589,6,0,P|233:255|197:179,1,120,2|8,3:2|0:0,0:0:0:0:
146,132,5159,1,2,3:2:0:0:
200,67,5349,1,2,3:2:0:0:
265,119,5539,2,0,P|310:107|335:102,1,60,2|8,3:2|0:0,0:0:0:0:
396,62,5919,6,0,P|375:119|350:192,1,120,2|0,0:0|3:0,0:0:0:0:
291,228,6488,2,0,P|306:277|310:295,1,60,10|0,0:0|0:0,0:0:0:0:
322,325,6773,1,8,0:0:0:0:
322,325,6868,1,2,3:2:0:0:
395,284,7058,2,0,P|447:301|468:308,1,60,2|8,3:2|0:0,0:0:0:0:
494,229,7438,6,0,P|434:209|374:189,1,120,2|0,0:0|3:0,0:0:0:0:
320,251,8007,2,0,P|291:260|262:269,1,60,8|2,0:0|3:2,0:0:0:0:
200,212,8387,1,2,3:2:0:0:
247,142,8577,1,10,0:0:0:0:
180,90,8767,2,0,P|151:99|122:108,1,60,14|2,0:0|0:0,0:0:0:0:
64,169,9146,6,0,P|82:118|25:53,1,120,2|8,3:2|0:0,0:0:0:0:
114,7,9716,1,2,3:2:0:0:
181,57,9906,2,0,P|205:70|238:75,1,60,2|2,3:2|3:2,0:0:0:0:
309,31,10286,2,0,P|333:18|366:12,1,60,10|2,0:0|0:0,0:0:0:0:
437,54,10665,6,0,P|425:88|397:177,1,120,2|8,3:2|0:0,0:0:0:0:
335,222,11235,1,2,3:2:0:0:
335,222,11425,2,0,P|345:264|350:292,1,60,2|2,3:2|3:2,0:0:0:0:
419,326,11805,1,10,0:0:0:0:
350,374,11995,2,0,P|297:359|221:341,1,120,2|0,0:2|3:0,0:0:0:0:
191,271,12564,1,10,0:0:0:0:
134,333,12754,5,0,3:0:0:0:
134,333,12849,1,4,0:3:0:0:
134,333,12944,2,0,P|107:325|69:316,1,60,0|0,3:0|3:0,0:0:0:0:
22,252,13324,2,0,P|16:212|50:167,1,90,8|4,0:0|0:3,0:0:0:0:
82,162,13703,2,0,P|111:169|139:177,1,60,0|0,3:0|3:0,0:0:0:0:
197,252,14083,1,8,0:0:0:0:
197,252,14178,1,0,3:0:0:0:
197,252,14273,1,0,3:0:0:0:
258,195,14463,6,0,L|248:153,3,30,10|8|10|8,0:0|0:0|0:0|0:0,0:0:0:0:
306,228,14843,2,0,L|312:257,3,30,10|8|10|8,0:0|0:0|0:0|0:0,0:0:0:0:
366,164,15222,6,0,L|352:105,1,60,6|0,3:2|3:0,0:0:0:0:
334,22,15602,2,0,P|293:6|235:25,1,90,8|8,0:0|0:0,0:0:0:0:
232,55,15982,1,2,3:2:0:0:
158,13,16172,1,2,3:2:0:0:
126,93,16362,1,10,0:0:0:0:
126,93,16552,1,2,0:0:0:0:
52,52,16741,6,0,L|90:182,1,120,2|8,3:2|0:0,0:0:0:0:
162,202,17311,1,2,3:2:0:0:
130,282,17501,1,2,3:2:0:0:
130,282,17691,2,0,L|149:347,1,60,2|8,3:2|0:0,0:0:0:0:
224,372,18070,6,0,P|256:355|278:275,1,120,2|0,0:0|3:0,0:0:0:0:
230,210,18640,2,0,P|272:193|294:196,1,60,10|0,0:0|3:0,0:0:0:0:
364,235,19020,1,2,3:2:0:0:
364,235,19210,2,0,P|406:252|428:249,1,60,2|8,3:2|0:0,0:0:0:0:
487,201,19589,6,0,B|505:169|505:169|475:82,1,120,2|0,0:0|3:0,0:0:0:0:
412,36,20159,1,8,0:0:0:0:
371,109,20349,1,2,3:2:0:0:
300,62,20539,2,0,L|286:19,2,30,10|8|8,0:0|0:0|0:3,0:0:0:0:
266,139,20919,5,10,0:0:0:0:
249,163,21013,1,8,0:0:0:0:
224,178,21108,1,10,0:0:0:0:
194,180,21203,1,8,0:0:0:0:
167,168,21298,2,0,P|126:142|44:153,1,120,6|8,3:2|0:0,0:0:0:0:
10,216,21868,5,2,3:2:0:0:
55,286,22058,2,0,P|101:275|123:272,1,60,2|2,3:2|3:2,0:0:0:0:
177,218,22438,2,0,P|223:229|245:232,1,60,10|2,0:0|0:0,0:0:0:0:
285,298,22817,6,0,P|323:273|402:291,1,120,2|8,3:2|0:0,0:0:0:0:
461,333,23387,1,2,3:2:0:0:
506,262,23577,2,0,P|491:212|487:194,1,60,2|2,3:2|3:2,0:0:0:0:
420,154,23957,1,10,0:0:0:0:
420,154,24146,1,2,3:2:0:0:
483,98,24336,6,0,P|498:48|502:30,1,60,8|0,0:0|3:0,0:0:0:0:
425,0,24716,2,0,P|392:2|360:25,1,60,10|0,0:0|3:0,0:0:0:0:
317,81,25096,1,8,0:0:0:0:
317,81,25286,1,0,3:0:0:0:
245,36,25476,1,8,0:0:0:0:
191,95,25665,1,0,3:0:0:0:
121,48,25855,5,8,0:0:0:0:
121,48,25950,1,8,0:0:0:0:
121,48,26045,1,8,0:3:0:0:
61,107,26235,2,0,L|19:92,2,30,4|4|8,0:3|0:3|0:0,0:0:0:0:
121,166,26615,5,8,0:0:0:0:
132,193,26709,1,8,0:0:0:0:
130,223,26804,1,8,0:3:0:0:
115,248,26899,1,8,0:3:0:0:
90,265,26995,2,0,L|20:244,1,60,4|2,0:3|3:2,0:0:0:0:
27,331,27374,6,0,L|147:367,1,120,14|8,3:2|0:2,0:0:0:0:
204,309,27944,1,0,0:0:0:0:
263,368,28134,1,10,0:0:0:0:
263,368,28324,2,0,L|335:346,1,60,2|8,3:2|0:0,0:0:0:0:
396,314,28703,6,0,P|422:274|383:201,1,120,2|0,3:2|0:0,0:0:0:0:
326,166,29273,2,0,P|295:136|290:113,1,60,8|0,0:0|0:0,0:0:0:0:
319,43,29653,1,10,0:0:0:0:
319,43,29843,2,0,P|352:24|380:26,1,60,2|8,3:2|0:0,0:0:0:0:
438,76,30222,1,2,3:2:0:0:
510,33,30412,6,0,L|474:171,1,120,14|8,0:0|0:0,0:0:0:0:
417,205,30982,1,0,0:0:0:0:
351,152,31172,1,10,0:0:0:0:
351,152,31362,2,0,P|301:166|279:173,1,60,2|8,3:2|0:0,0:0:0:0:
246,238,31741,1,6,3:2:0:0:
48,81,32311,6,0,P|76:44|153:46,1,120,4|8,3:2|0:0,0:0:0:0:
201,104,32881,1,0,3:0:0:0:
145,166,33070,1,8,0:0:0:0:
145,166,33165,1,8,0:0:0:0:
145,166,33260,1,0,3:0:0:0:
204,225,33450,6,0,P|255:211|269:207,1,60,14|0,0:0|0:0,0:0:0:0:
318,146,33830,2,0,P|369:160|383:164,1,60,8|0,0:0|0:0,0:0:0:0:
461,186,34210,1,10,0:0:0:0:
461,186,34400,2,0,P|479:231|466:266,1,60,2|8,3:2|0:0,0:0:0:0:
425,306,34779,6,0,B|384:324|364:341|364:341|335:324|323:300,1,120,2|0,3:2|0:0,0:0:0:0:
284,235,35349,2,0,P|298:187|304:165,1,60,8|0,0:0|0:0,0:0:0:0:
251,108,35729,1,10,0:0:0:0:
251,108,35919,1,0,3:2:0:0:
186,161,36108,1,8,0:0:0:0:
134,94,36298,6,0,P|103:69|20:82,1,120,2|0,3:2|0:0,0:0:0:0:
2,157,36868,2,0,P|12:196|24:228,1,60,10|0,0:0|0:0,0:0:0:0:
58,289,37248,1,10,0:0:0:0:
137,260,37438,2,0,P|189:279|208:290,1,60,0|8,3:2|0:0,0:0:0:0:
251,341,37817,2,0,P|225:302|326:238,1,180,6|0,3:2|0:0,0:0:0:0:
373,294,38577,5,8,0:0:0:0:
373,294,38672,1,8,0:0:0:0:
373,294,38767,2,0,L|437:279,1,60,8|8,0:3|0:3,0:0:0:0:
444,197,39146,2,0,L|385:210,1,60,4|4,0:3|0:3,0:0:0:0:
323,153,39526,5,2,3:2:0:0:
323,153,39716,1,2,3:2:0:0:
256,203,39906,2,0,P|274:252|296:325,1,120,8|0,0:0|0:0,0:0:0:0:
231,373,40476,1,0,3:2:0:0:
231,373,40665,2,0,P|175:355|156:353,1,60,8|0,0:0|0:0,0:0:0:0:
121,288,41045,5,2,3:2:0:0:
121,288,41235,1,2,3:2:0:0:
49,331,41425,2,0,P|36:292|40:260,1,60,8|8,0:0|0:3,0:0:0:0:
86,206,41805,1,4,0:3:0:0:
86,206,41995,2,0,P|100:179|104:150,1,60,4|8,0:3|0:0,0:0:0:0:
39,96,42374,6,0,P|73:70|162:92,1,120,2|2,0:3|3:2,0:0:0:0:
191,149,42944,1,8,0:0:0:0:
308,28,43324,1,2,0:0:0:0:
308,28,43514,2,0,L|385:47,1,60,2|8,3:2|0:0,0:0:0:0:
374,125,43893,6,0,L|246:93,1,120,2|2,0:0|3:2,0:0:0:0:
206,28,44463,2,0,L|129:47,1,60,8|8,0:0|0:3,0:0:0:0:
93,107,44843,1,2,3:2:0:0:
93,107,45033,1,2,3:2:0:0:
152,166,45222,2,0,P|139:212|129:241,1,60,8|2,0:0|0:3,0:0:0:0:
67,274,45602,5,2,3:2:0:0:
67,274,45792,1,2,3:2:0:0:
121,338,45982,2,0,P|178:321|247:301,1,120,8|0,0:0|0:0,0:0:0:0:
288,237,46551,1,0,3:0:0:0:
288,237,46741,2,0,P|316:245|345:253,1,60,8|0,0:0|0:0,0:0:0:0:
396,327,47121,5,2,3:2:0:0:
396,327,47311,1,2,3:2:0:0:
454,266,47501,2,0,P|470:232|468:203,1,60,8|8,0:0|0:3,0:0:0:0:
425,138,47881,2,0,P|403:107|377:94,1,60,4|4,0:3|0:3,0:0:0:0:
315,145,48260,1,8,0:0:0:0:
358,217,48450,1,0,3:0:0:0:
306,283,48640,6,0,L|238:264,1,60,12|0,0:0|3:0,0:0:0:0:
197,199,49020,2,0,L|129:218,1,60,12|0,0:0|3:0,0:0:0:0:
71,264,49400,1,12,0:0:0:0:
71,264,49589,1,0,3:0:0:0:
14,201,49779,1,12,0:0:0:0:
61,131,49969,1,0,3:0:0:0:
4,68,50159,1,12,0:0:0:0:
69,15,50349,6,0,L|108:24,4,30,8|8|8|8|8,0:0|0:0|0:0|0:0|0:0,0:0:0:0:
136,94,50919,1,6,3:2:0:0:
208,48,51108,1,8,0:0:0:0:
208,48,51203,1,8,0:0:0:0:
208,48,51298,2,0,L|247:57,3,30,8|8|8|4,0:0|0:0|0:3|0:3,0:0:0:0:
271,99,51678,6,0,L|418:64,1,138.000002632141,6|8,3:2|0:0,0:0:0:0:
477,132,52248,1,0,0:0:0:0:
446,223,52438,2,0,P|401:242|370:232,1,69.0000013160706,2|2,3:2|3:2,0:0:0:0:
296,197,52817,2,0,P|266:179|232:181,1,69.0000013160706,10|2,0:0|0:0,0:0:0:0:
170,255,53197,6,0,P|191:197|136:128,1,138.000002632141,2|8,3:2|0:0,0:0:0:0:
91,210,53767,1,0,0:0:0:0:
16,148,53957,1,2,3:2:0:0:
16,148,54146,2,0,P|34:90|39:63,1,69.0000013160706,2|8,3:2|0:0,0:0:0:0:
97,7,54526,6,0,B|183:26|126:57|225:82,1,138.000002632141,2|0,0:0|3:0,0:0:0:0:
292,24,55096,2,0,P|310:68|299:112,1,69.0000013160706,10|0,0:0|0:0,0:0:0:0:
247,164,55476,1,2,3:2:0:0:
247,164,55665,2,0,P|229:208|240:252,1,69.0000013160706,2|8,3:2|0:0,0:0:0:0:
291,304,56045,2,0,P|345:320|428:355,1,138.000002632141,2|0,3:2|0:0,0:0:0:0:
493,287,56615,2,0,P|507:252|488:202,1,69.0000013160706,8|0,0:0|0:0,0:0:0:0:
426,161,56995,5,2,3:2:0:0:
365,235,57184,1,10,0:0:0:0:
287,177,57374,1,10,0:0:0:0:
287,177,57564,1,2,3:2:0:0:
232,256,57754,6,0,P|166:276|102:303,1,138.000002632141,2|8,3:2|0:0,0:0:0:0:
33,234,58324,1,0,0:0:0:0:
33,234,58514,2,0,P|16:184|23:169,1,69.0000013160706,2|2,3:2|3:2,0:0:0:0:
91,105,58893,2,0,P|142:123|163:130,1,69.0000013160706,10|2,0:0|3:2,0:0:0:0:
194,216,59273,6,0,P|248:159|230:78,1,138.000002632141,2|8,3:2|0:0,0:0:0:0:
183,27,59843,1,0,0:0:0:0:
276,0,60033,2,0,P|313:12|344:22,1,69.0000013160706,2|2,3:2|3:2,0:0:0:0:
368,114,60412,2,0,P|405:102|436:92,1,69.0000013160706,10|2,0:0|0:0,0:0:0:0:
499,164,60792,5,12,0:0:0:0:
499,164,60982,1,0,3:0:0:0:
429,231,61172,1,14,0:0:0:0:
429,231,61362,1,0,3:0:0:0:
504,290,61551,6,0,P|489:336|481:366,1,69.0000013160706,12|0,0:0|3:0,0:0:0:0:
388,377,61931,1,12,0:0:0:0:
332,298,62121,1,0,3:0:0:0:
247,345,62311,6,0,B|172:369|172:369|132:335,2,103.500001974106,8|8|4,0:0|0:3|0:3,0:0:0:0:
312,215,63165,1,0,3:0:0:0:
