osu file format v14

[General]
AudioFilename: audio.mp3
AudioLeadIn: 0
PreviewTime: 12925
Countdown: 0
SampleSet: Normal
StackLeniency: 0.7
Mode: 1
LetterboxInBreaks: 0
WidescreenStoryboard: 1

[Editor]
DistanceSpacing: 1
BeatDivisor: 12
GridSize: 32
TimelineZoom: 1.6

[Metadata]
Title:What's New Scooby-Doo? (Sped Up Ver.)
TitleUnicode:What's New Scooby-Doo? (Sped Up Ver.)
Artist:Simple Plan
ArtistUnicode:Simple Plan
Creator:Axer
Version:Yasuho's Futsuu
Source:What's New Scooby-Doo?
Tags:soirT Yasuho Genjuro Hivie pop punk rock english Rich Dickerson Gigi Meroni Warner Bros. Animation Joe Ruby Ken Spears Shaggy Ultra Instinct
BeatmapID:3622322
BeatmapSetID:1767504

[Difficulty]
HPDrainRate:8
CircleSize:2
OverallDifficulty:3
ApproachRate:10
SliderMultiplier:1.4
SliderTickRate:1

[Events]
//Background and Video events
0,0,"shaggy.png",0,0
//Break Periods
//Storyboard Layer 0 (Background)
//Storyboard Layer 1 (Fail)
//Storyboard Layer 2 (Pass)
//Storyboard Layer 3 (Foreground)
//Storyboard Layer 4 (Overlay)
//Storyboard Sound Samples

[TimingPoints]
-2324,333.333333333333,4,1,0,80,1,0
342,-100,4,1,0,80,0,0
1672,-100,4,1,0,80,0,0
1838,-100,4,1,0,80,0,0
2005,-100,4,1,0,80,0,0
2172,-100,4,1,0,80,0,0
2338,-100,4,1,0,80,0,0
2422,-100,4,1,0,80,0,0
2505,-100,4,1,0,80,0,0
2588,-100,4,1,0,80,0,0
2672,-100,4,1,0,80,0,0
2755,-100,4,1,0,80,0,0
2838,-100,4,1,0,80,0,0
2922,-100,4,1,0,80,0,0
3005,-100,4,1,0,80,0,0
3175,-100,4,1,0,80,0,0
11505,-100,4,1,0,80,0,0
11588,-100,4,1,0,80,0,0
11672,-100,4,1,0,80,0,0
11838,-100,4,1,0,80,0,0
12005,-100,4,1,0,80,0,0
12172,-100,4,1,0,80,0,0
12255,-100,4,1,0,80,0,0
12338,-100,4,1,0,80,0,0
12505,-100,4,1,0,80,0,0
12672,-100,4,1,0,80,0,0
12838,-100,4,1,0,80,0,0
13005,-100,4,1,0,80,0,0
13088,-100,4,1,0,80,0,0
13172,-100,4,1,0,80,0,0
13255,-100,4,1,0,80,0,0
13338,-100,4,1,0,80,0,0
13422,-100,4,1,0,80,0,0
13505,-100,4,1,0,80,0,0
13588,-100,4,1,0,80,0,0
13672,-100,4,1,0,80,0,0
13841,-100,4,1,0,80,0,0
18338,-100,4,1,0,80,0,0
18422,-100,4,1,0,80,0,0
18505,-100,4,1,0,80,0,0
18588,-100,4,1,0,80,0,0
18672,-100,4,1,0,80,0,0
18755,-100,4,1,0,80,0,0
18838,-100,4,1,0,80,0,0
18922,-100,4,1,0,80,0,0
19005,-100,4,1,0,80,0,0
19255,-100,4,1,0,80,0,0
21672,-100,4,1,0,80,0,0
21838,-100,4,1,0,80,0,0
22005,-100,4,1,0,80,0,0
22172,-100,4,1,0,80,0,0
22338,-100,4,1,0,80,0,0
22505,-100,4,1,0,80,0,0
22672,-100,4,1,0,80,0,0
22838,-100,4,1,0,80,0,0
23005,-100,4,1,0,80,0,0
23088,-100,4,1,0,80,0,0
23172,-100,4,1,0,80,0,0
23255,-100,4,1,0,80,0,0
23338,-100,4,1,0,80,0,0
23422,-100,4,1,0,80,0,0
23505,-100,4,1,0,80,0,0
23588,-100,4,1,0,80,0,0
23672,-100,4,1,0,80,0,0
23755,-100,4,1,0,80,0,0
23838,-100,4,1,0,80,0,0
23922,-100,4,1,0,80,0,0
24005,-100,4,1,0,80,0,0
24088,-100,4,1,0,80,0,0
24172,-100,4,1,0,80,0,0
24255,-100,4,1,0,80,0,0
24338,-100,4,1,0,80,0,0
28672,-100,4,1,0,80,0,0
28838,-100,4,1,0,80,0,0
29005,-100,4,1,0,80,0,0
29172,-100,4,1,0,80,0,0
29338,-100,4,1,0,80,0,0
29422,-100,4,1,0,80,0,0
29505,-100,4,1,0,80,0,0
29675,-100,4,1,0,80,0,0
34172,-100,4,1,0,80,0,0
34255,-100,4,1,0,80,0,0
34338,-100,4,1,0,80,0,0
34505,-100,4,1,0,80,0,0
34672,-100,4,1,0,80,0,0
34838,-100,4,1,0,80,0,0
35005,-100,4,1,0,80,0,0
35338,-100,4,1,0,80,0,0
43005,-100,4,1,0,80,0,0
43172,-100,4,1,0,81,0,0
43338,-100,4,1,0,82,0,0
43505,-100,4,1,0,82,0,0
43672,-100,4,1,0,83,0,0
43838,-100,4,1,0,84,0,0
44005,-100,4,1,0,85,0,0
44172,-100,4,1,0,86,0,0
44338,-100,4,1,0,87,0,0
44505,-100,4,1,0,88,0,0
44588,-100,4,1,0,88,0,0
44672,-100,4,1,0,89,0,0
44755,-100,4,1,0,90,0,0
44838,-100,4,1,0,91,0,0
44922,-100,4,1,0,92,0,0
45005,-100,4,1,0,92,0,0
45088,-100,4,1,0,93,0,0
45172,-100,4,1,0,94,0,0
45255,-100,4,1,0,95,0,0
45338,-100,4,1,0,96,0,0
45422,-100,4,1,0,97,0,0
45505,-100,4,1,0,98,0,0
45588,-100,4,1,0,98,0,0
45675,-100,4,1,0,99,0,1
45841,-100,4,1,0,100,0,1
53672,-100,4,1,0,100,0,1
53838,-100,4,1,0,100,0,1
54005,-100,4,1,0,100,0,1
54172,-100,4,1,0,100,0,1
54338,-100,4,1,0,100,0,1
54505,-100,4,1,0,100,0,1
54672,-100,4,1,0,100,0,1
54838,-100,4,1,0,100,0,1
54953,-100,4,1,0,80,0,1
55009,363.636363636364,4,1,0,80,1,0
55009,-91.6666666665903,4,1,0,80,0,0

[HitObjects]
256,192,342,5,8,0:0:0:0:
256,192,509,1,0,0:0:0:0:
256,192,675,1,8,0:0:0:0:
256,192,1009,1,0,0:0:0:0:
256,192,1342,1,8,0:0:0:0:
256,192,1675,1,0,0:0:0:0:
256,192,2009,1,8,0:0:0:0:
256,192,2342,1,0,0:0:0:0:
256,192,2509,1,0,0:0:0:0:
256,192,2675,1,8,0:0:0:0:
256,192,3009,1,4,0:0:0:0:
256,192,3675,1,8,0:0:0:0:
256,192,4009,1,0,0:0:0:0:
256,192,4175,1,8,0:0:0:0:
256,192,4342,1,0,0:0:0:0:
256,192,4675,1,8,0:0:0:0:
256,192,5009,1,0,0:0:0:0:
256,192,5175,1,8,0:0:0:0:
256,192,5509,1,8,0:0:0:0:
256,192,5675,1,0,0:0:0:0:
256,192,6009,1,8,0:0:0:0:
256,192,6342,1,8,0:0:0:0:
256,192,6509,1,0,0:0:0:0:
256,192,6842,1,8,0:0:0:0:
256,192,7009,1,0,0:0:0:0:
256,192,7675,1,8,0:0:0:0:
256,192,7842,1,0,0:0:0:0:
256,192,8175,1,0,0:0:0:0:
256,192,8342,1,8,0:0:0:0:
256,192,8842,1,0,0:0:0:0:
256,192,9009,1,8,0:0:0:0:
256,192,9342,1,8,0:0:0:0:
256,192,9509,1,8,0:0:0:0:
256,192,9675,1,0,0:0:0:0:
256,192,10009,1,8,0:0:0:0:
256,192,10342,1,0,0:0:0:0:
256,192,10509,1,0,0:0:0:0:
256,192,10675,1,8,0:0:0:0:
256,192,11009,1,0,0:0:0:0:
256,192,11342,1,8,0:0:0:0:
256,192,12342,1,8,0:0:0:0:
256,192,12675,1,8,0:0:0:0:
256,192,13009,1,8,0:0:0:0:
256,192,13175,1,8,0:0:0:0:
256,192,13342,1,0,0:0:0:0:
256,192,13509,1,0,0:0:0:0:
256,192,13675,1,12,0:0:0:0:
256,192,14009,1,8,0:0:0:0:
256,192,14342,1,0,0:0:0:0:
256,192,14509,1,0,0:0:0:0:
256,192,14675,1,8,0:0:0:0:
256,192,15009,1,0,0:0:0:0:
256,192,15342,1,8,0:0:0:0:
256,192,15675,1,0,0:0:0:0:
256,192,15842,1,8,0:0:0:0:
256,192,16175,1,8,0:0:0:0:
256,192,16342,1,0,0:0:0:0:
256,192,16675,1,8,0:0:0:0:
256,192,17009,1,0,0:0:0:0:
256,192,17175,1,0,0:0:0:0:
256,192,17342,1,8,0:0:0:0:
256,192,17675,1,0,0:0:0:0:
256,192,18009,1,8,0:0:0:0:
256,192,18342,1,8,0:0:0:0:
256,192,18509,1,8,0:0:0:0:
256,192,18675,1,0,0:0:0:0:
256,192,18842,1,0,0:0:0:0:
256,192,19009,1,12,0:0:0:0:
256,192,19509,1,8,0:0:0:0:
256,192,19675,1,0,0:0:0:0:
256,192,20009,1,8,0:0:0:0:
256,192,20175,1,8,0:0:0:0:
256,192,20342,1,0,0:0:0:0:
256,192,20675,1,8,0:0:0:0:
256,192,21009,1,0,0:0:0:0:
256,192,21175,1,0,0:0:0:0:
256,192,21342,1,8,0:0:0:0:
256,192,21509,1,0,0:0:0:0:
256,192,21675,1,12,0:0:0:0:
256,192,22009,1,12,0:0:0:0:
256,192,22342,1,12,0:0:0:0:
256,192,22675,1,12,0:0:0:0:
256,192,23009,1,4,0:0:0:0:
256,192,24342,1,8,0:0:0:0:
256,192,24675,1,8,0:0:0:0:
256,192,25009,1,8,0:0:0:0:
256,192,25175,1,0,0:0:0:0:
256,192,25509,1,0,0:0:0:0:
256,192,25675,1,8,0:0:0:0:
256,192,26009,1,8,0:0:0:0:
256,192,26342,1,8,0:0:0:0:
256,192,26509,1,0,0:0:0:0:
256,192,26842,1,0,0:0:0:0:
256,192,27009,1,8,0:0:0:0:
256,192,27342,1,8,0:0:0:0:
256,192,27675,1,8,0:0:0:0:
256,192,28009,1,8,0:0:0:0:
256,192,28175,1,0,0:0:0:0:
256,192,28675,1,12,0:0:0:0:
256,192,29009,1,8,0:0:0:0:
256,192,29342,1,0,0:0:0:0:
256,192,29509,1,0,0:0:0:0:
256,192,29675,1,8,0:0:0:0:
256,192,30009,1,8,0:0:0:0:
256,192,30342,1,0,0:0:0:0:
256,192,30675,1,0,0:0:0:0:
256,192,30842,1,0,0:0:0:0:
256,192,31009,1,8,0:0:0:0:
256,192,31342,1,8,0:0:0:0:
256,192,31675,1,8,0:0:0:0:
256,192,31842,1,8,0:0:0:0:
256,192,32175,1,0,0:0:0:0:
256,192,32342,1,0,0:0:0:0:
256,192,32675,1,8,0:0:0:0:
256,192,33009,1,0,0:0:0:0:
256,192,33175,1,0,0:0:0:0:
256,192,33509,1,8,0:0:0:0:
256,192,34342,1,0,0:0:0:0:
256,192,34509,1,0,0:0:0:0:
256,192,34675,1,8,0:0:0:0:
256,192,34842,1,8,0:0:0:0:
256,192,35009,1,4,0:0:0:0:
256,192,35509,1,0,0:0:0:0:
256,192,35675,1,8,0:0:0:0:
256,192,36009,1,8,0:0:0:0:
256,192,36342,1,0,0:0:0:0:
256,192,36842,1,0,0:0:0:0:
256,192,37009,1,8,0:0:0:0:
256,192,37175,1,8,0:0:0:0:
256,192,37509,1,0,0:0:0:0:
256,192,37675,1,8,0:0:0:0:
256,192,38009,1,8,0:0:0:0:
256,192,38342,1,8,0:0:0:0:
256,192,38509,1,0,0:0:0:0:
256,192,38842,1,8,0:0:0:0:
256,192,39009,1,0,0:0:0:0:
256,192,39342,1,8,0:0:0:0:
256,192,39675,1,0,0:0:0:0:
256,192,40009,1,0,0:0:0:0:
256,192,40175,1,8,0:0:0:0:
256,192,40342,1,8,0:0:0:0:
256,192,41009,1,8,0:0:0:0:
256,192,41175,1,0,0:0:0:0:
256,192,41342,1,8,0:0:0:0:
256,192,41675,1,0,0:0:0:0:
256,192,42175,1,0,0:0:0:0:
256,192,42342,1,8,0:0:0:0:
256,192,42675,1,8,0:0:0:0:
256,192,43009,1,4,0:0:0:0:
256,192,43342,1,12,0:0:0:0:
256,192,43675,1,4,0:0:0:0:
256,192,44009,1,4,0:0:0:0:
256,192,44342,1,12,0:0:0:0:
256,192,45009,1,8,0:0:0:0:
256,192,45175,1,0,0:0:0:0:
256,192,45509,1,0,0:0:0:0:
256,192,45675,1,8,0:0:0:0:
256,192,46342,1,8,0:0:0:0:
256,192,46509,1,8,0:0:0:0:
256,192,46675,1,0,0:0:0:0:
256,192,46842,1,0,0:0:0:0:
256,192,47009,1,8,0:0:0:0:
256,192,47675,1,8,0:0:0:0:
256,192,47842,1,8,0:0:0:0:
256,192,48175,1,8,0:0:0:0:
256,192,48342,1,0,0:0:0:0:
256,192,48675,1,8,0:0:0:0:
256,192,49009,1,0,0:0:0:0:
256,192,49175,1,0,0:0:0:0:
256,192,49509,1,8,0:0:0:0:
256,192,49675,1,0,0:0:0:0:
256,192,50009,1,8,0:0:0:0:
256,192,50342,1,0,0:0:0:0:
256,192,50509,1,8,0:0:0:0:
256,192,50675,1,0,0:0:0:0:
256,192,50842,1,8,0:0:0:0:
256,192,51009,1,0,0:0:0:0:
256,192,51342,1,8,0:0:0:0:
256,192,51675,1,8,0:0:0:0:
256,192,51842,1,8,0:0:0:0:
256,192,52009,1,0,0:0:0:0:
256,192,52175,1,0,0:0:0:0:
256,192,52342,1,8,0:0:0:0:
256,192,53009,1,8,0:0:0:0:
256,192,53175,1,0,0:0:0:0:
256,192,53342,1,8,0:0:0:0:
256,192,53675,1,8,0:0:0:0:
256,192,54009,1,0,0:0:0:0:
256,192,54342,1,0,0:0:0:0:
256,192,54675,1,0,0:0:0:0:
256,192,55009,1,8,0:0:0:0:
256,192,55251,1,8,0:0:0:0:
256,192,55493,1,0,0:0:0:0:
256,192,55736,1,8,0:0:0:0:
