osu file format v14

[General]
AudioFilename: audio.mp3
AudioLeadIn: 0
PreviewTime: 12925
Countdown: 0
SampleSet: Normal
StackLeniency: 0.7
Mode: 1
LetterboxInBreaks: 0
WidescreenStoryboard: 0

[Editor]
DistanceSpacing: 1
BeatDivisor: 4
GridSize: 32
TimelineZoom: 1.4

[Metadata]
Title:What's New Scooby-Doo? (Sped Up Ver.)
TitleUnicode:What's New Scooby-Doo? (Sped Up Ver.)
Artist:Simple Plan
ArtistUnicode:Simple Plan
Creator:Axer
Version:Ultra Instinct
Source:What's New Scooby-Doo?
Tags:soirT Yasuho Genjuro Hivie pop punk rock english Rich Dickerson Gigi Meroni Warner Bros. Animation Joe Ruby Ken Spears Shaggy Ultra Instinct
BeatmapID:3617963
BeatmapSetID:1767504

[Difficulty]
HPDrainRate:6
CircleSize:2
OverallDifficulty:6
ApproachRate:10
SliderMultiplier:1.4
SliderTickRate:1

[Events]
//Background and Video events
0,0,"shaggy.png",0,0
//Break Periods
//Storyboard Layer 0 (Background)
//Storyboard Layer 1 (Fail)
//Storyboard Layer 2 (Pass)
//Storyboard Layer 3 (Foreground)
//Storyboard Layer 4 (Overlay)
//Storyboard Sound Samples

[TimingPoints]
-2324,333.333333333333,4,1,0,80,1,0
340,-133.333333333333,4,1,0,80,0,0
1670,-126.574594020337,4,1,0,80,0,0
1836,-123.464100666173,4,1,0,80,0,0
2003,-120.485408841375,4,1,0,80,0,0
2170,-117.647058823529,4,1,0,80,0,0
2336,-113.65031721127,4,1,0,80,0,0
2420,-111.729595600563,4,1,0,80,0,0
2503,-109.894459102902,4,1,0,80,0,0
2586,-108.11863196833,4,1,0,80,0,0
2670,-106.378903007471,4,1,0,80,0,0
2753,-104.714016341923,4,1,0,80,0,0
2836,-103.100439383625,4,1,0,80,0,0
2920,-101.517274998477,4,1,0,80,0,0
3003,-100,4,1,0,80,0,0
3173,-111.111111111111,4,1,0,80,0,0
11503,-109.753420648277,4,1,0,80,0,0
11586,-109.090909090909,4,1,0,80,0,0
11670,-108.428509469423,4,1,0,80,0,0
11836,-107.142857142857,4,1,0,80,0,0
12003,-105.879861650314,4,1,0,80,0,0
12170,-104.646295521139,4,1,0,80,0,0
12253,-104.043837136714,4,1,0,80,0,0
12336,-103.448275862069,4,1,0,80,0,0
12503,-102.270402945388,4,1,0,80,0,0
12670,-101.119050829176,4,1,0,80,0,0
12836,-100,4,1,0,80,0,0
13003,-98.0369107793582,4,1,0,80,0,0
13086,-97.0896391152503,4,1,0,80,0,0
13170,-96.1494120359696,4,1,0,80,0,0
13253,-95.2380952380952,4,1,0,80,0,0
13336,-94.3438914027149,4,1,0,80,0,0
13420,-93.4558493948902,4,1,0,80,0,0
13503,-92.5946486066393,4,1,0,80,0,0
13586,-91.7491749174917,4,1,0,80,0,0
13670,-90.9090909090909,4,1,0,80,0,0
13839,-100,4,1,0,80,0,0
18336,-86.9565217391304,4,1,0,80,0,0
18420,-87.9198171267804,4,1,0,80,0,0
18503,-88.8928396817636,4,1,0,80,0,0
18586,-89.8876404494382,4,1,0,80,0,0
18670,-90.917356123284,4,1,0,80,0,0
18753,-91.9582509540669,4,1,0,80,0,0
18836,-93.0232558139535,4,1,0,80,0,0
18920,-94.1265060240964,4,1,0,80,0,0
19003,-95.2426306014572,4,1,0,80,0,0
19253,-100,4,1,0,80,0,0
21670,-83.3333333333333,4,1,0,80,0,0
21836,-85.3587115666179,4,1,0,80,0,0
22003,-87.4981239681825,4,1,0,80,0,0
22170,-89.7475369458128,4,1,0,80,0,0
22336,-92.1011058451817,4,1,0,80,0,0
22503,-94.5967872789226,4,1,0,80,0,0
22670,-97.231487658439,4,1,0,80,0,0
22836,-100,4,1,0,80,0,0
23003,-105.263157894737,4,1,0,80,0,0
23086,-104.238348451673,4,1,0,80,0,0
23170,-103.221310205978,4,1,0,80,0,0
23253,-102.235686620393,4,1,0,80,0,0
23336,-101.268707741396,4,1,0,80,0,0
23420,-100.308525848446,4,1,0,80,0,0
23503,-99.3774928243933,4,1,0,80,0,0
23586,-98.4635839858177,4,1,0,80,0,0
23670,-97.5556206088993,4,1,0,80,0,0
23753,-96.6747652028865,4,1,0,80,0,0
23836,-95.8096744052325,4,1,0,80,0,0
23920,-94.949782748059,4,1,0,80,0,0
24003,-94.1151551523282,4,1,0,80,0,0
24086,-93.2950727883539,4,1,0,80,0,0
24170,-92.4795337865964,4,1,0,80,0,0
24253,-91.6875881280737,4,1,0,80,0,0
24336,-90.9090909090909,4,1,0,80,0,0
28670,-97.5627607406865,4,1,0,80,0,0
28836,-99.9924986872703,4,1,0,80,0,0
29003,-102.562129722244,4,1,0,80,0,0
29170,-105.267314222538,4,1,0,80,0,0
29336,-108.101532722407,4,1,0,80,0,0
29420,-109.594672367015,4,1,0,80,0,0
29503,-111.111111111111,4,1,0,80,0,0
29673,-90.9090909090909,4,1,0,80,0,0
34170,-97.3498327048701,4,1,0,80,0,0
34253,-98.2157209451857,4,1,0,80,0,0
34336,-99.0971508893334,4,1,0,80,0,0
34503,-100.91945163244,4,1,0,80,0,0
34670,-102.810028605082,4,1,0,80,0,0
34836,-104.76081613991,4,1,0,80,0,0
35003,-106.799510575074,4,1,0,80,0,0
35336,-111.111111111111,4,1,0,80,0,0
43003,-83.3333333333333,4,1,0,80,0,0
43170,-85.1104584344273,4,1,0,81,0,0
43336,-86.9536855838226,4,1,0,82,0,0
43503,-88.8903707655375,4,1,0,82,0,0
43670,-90.9152912290274,4,1,0,83,0,0
43836,-93.0216329378925,4,1,0,84,0,0
44003,-95.2414975707345,4,1,0,85,0,0
44170,-97.569901917728,4,1,0,86,0,0
44336,-100,4,1,0,87,0,0
44503,-105.263157894737,4,1,0,88,0,0
44586,-102.950906444356,4,1,0,88,0,0
44670,-100.711974110032,4,1,0,89,0,0
44753,-98.5933341781777,4,1,0,90,0,0
44836,-96.561995780067,4,1,0,91,0,0
44920,-94.5896656534954,4,1,0,92,0,0
45003,-92.718388749851,4,1,0,92,0,0
45086,-90.9197148533364,4,1,0,93,0,0
45170,-89.1690544412607,4,1,0,94,0,0
45253,-87.5042177482848,4,1,0,95,0,0
45336,-85.9004085237937,4,1,0,96,0,0
45420,-84.3360433604336,4,1,0,97,0,0
45503,-82.8452773932489,4,1,0,98,0,0
45586,-81.4062990478184,4,1,0,98,0,0
45675,-80,4,1,0,99,0,1
45839,-86.9565217391304,4,1,0,100,0,1
53670,-88.2378893496868,4,1,0,100,0,1
53836,-89.5495656846064,4,1,0,100,0,1
54003,-90.9090909090909,4,1,0,100,0,1
54170,-92.3105326317733,4,1,0,100,0,1
54336,-93.7470704040499,4,1,0,100,0,1
54503,-95.2380952380952,4,1,0,100,0,1
54670,-96.7773153972709,4,1,0,100,0,1
54836,-98.3574309039048,4,1,0,100,0,1
54953,-98.3574309039048,4,1,0,80,0,1
55009,363.636363636364,4,1,0,80,1,0
55009,-91.6666666665903,4,1,0,80,0,0

[HitObjects]
256,192,342,5,8,0:0:0:0:
256,192,509,1,0,0:0:0:0:
256,192,675,1,8,0:0:0:0:
256,192,925,1,8,0:0:0:0:
256,192,1009,1,0,0:0:0:0:
256,192,1175,1,0,0:0:0:0:
256,192,1342,1,8,0:0:0:0:
256,192,1675,1,0,0:0:0:0:
256,192,1842,1,0,0:0:0:0:
256,192,2009,1,8,0:0:0:0:
256,192,2175,1,0,0:0:0:0:
256,192,2342,1,8,0:0:0:0:
256,192,2425,1,8,0:0:0:0:
256,192,2509,1,0,0:0:0:0:
256,192,2592,1,0,0:0:0:0:
256,192,2675,1,8,0:0:0:0:
256,192,2759,1,8,0:0:0:0:
256,192,2842,1,0,0:0:0:0:
256,192,2925,1,0,0:0:0:0:
256,192,3009,1,12,0:0:0:0:
256,192,3342,1,8,0:0:0:0:
256,192,3592,1,8,0:0:0:0:
256,192,3675,1,0,0:0:0:0:
256,192,3842,1,0,0:0:0:0:
256,192,4009,1,8,0:0:0:0:
256,192,4175,1,8,0:0:0:0:
256,192,4342,1,0,0:0:0:0:
256,192,4509,1,0,0:0:0:0:
256,192,4675,1,8,0:0:0:0:
256,192,4842,1,0,0:0:0:0:
256,192,4925,1,8,0:0:0:0:
256,192,5009,1,0,0:0:0:0:
256,192,5175,1,0,0:0:0:0:
256,192,5342,1,8,0:0:0:0:
256,192,5509,1,8,0:0:0:0:
256,192,5675,1,0,0:0:0:0:
256,192,5842,1,0,0:0:0:0:
256,192,6009,1,8,0:0:0:0:
256,192,6259,1,8,0:0:0:0:
256,192,6342,1,0,0:0:0:0:
256,192,6509,1,8,0:0:0:0:
256,192,6675,1,0,0:0:0:0:
256,192,6842,1,8,0:0:0:0:
256,192,7009,1,0,0:0:0:0:
256,192,7175,1,0,0:0:0:0:
256,192,7342,1,8,0:0:0:0:
256,192,7509,1,0,0:0:0:0:
256,192,7592,1,8,0:0:0:0:
256,192,7675,1,0,0:0:0:0:
256,192,7842,1,8,0:0:0:0:
256,192,8009,1,12,0:0:0:0:
256,192,8342,1,0,0:0:0:0:
256,192,8509,1,0,0:0:0:0:
256,192,8675,1,8,0:0:0:0:
256,192,8925,1,8,0:0:0:0:
256,192,9009,1,0,0:0:0:0:
256,192,9175,1,0,0:0:0:0:
256,192,9342,1,8,0:0:0:0:
256,192,9509,1,8,0:0:0:0:
256,192,9675,1,0,0:0:0:0:
256,192,9842,1,0,0:0:0:0:
256,192,10009,1,8,0:0:0:0:
256,192,10175,1,0,0:0:0:0:
256,192,10259,1,8,0:0:0:0:
256,192,10342,1,0,0:0:0:0:
256,192,10509,1,8,0:0:0:0:
256,192,10675,1,0,0:0:0:0:
256,192,10759,1,0,0:0:0:0:
256,192,10842,1,8,0:0:0:0:
256,192,10925,1,8,0:0:0:0:
256,192,11009,1,0,0:0:0:0:
256,192,11175,1,0,0:0:0:0:
256,192,11342,1,8,0:0:0:0:
256,192,11509,1,0,0:0:0:0:
256,192,11592,1,0,0:0:0:0:
256,192,11675,1,0,0:0:0:0:
256,192,11842,1,0,0:0:0:0:
256,192,12009,1,8,0:0:0:0:
256,192,12175,1,8,0:0:0:0:
256,192,12259,1,8,0:0:0:0:
256,192,12342,1,0,0:0:0:0:
256,192,12509,1,0,0:0:0:0:
256,192,12675,1,8,0:0:0:0:
256,192,12842,1,0,0:0:0:0:
256,192,13009,1,8,0:0:0:0:
256,192,13092,1,8,0:0:0:0:
256,192,13175,1,0,0:0:0:0:
256,192,13259,1,0,0:0:0:0:
256,192,13342,1,8,0:0:0:0:
256,192,13425,1,8,0:0:0:0:
256,192,13509,1,8,0:0:0:0:
256,192,13592,1,8,0:0:0:0:
256,192,13675,1,4,0:0:0:0:
256,192,14009,1,8,0:0:0:0:
256,192,14175,1,0,0:0:0:0:
256,192,14259,1,8,0:0:0:0:
256,192,14342,1,0,0:0:0:0:
256,192,14509,1,0,0:0:0:0:
256,192,14675,1,8,0:0:0:0:
256,192,14842,1,8,0:0:0:0:
256,192,15009,1,0,0:0:0:0:
256,192,15175,1,0,0:0:0:0:
256,192,15342,1,8,0:0:0:0:
256,192,15509,1,8,0:0:0:0:
256,192,15592,1,8,0:0:0:0:
256,192,15675,1,0,0:0:0:0:
256,192,15842,1,8,0:0:0:0:
256,192,16009,1,0,0:0:0:0:
256,192,16175,1,8,0:0:0:0:
256,192,16342,1,0,0:0:0:0:
256,192,16509,1,0,0:0:0:0:
256,192,16675,1,8,0:0:0:0:
256,192,16842,1,0,0:0:0:0:
256,192,16925,1,8,0:0:0:0:
256,192,17009,1,0,0:0:0:0:
256,192,17175,1,8,0:0:0:0:
256,192,17342,1,0,0:0:0:0:
256,192,17509,1,8,0:0:0:0:
256,192,17675,1,0,0:0:0:0:
256,192,17842,1,0,0:0:0:0:
256,192,18009,1,8,0:0:0:0:
256,192,18175,1,0,0:0:0:0:
256,192,18342,1,8,0:0:0:0:
256,192,18425,1,8,0:0:0:0:
256,192,18509,1,0,0:0:0:0:
256,192,18592,1,0,0:0:0:0:
256,192,18675,1,8,0:0:0:0:
256,192,18759,1,8,0:0:0:0:
256,192,18842,1,8,0:0:0:0:
256,192,18925,1,8,0:0:0:0:
256,192,19009,1,4,0:0:0:0:
256,192,19342,1,8,0:0:0:0:
256,192,19509,1,0,0:0:0:0:
256,192,19592,1,8,0:0:0:0:
256,192,19675,1,0,0:0:0:0:
256,192,19842,1,0,0:0:0:0:
256,192,20009,1,8,0:0:0:0:
256,192,20175,1,8,0:0:0:0:
256,192,20342,1,0,0:0:0:0:
256,192,20509,1,0,0:0:0:0:
256,192,20675,1,8,0:0:0:0:
256,192,20842,1,8,0:0:0:0:
256,192,20925,1,8,0:0:0:0:
256,192,21009,1,0,0:0:0:0:
256,192,21175,1,0,0:0:0:0:
256,192,21259,1,0,0:0:0:0:
256,192,21342,1,8,0:0:0:0:
256,192,21675,1,12,0:0:0:0:
256,192,21842,1,0,0:0:0:0:
256,192,22009,1,12,0:0:0:0:
256,192,22175,1,0,0:0:0:0:
256,192,22342,1,12,0:0:0:0:
256,192,22509,1,0,0:0:0:0:
256,192,22675,1,12,0:0:0:0:
256,192,22842,1,0,0:0:0:0:
256,192,23009,1,8,0:0:0:0:
256,192,23092,1,8,0:0:0:0:
256,192,23175,1,0,0:0:0:0:
256,192,23259,1,0,0:0:0:0:
256,192,23342,1,8,0:0:0:0:
256,192,23425,1,8,0:0:0:0:
256,192,23509,1,8,0:0:0:0:
256,192,23592,1,8,0:0:0:0:
256,192,23675,1,0,0:0:0:0:
256,192,23759,1,0,0:0:0:0:
256,192,23842,1,8,0:0:0:0:
256,192,23925,1,0,0:0:0:0:
256,192,24009,1,8,0:0:0:0:
256,192,24092,1,8,0:0:0:0:
256,192,24175,1,0,0:0:0:0:
256,192,24259,1,0,0:0:0:0:
256,192,24342,1,12,0:0:0:0:
256,192,24675,1,8,0:0:0:0:
256,192,24842,1,0,0:0:0:0:
256,192,24925,1,0,0:0:0:0:
256,192,25009,1,8,0:0:0:0:
256,192,25175,1,8,0:0:0:0:
256,192,25342,1,0,0:0:0:0:
256,192,25509,1,8,0:0:0:0:
256,192,25592,1,8,0:0:0:0:
256,192,25675,1,0,0:0:0:0:
256,192,25842,1,0,0:0:0:0:
256,192,26009,1,8,0:0:0:0:
256,192,26175,1,0,0:0:0:0:
256,192,26259,1,0,0:0:0:0:
256,192,26342,1,8,0:0:0:0:
256,192,26425,1,0,0:0:0:0:
256,192,26509,1,8,0:0:0:0:
256,192,26592,1,8,0:0:0:0:
256,192,26675,1,0,0:0:0:0:
256,192,26842,1,8,0:0:0:0:
256,192,27009,1,0,0:0:0:0:
256,192,27175,1,0,0:0:0:0:
256,192,27342,1,8,0:0:0:0:
256,192,27425,1,8,0:0:0:0:
256,192,27509,1,0,0:0:0:0:
256,192,27592,1,0,0:0:0:0:
256,192,27675,1,8,0:0:0:0:
256,192,27842,1,8,0:0:0:0:
256,192,28009,1,0,0:0:0:0:
256,192,28175,1,8,0:0:0:0:
256,192,28675,1,12,0:0:0:0:
256,192,28842,1,0,0:0:0:0:
256,192,29009,1,12,0:0:0:0:
256,192,29175,1,0,0:0:0:0:
256,192,29342,1,8,0:0:0:0:
256,192,29425,1,8,0:0:0:0:
256,192,29509,1,0,0:0:0:0:
256,192,29675,1,12,0:0:0:0:
256,192,30009,1,8,0:0:0:0:
256,192,30175,1,0,0:0:0:0:
256,192,30259,1,0,0:0:0:0:
256,192,30342,1,8,0:0:0:0:
256,192,30509,1,8,0:0:0:0:
256,192,30675,1,0,0:0:0:0:
256,192,30759,1,0,0:0:0:0:
256,192,30842,1,8,0:0:0:0:
256,192,30925,1,8,0:0:0:0:
256,192,31009,1,0,0:0:0:0:
256,192,31175,1,0,0:0:0:0:
256,192,31342,1,8,0:0:0:0:
256,192,31509,1,0,0:0:0:0:
256,192,31592,1,0,0:0:0:0:
256,192,31675,1,8,0:0:0:0:
256,192,31759,1,0,0:0:0:0:
256,192,31842,1,8,0:0:0:0:
256,192,31925,1,8,0:0:0:0:
256,192,32009,1,0,0:0:0:0:
256,192,32175,1,8,0:0:0:0:
256,192,32342,1,0,0:0:0:0:
256,192,32509,1,8,0:0:0:0:
256,192,32592,1,0,0:0:0:0:
256,192,32675,1,8,0:0:0:0:
256,192,32759,1,8,0:0:0:0:
256,192,32842,1,0,0:0:0:0:
256,192,32925,1,0,0:0:0:0:
256,192,33009,1,8,0:0:0:0:
256,192,33175,1,8,0:0:0:0:
256,192,33342,1,0,0:0:0:0:
256,192,33509,1,12,0:0:0:0:
256,192,34175,1,8,0:0:0:0:
256,192,34259,1,8,0:0:0:0:
256,192,34342,1,0,0:0:0:0:
256,192,34509,1,0,0:0:0:0:
256,192,34675,1,8,0:0:0:0:
256,192,34842,1,8,0:0:0:0:
256,192,35009,1,4,0:0:0:0:
256,192,35342,1,8,0:0:0:0:
256,192,35509,1,0,0:0:0:0:
256,192,35592,1,0,0:0:0:0:
256,192,35675,1,8,0:0:0:0:
256,192,35842,1,0,0:0:0:0:
256,192,36009,1,8,0:0:0:0:
256,192,36175,1,8,0:0:0:0:
256,192,36342,1,0,0:0:0:0:
256,192,36675,1,8,0:0:0:0:
256,192,36842,1,8,0:0:0:0:
256,192,37009,1,0,0:0:0:0:
256,192,37175,1,8,0:0:0:0:
256,192,37342,1,0,0:0:0:0:
256,192,37509,1,8,0:0:0:0:
256,192,37675,1,0,0:0:0:0:
256,192,38009,1,8,0:0:0:0:
256,192,38342,1,0,0:0:0:0:
256,192,38509,1,0,0:0:0:0:
256,192,38675,1,8,0:0:0:0:
256,192,38842,1,8,0:0:0:0:
256,192,39009,1,0,0:0:0:0:
256,192,39342,1,8,0:0:0:0:
256,192,39675,1,0,0:0:0:0:
256,192,39842,1,0,0:0:0:0:
256,192,40009,1,8,0:0:0:0:
256,192,40342,1,0,0:0:0:0:
256,192,40675,1,8,0:0:0:0:
256,192,41009,1,8,0:0:0:0:
256,192,41175,1,0,0:0:0:0:
256,192,41342,1,8,0:0:0:0:
256,192,41509,1,8,0:0:0:0:
256,192,41675,1,0,0:0:0:0:
256,192,42009,1,8,0:0:0:0:
256,192,42175,1,0,0:0:0:0:
256,192,42342,1,0,0:0:0:0:
256,192,42509,1,0,0:0:0:0:
256,192,42675,1,8,0:0:0:0:
256,192,43009,1,12,0:0:0:0:
256,192,43175,1,0,0:0:0:0:
256,192,43342,1,12,0:0:0:0:
256,192,43509,1,0,0:0:0:0:
256,192,43675,1,12,0:0:0:0:
256,192,43842,1,0,0:0:0:0:
256,192,44009,1,12,0:0:0:0:
256,192,44175,1,0,0:0:0:0:
256,192,44342,1,4,0:0:0:0:
256,192,44509,1,8,0:0:0:0:
256,192,44592,1,8,0:0:0:0:
256,192,44675,1,8,0:0:0:0:
256,192,44759,1,8,0:0:0:0:
256,192,44842,1,0,0:0:0:0:
256,192,44925,1,0,0:0:0:0:
256,192,45009,1,8,0:0:0:0:
256,192,45092,1,8,0:0:0:0:
256,192,45175,1,0,0:0:0:0:
256,192,45259,1,0,0:0:0:0:
256,192,45342,1,8,0:0:0:0:
256,192,45425,1,8,0:0:0:0:
256,192,45509,1,0,0:0:0:0:
256,192,45592,1,0,0:0:0:0:
256,192,45675,1,12,0:0:0:0:
256,192,46009,1,8,0:0:0:0:
256,192,46175,1,0,0:0:0:0:
256,192,46342,1,8,0:0:0:0:
256,192,46425,1,8,0:0:0:0:
256,192,46509,1,0,0:0:0:0:
256,192,46592,1,0,0:0:0:0:
256,192,46675,1,8,0:0:0:0:
256,192,46759,1,8,0:0:0:0:
256,192,46842,1,8,0:0:0:0:
256,192,46925,1,8,0:0:0:0:
256,192,47009,1,4,0:0:0:0:
256,192,47175,1,0,0:0:0:0:
256,192,47342,1,8,0:0:0:0:
256,192,47509,1,0,0:0:0:0:
256,192,47592,1,0,0:0:0:0:
256,192,47675,1,8,0:0:0:0:
256,192,47759,1,8,0:0:0:0:
256,192,47842,1,0,0:0:0:0:
256,192,48009,1,8,0:0:0:0:
256,192,48175,1,8,0:0:0:0:
256,192,48259,1,8,0:0:0:0:
256,192,48342,1,4,0:0:0:0:
256,192,48509,1,0,0:0:0:0:
256,192,48592,1,0,0:0:0:0:
256,192,48675,1,8,0:0:0:0:
256,192,48842,1,0,0:0:0:0:
256,192,49009,1,8,0:0:0:0:
256,192,49092,1,0,0:0:0:0:
256,192,49175,1,8,0:0:0:0:
256,192,49259,1,8,0:0:0:0:
256,192,49342,1,0,0:0:0:0:
256,192,49425,1,0,0:0:0:0:
256,192,49509,1,8,0:0:0:0:
256,192,49592,1,8,0:0:0:0:
256,192,49675,1,4,0:0:0:0:
256,192,49842,1,0,0:0:0:0:
256,192,50009,1,8,0:0:0:0:
256,192,50175,1,0,0:0:0:0:
256,192,50342,1,8,0:0:0:0:
256,192,50425,1,8,0:0:0:0:
256,192,50509,1,0,0:0:0:0:
256,192,50675,1,8,0:0:0:0:
256,192,50842,1,4,0:0:0:0:
256,192,51009,1,12,0:0:0:0:
256,192,51342,1,8,0:0:0:0:
256,192,51509,1,0,0:0:0:0:
256,192,51675,1,8,0:0:0:0:
256,192,51759,1,8,0:0:0:0:
256,192,51842,1,8,0:0:0:0:
256,192,51925,1,8,0:0:0:0:
256,192,52009,1,0,0:0:0:0:
256,192,52092,1,0,0:0:0:0:
256,192,52175,1,8,0:0:0:0:
256,192,52259,1,8,0:0:0:0:
256,192,52342,1,4,0:0:0:0:
256,192,52509,1,0,0:0:0:0:
256,192,52675,1,8,0:0:0:0:
256,192,52842,1,0,0:0:0:0:
256,192,53009,1,8,0:0:0:0:
256,192,53175,1,8,0:0:0:0:
256,192,53342,1,0,0:0:0:0:
256,192,53509,1,0,0:0:0:0:
256,192,53675,1,12,0:0:0:0:
256,192,53842,1,0,0:0:0:0:
256,192,54009,1,12,0:0:0:0:
256,192,54175,1,0,0:0:0:0:
256,192,54342,1,12,0:0:0:0:
256,192,54509,1,0,0:0:0:0:
256,192,54675,1,12,0:0:0:0:
256,192,54842,1,0,0:0:0:0:
256,192,55009,1,12,0:0:0:0:
256,192,55251,1,4,0:0:0:0:
256,192,55493,1,4,0:0:0:0:
256,192,55736,1,12,0:0:0:0:
