osu file format v14

[General]
AudioFilename: audio.mp3
AudioLeadIn: 0
PreviewTime: 12925
Countdown: 0
SampleSet: Normal
StackLeniency: 0.7
Mode: 1
LetterboxInBreaks: 0
WidescreenStoryboard: 1

[Editor]
DistanceSpacing: 1
BeatDivisor: 2
GridSize: 32
TimelineZoom: 1.5

[Metadata]
Title:What's New Scooby-Doo? (Sped Up Ver.)
TitleUnicode:What's New Scooby-Doo? (Sped Up Ver.)
Artist:Simple Plan
ArtistUnicode:Simple Plan
Creator:Axer
Version:Hivie's Oni
Source:What's New Scooby-Doo?
Tags:soirT Yasuho Genjuro Hivie pop punk rock english Rich Dickerson Gigi Meroni Warner Bros. Animation Joe Ruby Ken Spears Shaggy Ultra Instinct
BeatmapID:3628498
BeatmapSetID:1767504

[Difficulty]
HPDrainRate:6.5
CircleSize:2
OverallDifficulty:5
ApproachRate:10
SliderMultiplier:1.4
SliderTickRate:1

[Events]
//Background and Video events
0,0,"shaggy.png",0,0
//Break Periods
//Storyboard Layer 0 (Background)
//Storyboard Layer 1 (Fail)
//Storyboard Layer 2 (Pass)
//Storyboard Layer 3 (Foreground)
//Storyboard Layer 4 (Overlay)
//Storyboard Sound Samples

[TimingPoints]
-2324,333.333333333333,4,1,0,80,1,0
340,-133.333333333333,4,1,0,80,0,0
1670,-128.196254854462,4,1,0,80,0,0
1836,-125.787587247689,4,1,0,80,0,0
2003,-123.45404724876,4,1,0,80,0,0
2170,-121.20551132439,4,1,0,80,0,0
2336,-119.050169612569,4,1,0,80,0,0
2503,-116.957833438574,4,1,0,80,0,0
2586,-115.945053034255,4,1,0,80,0,0
2670,-114.937773640845,4,1,0,80,0,0
2753,-113.959529669128,4,1,0,80,0,0
2836,-112.997796983562,4,1,0,80,0,0
3003,-111.111111111111,4,1,0,80,0,0
11503,-110.234732914561,4,1,0,80,0,0
11670,-109.372071227741,4,1,0,80,0,0
11836,-108.527852692272,4,1,0,80,0,0
12003,-107.691597840631,4,1,0,80,0,0
12170,-106.868131868132,4,1,0,80,0,0
12336,-106.061983095519,4,1,0,80,0,0
12420,-105.658669081032,4,1,0,80,0,0
12503,-105.263157894737,4,1,0,80,0,0
12670,-104.476275738585,4,1,0,80,0,0
12836,-103.705678485737,4,1,0,80,0,0
13003,-102.941825078287,4,1,0,80,0,0
13086,-102.566356125857,4,1,0,80,0,0
13170,-102.189141856392,4,1,0,80,0,0
13253,-101.819133621254,4,1,0,80,0,0
13336,-101.451795183865,4,1,0,80,0,0
13420,-101.082719792118,4,1,0,80,0,0
13503,-100.720666292668,4,1,0,80,0,0
13670,-100,4,1,0,80,0,0
23003,-99.4464149567408,4,1,0,80,0,0
23170,-98.8989252983451,4,1,0,80,0,0
23336,-98.3606557377049,4,1,0,80,0,0
23420,-98.0905048391316,4,1,0,80,0,0
23503,-97.8250236410474,4,1,0,80,0,0
23586,-97.5609756097561,4,1,0,80,0,0
23670,-97.2951936174353,4,1,0,80,0,0
23836,-96.7741935483871,4,1,0,80,0,0
24003,-96.2556550197324,4,1,0,80,0,0
24086,-96,4,1,0,80,0,0
24170,-95.7426437735367,4,1,0,80,0,0
24336,-95.2380952380952,4,1,0,80,0,0
28670,-98.3606557377049,4,1,0,80,0,0
29003,-100.556412147215,4,1,0,80,0,0
29336,-102.852441031267,4,1,0,80,0,0
29420,-103.448275862069,4,1,0,80,0,0
29503,-104.043837136714,4,1,0,80,0,0
29670,-95.2380952380954,4,1,0,80,0,0
34170,-97.3498327048701,4,1,0,80,0,0
34253,-98.2157209451857,4,1,0,80,0,0
34336,-99.0971508893334,4,1,0,80,0,0
34503,-100.91945163244,4,1,0,80,0,0
34670,-102.810028605082,4,1,0,80,0,0
34836,-104.76081613991,4,1,0,80,0,0
35003,-106.799510575074,4,1,0,80,0,0
35336,-111.111111111111,4,1,0,80,0,0
43006,-100,4,1,0,80,0,0
44336,-98.905446393248,4,1,0,80,0,0
44503,-97.8282136568186,4,1,0,80,0,0
44586,-97.3015049299429,4,1,0,80,0,0
44670,-96.7741935483871,4,1,0,80,0,0
44753,-96.2587435025348,4,1,0,80,0,0
44836,-95.7487552661815,4,1,0,80,0,0
45003,-94.7388366070865,4,1,0,80,0,0
45170,-93.75,4,1,0,80,0,0
45253,-93.2661816825219,4,1,0,80,0,0
45336,-92.7873314363479,4,1,0,80,0,0
45420,-92.3076923076923,4,1,0,80,0,0
45503,-91.8386089512031,4,1,0,80,0,0
45589,-90.9090909090909,4,1,0,100,0,0
45675,-90.9090909090909,4,1,0,100,0,1
53670,-90.9090909090909,4,1,0,100,0,1
53836,-91.9500586328206,4,1,0,100,0,1
54003,-93.0216329378925,4,1,0,100,0,1
54170,-94.1184777236461,4,1,0,100,0,1
54336,-95.2346931485318,4,1,0,100,0,1
54503,-96.3846710050615,4,1,0,100,0,1
54670,-97.5627607406865,4,1,0,100,0,1
54836,-98.7626880047418,4,1,0,100,0,1
54953,-98.7626880047418,4,1,0,80,0,1
55009,363.636363636364,4,1,0,80,1,0
55009,-91.6666666665903,4,1,0,80,0,0

[HitObjects]
256,192,342,5,8,0:0:0:0:
256,192,509,1,0,0:0:0:0:
256,192,675,1,8,0:0:0:0:
256,192,925,1,8,0:0:0:0:
256,192,1009,1,0,0:0:0:0:
256,192,1175,1,0,0:0:0:0:
256,192,1342,1,8,0:0:0:0:
256,192,1675,1,0,0:0:0:0:
256,192,1842,1,0,0:0:0:0:
256,192,2009,1,8,0:0:0:0:
256,192,2175,1,0,0:0:0:0:
256,192,2342,1,8,0:0:0:0:
256,192,2509,1,0,0:0:0:0:
256,192,2592,1,0,0:0:0:0:
256,192,2675,1,8,0:0:0:0:
256,192,2759,1,8,0:0:0:0:
256,192,2842,1,0,0:0:0:0:
256,192,3009,1,12,0:0:0:0:
256,192,3342,1,8,0:0:0:0:
256,192,3675,1,0,0:0:0:0:
256,192,3842,1,0,0:0:0:0:
256,192,4009,1,8,0:0:0:0:
256,192,4175,1,8,0:0:0:0:
256,192,4342,1,0,0:0:0:0:
256,192,4509,1,0,0:0:0:0:
256,192,4675,1,8,0:0:0:0:
256,192,5009,1,0,0:0:0:0:
256,192,5175,1,8,0:0:0:0:
256,192,5342,1,0,0:0:0:0:
256,192,5509,1,8,0:0:0:0:
256,192,5675,1,8,0:0:0:0:
256,192,5842,1,0,0:0:0:0:
256,192,6009,1,8,0:0:0:0:
256,192,6342,1,0,0:0:0:0:
256,192,6509,1,8,0:0:0:0:
256,192,6675,1,0,0:0:0:0:
256,192,6842,1,8,0:0:0:0:
256,192,7009,1,0,0:0:0:0:
256,192,7175,1,0,0:0:0:0:
256,192,7342,1,8,0:0:0:0:
256,192,7675,1,0,0:0:0:0:
256,192,7842,1,8,0:0:0:0:
256,192,8009,1,12,0:0:0:0:
256,192,8342,1,0,0:0:0:0:
256,192,8509,1,0,0:0:0:0:
256,192,8675,1,8,0:0:0:0:
256,192,9009,1,0,0:0:0:0:
256,192,9175,1,0,0:0:0:0:
256,192,9342,1,8,0:0:0:0:
256,192,9509,1,8,0:0:0:0:
256,192,9675,1,0,0:0:0:0:
256,192,9842,1,0,0:0:0:0:
256,192,10009,1,8,0:0:0:0:
256,192,10342,1,0,0:0:0:0:
256,192,10509,1,8,0:0:0:0:
256,192,10675,1,0,0:0:0:0:
256,192,10842,1,8,0:0:0:0:
256,192,11009,1,0,0:0:0:0:
256,192,11342,1,8,0:0:0:0:
256,192,11509,1,0,0:0:0:0:
256,192,11675,1,0,0:0:0:0:
256,192,11842,1,0,0:0:0:0:
256,192,12009,1,8,0:0:0:0:
256,192,12175,1,0,0:0:0:0:
256,192,12342,1,8,0:0:0:0:
256,192,12425,1,8,0:0:0:0:
256,192,12509,1,0,0:0:0:0:
256,192,12675,1,8,0:0:0:0:
256,192,12842,1,0,0:0:0:0:
256,192,13009,1,8,0:0:0:0:
256,192,13092,1,8,0:0:0:0:
256,192,13175,1,8,0:0:0:0:
256,192,13259,1,8,0:0:0:0:
256,192,13342,1,8,0:0:0:0:
256,192,13425,1,8,0:0:0:0:
256,192,13509,1,8,0:0:0:0:
256,192,13675,1,4,0:0:0:0:
256,192,14009,1,8,0:0:0:0:
256,192,14175,1,0,0:0:0:0:
256,192,14259,1,8,0:0:0:0:
256,192,14342,1,0,0:0:0:0:
256,192,14509,1,0,0:0:0:0:
256,192,14675,1,8,0:0:0:0:
256,192,14842,1,8,0:0:0:0:
256,192,15009,1,0,0:0:0:0:
256,192,15175,1,0,0:0:0:0:
256,192,15342,1,8,0:0:0:0:
256,192,15675,1,0,0:0:0:0:
256,192,15842,1,8,0:0:0:0:
256,192,16009,1,0,0:0:0:0:
256,192,16175,1,0,0:0:0:0:
256,192,16342,1,8,0:0:0:0:
256,192,16509,1,0,0:0:0:0:
256,192,16675,1,8,0:0:0:0:
256,192,16842,1,0,0:0:0:0:
256,192,16925,1,8,0:0:0:0:
256,192,17009,1,0,0:0:0:0:
256,192,17175,1,8,0:0:0:0:
256,192,17342,1,0,0:0:0:0:
256,192,17509,1,8,0:0:0:0:
256,192,17675,1,0,0:0:0:0:
256,192,17842,1,0,0:0:0:0:
256,192,18009,1,8,0:0:0:0:
256,192,18175,1,0,0:0:0:0:
256,192,18342,1,8,0:0:0:0:
256,192,18509,1,0,0:0:0:0:
256,192,18592,1,0,0:0:0:0:
256,192,18675,1,8,0:0:0:0:
256,192,18759,1,8,0:0:0:0:
256,192,18842,1,8,0:0:0:0:
256,192,19009,1,4,0:0:0:0:
256,192,19342,1,8,0:0:0:0:
256,192,19675,1,0,0:0:0:0:
256,192,19842,1,0,0:0:0:0:
256,192,20009,1,8,0:0:0:0:
256,192,20175,1,8,0:0:0:0:
256,192,20342,1,0,0:0:0:0:
256,192,20509,1,0,0:0:0:0:
256,192,20675,1,8,0:0:0:0:
256,192,20842,1,8,0:0:0:0:
256,192,20925,1,8,0:0:0:0:
256,192,21009,1,0,0:0:0:0:
256,192,21175,1,0,0:0:0:0:
256,192,21342,1,8,0:0:0:0:
256,192,21675,1,8,0:0:0:0:
256,192,21842,1,0,0:0:0:0:
256,192,22009,1,8,0:0:0:0:
256,192,22175,1,0,0:0:0:0:
256,192,22342,1,8,0:0:0:0:
256,192,22509,1,0,0:0:0:0:
256,192,22675,1,8,0:0:0:0:
256,192,22842,1,0,0:0:0:0:
256,192,23009,1,8,0:0:0:0:
256,192,23175,1,0,0:0:0:0:
256,192,23342,1,8,0:0:0:0:
256,192,23425,1,8,0:0:0:0:
256,192,23509,1,8,0:0:0:0:
256,192,23592,1,8,0:0:0:0:
256,192,23675,1,0,0:0:0:0:
256,192,23842,1,8,0:0:0:0:
256,192,24009,1,0,0:0:0:0:
256,192,24092,1,0,0:0:0:0:
256,192,24175,1,0,0:0:0:0:
256,192,24342,1,12,0:0:0:0:
256,192,24675,1,8,0:0:0:0:
256,192,25009,1,0,0:0:0:0:
256,192,25175,1,0,0:0:0:0:
256,192,25342,1,8,0:0:0:0:
256,192,25509,1,0,0:0:0:0:
256,192,25592,1,0,0:0:0:0:
256,192,25675,1,8,0:0:0:0:
256,192,26009,1,8,0:0:0:0:
256,192,26342,1,0,0:0:0:0:
256,192,26509,1,8,0:0:0:0:
256,192,26592,1,8,0:0:0:0:
256,192,26675,1,0,0:0:0:0:
256,192,26842,1,8,0:0:0:0:
256,192,27009,1,0,0:0:0:0:
256,192,27175,1,0,0:0:0:0:
256,192,27342,1,8,0:0:0:0:
256,192,27425,1,8,0:0:0:0:
256,192,27509,1,8,0:0:0:0:
256,192,27675,1,0,0:0:0:0:
256,192,27842,1,8,0:0:0:0:
256,192,28009,1,0,0:0:0:0:
256,192,28175,1,8,0:0:0:0:
256,192,28675,1,12,0:0:0:0:
256,192,29009,1,12,0:0:0:0:
256,192,29342,1,8,0:0:0:0:
256,192,29425,1,8,0:0:0:0:
256,192,29509,1,0,0:0:0:0:
256,192,29675,1,12,0:0:0:0:
256,192,30009,1,8,0:0:0:0:
256,192,30342,1,8,0:0:0:0:
256,192,30509,1,8,0:0:0:0:
256,192,30675,1,0,0:0:0:0:
256,192,30842,1,8,0:0:0:0:
256,192,30925,1,8,0:0:0:0:
256,192,31009,1,0,0:0:0:0:
256,192,31342,1,8,0:0:0:0:
256,192,31675,1,0,0:0:0:0:
256,192,31842,1,8,0:0:0:0:
256,192,31925,1,8,0:0:0:0:
256,192,32009,1,0,0:0:0:0:
256,192,32092,1,0,0:0:0:0:
256,192,32175,1,8,0:0:0:0:
256,192,32342,1,0,0:0:0:0:
256,192,32675,1,8,0:0:0:0:
256,192,32842,1,0,0:0:0:0:
256,192,32925,1,0,0:0:0:0:
256,192,33009,1,8,0:0:0:0:
256,192,33175,1,8,0:0:0:0:
256,192,33342,1,0,0:0:0:0:
256,192,33509,1,12,0:0:0:0:
256,192,34175,1,8,0:0:0:0:
256,192,34259,1,8,0:0:0:0:
256,192,34342,1,0,0:0:0:0:
256,192,34509,1,0,0:0:0:0:
256,192,34675,1,8,0:0:0:0:
256,192,34842,1,8,0:0:0:0:
256,192,35009,1,4,0:0:0:0:
256,192,35342,1,8,0:0:0:0:
256,192,35675,1,8,0:0:0:0:
256,192,35842,1,0,0:0:0:0:
256,192,36009,1,8,0:0:0:0:
256,192,36175,1,8,0:0:0:0:
256,192,36342,1,0,0:0:0:0:
256,192,36675,1,8,0:0:0:0:
256,192,37009,1,0,0:0:0:0:
256,192,37175,1,8,0:0:0:0:
256,192,37342,1,0,0:0:0:0:
256,192,37509,1,8,0:0:0:0:
256,192,37675,1,0,0:0:0:0:
256,192,38009,1,8,0:0:0:0:
256,192,38342,1,0,0:0:0:0:
256,192,38509,1,0,0:0:0:0:
256,192,38675,1,8,0:0:0:0:
256,192,38842,1,8,0:0:0:0:
256,192,39009,1,0,0:0:0:0:
256,192,39342,1,8,0:0:0:0:
256,192,39675,1,0,0:0:0:0:
256,192,39842,1,0,0:0:0:0:
256,192,40009,1,8,0:0:0:0:
256,192,40342,1,0,0:0:0:0:
256,192,40675,1,8,0:0:0:0:
256,192,41009,1,8,0:0:0:0:
256,192,41175,1,0,0:0:0:0:
256,192,41342,1,8,0:0:0:0:
256,192,41509,1,8,0:0:0:0:
256,192,41675,1,0,0:0:0:0:
256,192,42009,1,8,0:0:0:0:
256,192,42175,1,0,0:0:0:0:
256,192,42342,1,0,0:0:0:0:
256,192,42509,1,0,0:0:0:0:
256,192,42675,1,8,0:0:0:0:
256,192,43009,1,8,0:0:0:0:
256,192,43175,1,0,0:0:0:0:
256,192,43342,1,8,0:0:0:0:
256,192,43509,1,0,0:0:0:0:
256,192,43675,1,8,0:0:0:0:
256,192,43842,1,0,0:0:0:0:
256,192,44009,1,8,0:0:0:0:
256,192,44175,1,0,0:0:0:0:
256,192,44342,1,0,0:0:0:0:
256,192,44509,1,8,0:0:0:0:
256,192,44592,1,8,0:0:0:0:
256,192,44675,1,8,0:0:0:0:
256,192,44759,1,8,0:0:0:0:
256,192,44842,1,0,0:0:0:0:
256,192,45009,1,8,0:0:0:0:
256,192,45175,1,8,0:0:0:0:
256,192,45259,1,0,0:0:0:0:
256,192,45342,1,8,0:0:0:0:
256,192,45425,1,0,0:0:0:0:
256,192,45509,1,8,0:0:0:0:
256,192,45675,1,4,0:0:0:0:
256,192,46009,1,8,0:0:0:0:
256,192,46175,1,0,0:0:0:0:
256,192,46342,1,8,0:0:0:0:
256,192,46425,1,8,0:0:0:0:
256,192,46509,1,0,0:0:0:0:
256,192,46592,1,0,0:0:0:0:
256,192,46675,1,8,0:0:0:0:
256,192,46842,1,0,0:0:0:0:
256,192,47009,1,8,0:0:0:0:
256,192,47175,1,8,0:0:0:0:
256,192,47342,1,0,0:0:0:0:
256,192,47675,1,8,0:0:0:0:
256,192,47842,1,8,0:0:0:0:
256,192,48009,1,0,0:0:0:0:
256,192,48175,1,8,0:0:0:0:
256,192,48259,1,8,0:0:0:0:
256,192,48342,1,0,0:0:0:0:
256,192,48509,1,0,0:0:0:0:
256,192,48675,1,8,0:0:0:0:
256,192,48842,1,0,0:0:0:0:
256,192,49009,1,8,0:0:0:0:
256,192,49092,1,0,0:0:0:0:
256,192,49175,1,8,0:0:0:0:
256,192,49259,1,8,0:0:0:0:
256,192,49342,1,0,0:0:0:0:
256,192,49509,1,8,0:0:0:0:
256,192,49675,1,0,0:0:0:0:
256,192,50009,1,8,0:0:0:0:
256,192,50175,1,0,0:0:0:0:
256,192,50342,1,8,0:0:0:0:
256,192,50425,1,8,0:0:0:0:
256,192,50509,1,0,0:0:0:0:
256,192,50675,1,8,0:0:0:0:
256,192,50842,1,0,0:0:0:0:
256,192,51009,1,8,0:0:0:0:
256,192,51175,1,8,0:0:0:0:
256,192,51342,1,0,0:0:0:0:
256,192,51675,1,8,0:0:0:0:
256,192,51842,1,0,0:0:0:0:
256,192,51925,1,0,0:0:0:0:
256,192,52009,1,8,0:0:0:0:
256,192,52092,1,0,0:0:0:0:
256,192,52175,1,8,0:0:0:0:
256,192,52342,1,0,0:0:0:0:
256,192,52509,1,0,0:0:0:0:
256,192,52675,1,8,0:0:0:0:
256,192,53009,1,8,0:0:0:0:
256,192,53175,1,8,0:0:0:0:
256,192,53342,1,0,0:0:0:0:
256,192,53509,1,0,0:0:0:0:
256,192,53675,1,8,0:0:0:0:
256,192,53842,1,0,0:0:0:0:
256,192,54009,1,8,0:0:0:0:
256,192,54175,1,0,0:0:0:0:
256,192,54342,1,8,0:0:0:0:
256,192,54509,1,0,0:0:0:0:
256,192,54675,1,8,0:0:0:0:
256,192,54842,1,0,0:0:0:0:
256,192,55009,1,12,0:0:0:0:
256,192,55251,1,4,0:0:0:0:
256,192,55493,1,4,0:0:0:0:
256,192,55736,1,12,0:0:0:0:
