osu file format v14

[General]
AudioFilename: audio.mp3
AudioLeadIn: 0
PreviewTime: 12925
Countdown: 0
SampleSet: Normal
StackLeniency: 0
Mode: 1
LetterboxInBreaks: 0
WidescreenStoryboard: 0

[Editor]
Bookmarks: 3066,13733,24399,35066,45733
DistanceSpacing: 1
BeatDivisor: 4
GridSize: 32
TimelineZoom: 1.62

[Metadata]
Title:What's New Scooby-Doo? (Sped Up Ver.)
TitleUnicode:What's New Scooby-Doo? (Sped Up Ver.)
Artist:Simple Plan
ArtistUnicode:Simple Plan
Creator:Axer
Version:Genjuro's Muzukashii
Source:What's New Scooby-Doo?
Tags:soirT Yasuho Genjuro Hivie pop punk rock english Rich Dickerson Gigi Meroni Warner Bros. Animation Joe Ruby Ken Spears Shaggy Ultra Instinct
BeatmapID:3625439
BeatmapSetID:1767504

[Difficulty]
HPDrainRate:7
CircleSize:2
OverallDifficulty:4
ApproachRate:10
SliderMultiplier:1.4
SliderTickRate:1

[Events]
//Background and Video events
0,0,"shaggy.png",0,0
//Break Periods
//Storyboard Layer 0 (Background)
//Storyboard Layer 1 (Fail)
//Storyboard Layer 2 (Pass)
//Storyboard Layer 3 (Foreground)
//Storyboard Layer 4 (Overlay)
//Storyboard Sound Samples

[TimingPoints]
-2324,333.333333333333,4,1,0,80,1,0
45675,-100,4,1,0,80,0,1
55009,363.636363636364,4,1,0,80,1,0
55009,-91.6666666665903,4,1,0,80,0,0

[HitObjects]
256,192,342,5,12,0:0:0:0:
256,192,509,1,0,0:0:0:0:
256,192,675,1,8,0:0:0:0:
256,192,1009,1,0,0:0:0:0:
256,192,1175,1,0,0:0:0:0:
256,192,1342,1,8,0:0:0:0:
256,192,1675,1,8,0:0:0:0:
256,192,1842,1,8,0:0:0:0:
256,192,2009,1,0,0:0:0:0:
256,192,2175,1,0,0:0:0:0:
256,192,2342,1,8,0:0:0:0:
256,192,2425,1,8,0:0:0:0:
256,192,2509,1,8,0:0:0:0:
256,192,2675,1,0,0:0:0:0:
256,192,2842,1,8,0:0:0:0:
256,192,3009,1,4,0:0:0:0:
256,192,3509,1,8,0:0:0:0:
256,192,3675,1,0,0:0:0:0:
256,192,4009,1,8,0:0:0:0:
256,192,4175,1,8,0:0:0:0:
256,192,4342,1,0,0:0:0:0:
256,192,4675,1,0,0:0:0:0:
256,192,4842,1,8,0:0:0:0:
256,192,5009,1,0,0:0:0:0:
256,192,5175,1,8,0:0:0:0:
256,192,5509,1,8,0:0:0:0:
256,192,5675,1,0,0:0:0:0:
256,192,6009,1,8,0:0:0:0:
256,192,6342,1,0,0:0:0:0:
256,192,6509,1,8,0:0:0:0:
256,192,6842,1,8,0:0:0:0:
256,192,7009,1,0,0:0:0:0:
256,192,7342,1,8,0:0:0:0:
256,192,7675,1,0,0:0:0:0:
256,192,7842,1,0,0:0:0:0:
256,192,8009,1,12,0:0:0:0:
256,192,8342,1,0,0:0:0:0:
256,192,8842,1,8,0:0:0:0:
256,192,9009,1,0,0:0:0:0:
256,192,9342,1,8,0:0:0:0:
256,192,9509,1,8,0:0:0:0:
256,192,9675,1,8,0:0:0:0:
256,192,10009,1,0,0:0:0:0:
256,192,10342,1,8,0:0:0:0:
256,192,10509,1,8,0:0:0:0:
256,192,10675,1,0,0:0:0:0:
256,192,10842,1,8,0:0:0:0:
256,192,11009,1,0,0:0:0:0:
256,192,11342,1,8,0:0:0:0:
256,192,11675,1,0,0:0:0:0:
256,192,11842,1,0,0:0:0:0:
256,192,12009,1,8,0:0:0:0:
256,192,12342,1,8,0:0:0:0:
256,192,12509,1,8,0:0:0:0:
256,192,12675,1,0,0:0:0:0:
256,192,12842,1,0,0:0:0:0:
256,192,13009,1,8,0:0:0:0:
256,192,13092,1,8,0:0:0:0:
256,192,13175,1,8,0:0:0:0:
256,192,13342,1,0,0:0:0:0:
256,192,13509,1,8,0:0:0:0:
256,192,13675,1,4,0:0:0:0:
256,192,14175,1,8,0:0:0:0:
256,192,14342,1,0,0:0:0:0:
256,192,14509,1,0,0:0:0:0:
256,192,14675,1,8,0:0:0:0:
256,192,14842,1,8,0:0:0:0:
256,192,15009,1,0,0:0:0:0:
256,192,15342,1,0,0:0:0:0:
256,192,15509,1,8,0:0:0:0:
256,192,15675,1,0,0:0:0:0:
256,192,15842,1,8,0:0:0:0:
256,192,16175,1,8,0:0:0:0:
256,192,16342,1,0,0:0:0:0:
256,192,16509,1,0,0:0:0:0:
256,192,16675,1,8,0:0:0:0:
256,192,17009,1,0,0:0:0:0:
256,192,17175,1,8,0:0:0:0:
256,192,17342,1,0,0:0:0:0:
256,192,17509,1,8,0:0:0:0:
256,192,17675,1,0,0:0:0:0:
256,192,18009,1,8,0:0:0:0:
256,192,18342,1,8,0:0:0:0:
256,192,18509,1,0,0:0:0:0:
256,192,18675,1,8,0:0:0:0:
256,192,18759,1,8,0:0:0:0:
256,192,18842,1,8,0:0:0:0:
256,192,19009,1,0,0:0:0:0:
256,192,19509,1,8,0:0:0:0:
256,192,19675,1,0,0:0:0:0:
256,192,19842,1,8,0:0:0:0:
256,192,20009,1,8,0:0:0:0:
256,192,20175,1,0,0:0:0:0:
256,192,20342,1,8,0:0:0:0:
256,192,20675,1,0,0:0:0:0:
256,192,21009,1,8,0:0:0:0:
256,192,21175,1,8,0:0:0:0:
256,192,21342,1,0,0:0:0:0:
256,192,21675,1,8,0:0:0:0:
256,192,21842,1,0,0:0:0:0:
256,192,22009,1,8,0:0:0:0:
256,192,22175,1,0,0:0:0:0:
256,192,22342,1,8,0:0:0:0:
256,192,22509,1,0,0:0:0:0:
256,192,22675,1,8,0:0:0:0:
256,192,23009,1,8,0:0:0:0:
256,192,23175,1,0,0:0:0:0:
256,192,23342,1,8,0:0:0:0:
256,192,23425,1,8,0:0:0:0:
256,192,23509,1,8,0:0:0:0:
256,192,23675,1,0,0:0:0:0:
256,192,24342,1,12,0:0:0:0:
256,192,24675,1,12,0:0:0:0:
256,192,25009,1,4,0:0:0:0:
256,192,25342,1,4,0:0:0:0:
256,192,25675,1,12,0:0:0:0:
256,192,26009,1,12,0:0:0:0:
256,192,26342,1,4,0:0:0:0:
256,192,26675,1,4,0:0:0:0:
256,192,27009,1,12,0:0:0:0:
256,192,27342,1,12,0:0:0:0:
256,192,27675,1,12,0:0:0:0:
256,192,28009,1,4,0:0:0:0:
256,192,28675,1,12,0:0:0:0:
256,192,29009,1,4,0:0:0:0:
256,192,29675,1,12,0:0:0:0:
256,192,30009,1,12,0:0:0:0:
256,192,30342,1,4,0:0:0:0:
256,192,30675,1,4,0:0:0:0:
256,192,31009,1,12,0:0:0:0:
256,192,31342,1,12,0:0:0:0:
256,192,31675,1,4,0:0:0:0:
256,192,32009,1,4,0:0:0:0:
256,192,32342,1,12,0:0:0:0:
256,192,32675,1,12,0:0:0:0:
256,192,33009,1,12,0:0:0:0:
256,192,33342,1,4,0:0:0:0:
256,192,33509,1,4,0:0:0:0:
256,192,34175,1,8,0:0:0:0:
256,192,34259,1,8,0:0:0:0:
256,192,34342,1,8,0:0:0:0:
256,192,34509,1,0,0:0:0:0:
256,192,34675,1,8,0:0:0:0:
256,192,35009,1,4,0:0:0:0:
256,192,35342,1,8,0:0:0:0:
256,192,35842,1,0,0:0:0:0:
256,192,36009,1,8,0:0:0:0:
256,192,36342,1,0,0:0:0:0:
256,192,36509,1,0,0:0:0:0:
256,192,36675,1,8,0:0:0:0:
256,192,36842,1,0,0:0:0:0:
256,192,37009,1,0,0:0:0:0:
256,192,37342,1,8,0:0:0:0:
256,192,37675,1,0,0:0:0:0:
256,192,37842,1,0,0:0:0:0:
256,192,38009,1,8,0:0:0:0:
256,192,38509,1,0,0:0:0:0:
256,192,38675,1,8,0:0:0:0:
256,192,39009,1,0,0:0:0:0:
256,192,39175,1,0,0:0:0:0:
256,192,39342,1,8,0:0:0:0:
256,192,39509,1,8,0:0:0:0:
256,192,39675,1,0,0:0:0:0:
256,192,40009,1,8,0:0:0:0:
256,192,40342,1,0,0:0:0:0:
256,192,40509,1,0,0:0:0:0:
256,192,40675,1,8,0:0:0:0:
256,192,41175,1,0,0:0:0:0:
256,192,41342,1,8,0:0:0:0:
256,192,41675,1,0,0:0:0:0:
256,192,41842,1,0,0:0:0:0:
256,192,42009,1,8,0:0:0:0:
256,192,42175,1,8,0:0:0:0:
256,192,42342,1,8,0:0:0:0:
256,192,42675,1,0,0:0:0:0:
256,192,43009,1,8,0:0:0:0:
256,192,43175,1,0,0:0:0:0:
256,192,43342,1,8,0:0:0:0:
256,192,43509,1,0,0:0:0:0:
256,192,43675,1,8,0:0:0:0:
256,192,43842,1,0,0:0:0:0:
256,192,44009,1,8,0:0:0:0:
256,192,44342,1,0,0:0:0:0:
256,192,44509,1,8,0:0:0:0:
256,192,44592,1,8,0:0:0:0:
256,192,44675,1,8,0:0:0:0:
256,192,44842,1,0,0:0:0:0:
256,192,45009,1,8,0:0:0:0:
256,192,45675,1,4,0:0:0:0:
256,192,46009,1,8,0:0:0:0:
256,192,46175,1,0,0:0:0:0:
256,192,46342,1,8,0:0:0:0:
256,192,46509,1,8,0:0:0:0:
256,192,46675,1,0,0:0:0:0:
256,192,46759,1,0,0:0:0:0:
256,192,46842,1,0,0:0:0:0:
256,192,47009,1,8,0:0:0:0:
256,192,47342,1,8,0:0:0:0:
256,192,47509,1,0,0:0:0:0:
256,192,47675,1,8,0:0:0:0:
256,192,47759,1,8,0:0:0:0:
256,192,47842,1,8,0:0:0:0:
256,192,48009,1,0,0:0:0:0:
256,192,48175,1,8,0:0:0:0:
256,192,48509,1,0,0:0:0:0:
256,192,48675,1,8,0:0:0:0:
256,192,48842,1,0,0:0:0:0:
256,192,49009,1,8,0:0:0:0:
256,192,49092,1,8,0:0:0:0:
256,192,49175,1,8,0:0:0:0:
256,192,49342,1,0,0:0:0:0:
256,192,49509,1,8,0:0:0:0:
256,192,49675,1,0,0:0:0:0:
256,192,50009,1,8,0:0:0:0:
256,192,50342,1,8,0:0:0:0:
256,192,50509,1,8,0:0:0:0:
256,192,50675,1,8,0:0:0:0:
256,192,50842,1,8,0:0:0:0:
256,192,51009,1,0,0:0:0:0:
256,192,51342,1,8,0:0:0:0:
256,192,51509,1,0,0:0:0:0:
256,192,51675,1,8,0:0:0:0:
256,192,51842,1,8,0:0:0:0:
256,192,52009,1,0,0:0:0:0:
256,192,52092,1,0,0:0:0:0:
256,192,52175,1,0,0:0:0:0:
256,192,52342,1,8,0:0:0:0:
256,192,52675,1,0,0:0:0:0:
256,192,53009,1,8,0:0:0:0:
256,192,53175,1,8,0:0:0:0:
256,192,53342,1,0,0:0:0:0:
256,192,53675,1,8,0:0:0:0:
256,192,53842,1,0,0:0:0:0:
256,192,54009,1,8,0:0:0:0:
256,192,54175,1,0,0:0:0:0:
256,192,54342,1,8,0:0:0:0:
256,192,54509,1,0,0:0:0:0:
256,192,54675,1,8,0:0:0:0:
256,192,55009,1,8,0:0:0:0:
256,192,55251,1,0,0:0:0:0:
256,192,55493,1,0,0:0:0:0:
256,192,55736,1,8,0:0:0:0:
