osu file format v14

[General]
AudioFilename: audio.mp3
AudioLeadIn: 0
PreviewTime: -1
Countdown: 0
SampleSet: None
StackLeniency: 0.7
Mode: 0
LetterboxInBreaks: 0
WidescreenStoryboard: 0

[Editor]
Bookmarks: 109155,195871
DistanceSpacing: 0.8
BeatDivisor: 6
GridSize: 32
TimelineZoom: 2.199999

[Metadata]
Title:Armed to the Teeth
TitleUnicode:Armed to the Teeth
Artist:Simon Viklund
ArtistUnicode:Simon Viklund
Creator:LifeJumb
Version:Insane
Source:
Tags:
BeatmapID:1402401
BeatmapSetID:662532

[Difficulty]
HPDrainRate:6
CircleSize:4
OverallDifficulty:6
ApproachRate:9
SliderMultiplier:2.5
SliderTickRate:3

[Events]
//Background and Video events
0,0,"preview_39_1444366295_f5a2cd2ebf76c62a32adc57e94da7110.jpg",0,0
//Break Periods
2,139652,160836
//Storyboard Layer 0 (Background)
//Storyboard Layer 1 (Fail)
//Storyboard Layer 2 (Pass)
//Storyboard Layer 3 (Foreground)
//Storyboard Sound Samples

[TimingPoints]
676,458.008461538462,4,3,0,80,1,0
51444,-200,4,3,0,40,0,0
60377,-142.857142857143,4,3,0,40,0,0
79842,-125,4,1,0,60,0,0
95414,-111.111111111111,4,1,0,80,0,0
110071,-90.9090909090909,4,1,0,80,0,1
139452,-90.9090909090909,4,1,0,80,0,0
168696,-100,4,1,0,60,0,0
183352,-76.9230769230769,4,1,0,60,0,0
198008,-71.4285714285714,4,2,0,82,0,1
227321,-133.333333333333,4,3,0,50,0,0

[HitObjects]
195,124,51514,6,0,L|293:142,1,62.5
210,202,51972,1,0,0:0:0:0:
329,312,52354,1,0,0:0:0:0:
329,312,52430,2,0,L|231:294,1,62.5
305,228,52888,1,0,0:0:0:0:
298,65,53270,1,0,0:0:0:0:
298,65,53346,2,0,P|333:64|396:83,1,62.5
313,135,53804,1,0,0:0:0:0:
317,297,54186,5,0,0:0:0:0:
317,297,54262,2,0,P|357:315|413:307,1,62.5
375,235,54720,1,0,0:0:0:0:
294,224,54950,1,0,0:0:0:0:
346,162,55179,2,0,P|383:156|421:171,1,62.5
293,129,55637,2,0,P|323:140|345:161,1,62.5
345,215,56018,1,0,0:0:0:0:
345,215,56095,2,0,P|338:245|320:270,1,62.5
271,292,56476,5,0,0:0:0:0:
271,292,56553,2,0,P|226:297|195:286,1,62.5
238,216,57011,1,0,0:0:0:0:
173,167,57240,1,0,0:0:0:0:
218,137,57393,1,0,0:0:0:0:
218,137,57469,2,0,P|250:123|315:118,1,62.5,0|0,0:0|0:0,0:0:0:0:
352,147,57927,1,0,0:0:0:0:
400,212,58156,1,0,0:0:0:0:
359,248,58309,5,0,0:0:0:0:
359,248,58385,2,0,L|286:260,1,62.5
217,243,58843,1,0,0:0:0:0:
158,299,59073,1,0,0:0:0:0:
89,254,59302,2,0,P|115:227|154:217,1,62.5
125,138,59759,6,0,L|223:156,1,62.5
198,68,60217,1,0,0:0:0:0:
406,66,60599,1,0,0:0:0:0:
406,66,60675,2,0,L|361:155,1,87.499997329712
430,259,61133,1,0,0:0:0:0:
216,306,61515,1,0,0:0:0:0:
216,306,61591,2,0,P|183:269|176:229,1,87.499997329712
275,147,62049,1,0,0:0:0:0:
398,191,62278,5,0,0:0:0:0:
317,297,62431,1,0,0:0:0:0:
317,297,62507,2,0,P|357:315|425:303,1,87.499997329712
459,169,62965,1,0,0:0:0:0:
377,65,63195,1,0,0:0:0:0:
397,139,63424,2,0,P|354:138|318:115,1,87.499997329712
238,90,63881,2,0,P|281:115|341:105,1,87.499997329712
374,66,64263,1,0,0:0:0:0:
374,66,64339,2,0,P|338:43|295:42,1,87.499997329712
317,114,64721,5,0,0:0:0:0:
317,114,64797,2,0,P|354:138|397:139,1,87.499997329712
320,246,65256,1,0,0:0:0:0:
189,256,65485,1,0,0:0:0:0:
138,184,65638,1,0,0:0:0:0:
138,184,65714,2,0,P|170:170|235:165,1,62.5
218,158,65942,5,0,0:0:0:0:
243,150,66018,1,0,0:0:0:0:
268,142,66094,1,0,0:0:0:0:
293,133,66172,1,0,0:0:0:0:
252,230,66401,5,0,0:0:0:0:
252,230,66476,1,0,0:0:0:0:
252,230,66554,1,0,0:0:0:0:
252,230,66630,2,0,P|280:263|343:272,1,87.499997329712
321,202,67088,1,0,0:0:0:0:
388,229,67318,1,0,0:0:0:0:
388,229,67392,1,0,0:0:0:0:
388,229,67468,1,0,0:0:0:0:
388,229,67545,6,0,P|361:262|320:275,1,87.499997329712
370,148,68003,2,0,P|391:185|387:229,1,87.499997329712
321,202,68461,1,0,0:0:0:0:
288,136,68690,1,0,0:0:0:0:
288,136,68766,1,0,0:0:0:0:
288,136,68842,1,0,0:0:0:0:
288,136,68919,2,0,P|330:129|369:147,1,87.499997329712
322,316,69377,5,0,3:3:0:0:
302,304,69454,1,0,3:3:0:0:
286,288,69530,1,0,3:3:0:0:
272,271,69607,1,0,3:3:0:0:
263,250,69683,1,0,3:3:0:0:
255,229,69759,1,0,3:3:0:0:
251,210,69835,2,0,P|258:168|287:136,1,87.499997329712
321,202,70293,1,0,0:0:0:0:
99,166,70522,5,0,0:0:0:0:
99,166,70598,1,0,0:0:0:0:
99,166,70675,1,0,0:0:0:0:
99,166,70751,2,0,B|144:160|144:160|197:175,1,87.499997329712
216,298,71209,1,0,0:0:0:0:
184,171,71439,1,0,0:0:0:0:
184,171,71514,1,0,0:0:0:0:
184,171,71590,1,0,0:0:0:0:
184,171,71667,2,0,B|229:165|229:165|282:180,1,87.499997329712
355,181,72125,2,0,B|314:169|314:169|269:175,1,87.499997329712
437,266,72507,5,0,0:0:0:0:
437,266,72583,2,0,L|363:339,1,87.499997329712
271,292,72965,1,0,0:0:0:0:
271,292,73041,2,0,L|167:292,1,87.499997329712
317,163,73423,1,0,0:0:0:0:
317,163,73499,2,0,L|218:196,1,87.499997329712
360,72,73881,1,0,0:0:0:0:
360,72,73957,2,0,L|256:72,1,87.499997329712
372,258,74339,5,0,0:0:0:0:
372,258,74415,2,0,L|425:168,1,87.499997329712
237,215,74797,1,0,0:0:0:0:
237,215,74873,2,0,L|321:191,1,87.499997329712
142,261,75255,1,0,0:0:0:0:
142,261,75331,2,0,L|223:293,1,87.499997329712
60,184,75713,1,0,0:0:0:0:
60,184,75789,2,0,L|162:167,1,87.499997329712
320,130,76171,5,0,0:0:0:0:
320,130,76247,2,0,L|246:203,1,87.499997329712
195,130,76629,1,0,0:0:0:0:
195,130,76705,2,0,L|269:203,1,87.499997329712
343,219,77163,5,8,0:0:0:0:
279,264,77621,1,8,0:0:0:0:
264,82,78003,5,2,0:0:0:0:
320,132,78232,1,2,0:0:0:0:
379,177,78537,1,2,0:0:0:0:
439,225,78919,5,2,0:0:0:0:
379,177,79148,1,2,0:0:0:0:
320,132,79453,1,10,0:0:0:0:
277,139,79529,1,10,0:0:0:0:
236,157,79606,1,10,0:0:0:0:
195,172,79682,1,10,0:0:0:0:
156,192,79758,1,10,0:0:0:0:
117,213,79835,1,10,0:0:0:0:
94,226,79911,5,0,0:0:0:0:
201,278,80140,1,0,0:0:0:0:
345,248,80369,1,0,0:0:0:0:
278,281,80598,1,0,0:0:0:0:
251,88,80827,6,0,P|332:71|471:158,1,200
257,188,81438,1,0,0:0:0:0:
77,113,81591,1,0,0:0:0:0:
77,113,81667,1,0,0:0:0:0:
77,113,81743,2,0,P|133:232|195:284,1,200
259,214,82354,1,0,0:0:0:0:
408,242,82507,1,0,0:0:0:0:
408,242,82583,1,0,0:0:0:0:
408,242,82659,2,0,L|268:74,1,200
175,237,83270,1,0,0:0:0:0:
98,114,83423,1,0,0:0:0:0:
98,114,83499,1,0,0:0:0:0:
98,114,83575,2,0,L|288:201,1,200
142,235,84186,5,8,0:0:0:0:
311,273,84338,1,8,0:0:0:0:
186,321,84491,2,0,P|266:348|398:333,1,200
305,216,85102,1,0,0:0:0:0:
384,96,85254,1,0,0:0:0:0:
384,96,85331,1,0,0:0:0:0:
384,96,85407,2,0,B|277:100|277:100|160:128,1,200
266,254,86018,1,0,0:0:0:0:
439,296,86171,1,0,0:0:0:0:
439,296,86247,1,0,0:0:0:0:
439,296,86323,2,0,B|360:232|360:232|299:128,1,200
175,237,86934,1,0,0:0:0:0:
267,49,87087,1,0,0:0:0:0:
267,49,87163,1,0,0:0:0:0:
267,49,87239,2,0,B|361:94|361:94|412:178,1,200
258,142,87850,5,8,0:0:0:0:
420,216,88002,1,8,0:0:0:0:
155,161,88155,2,0,B|219:242|219:242|313:273,1,200
273,159,88766,1,0,0:0:0:0:
410,175,88918,1,0,0:0:0:0:
410,175,88995,1,0,0:0:0:0:
410,175,89071,2,0,B|361:94|361:94|267:49,1,200
211,204,89682,1,0,0:0:0:0:
364,236,89835,1,0,0:0:0:0:
364,236,89911,1,0,0:0:0:0:
364,236,89987,2,0,B|312:150|312:150|213:102,1,200
180,255,90598,1,0,0:0:0:0:
85,115,90751,1,0,0:0:0:0:
85,115,90827,1,0,0:0:0:0:
85,115,90903,2,0,L|273:211,1,200
209,94,91514,5,8,0:0:0:0:
228,269,91666,1,8,0:0:0:0:
374,340,91819,2,0,P|276:350|181:322,1,200
329,252,92430,1,0,0:0:0:0:
180,184,92582,1,0,0:0:0:0:
180,184,92659,1,0,0:0:0:0:
180,184,92735,2,0,P|275:155|374:166,1,200
162,100,93346,1,0,0:0:0:0:
181,322,93499,1,0,0:0:0:0:
181,322,93575,1,0,0:0:0:0:
181,322,93651,2,0,P|276:350|374:340,1,200
175,237,94262,1,0,0:0:0:0:
98,114,94415,1,0,0:0:0:0:
98,114,94491,1,0,0:0:0:0:
98,114,94567,2,0,L|288:201,1,200
142,235,95178,5,8,0:0:0:0:
247,80,95330,1,8,0:0:0:0:
382,82,95483,6,0,P|423:183|372:280,1,224.999993133545
209,244,96094,1,0,0:0:0:0:
311,171,96246,1,0,0:0:0:0:
348,40,96399,2,0,B|238:57|238:57|113:96,1,224.999993133545
279,138,97010,1,0,0:0:0:0:
160,193,97163,1,0,0:0:0:0:
346,315,97315,2,0,B|236:298|236:298|111:259,1,224.999993133545
290,217,97926,1,0,0:0:0:0:
251,110,98079,1,0,0:0:0:0:
461,211,98231,2,0,P|387:97|283:52,1,224.999993133545
280,50,98766,1,0,0:0:0:0:
250,50,98842,1,0,0:0:0:0:
220,55,98918,1,0,0:0:0:0:
90,131,99147,6,0,P|88:239|170:311,1,224.999993133545
175,165,99758,1,0,0:0:0:0:
200,224,99910,1,0,0:0:0:0:
212,79,100063,2,0,P|280:163|259:270,1,224.999993133545
396,160,100674,1,0,0:0:0:0:
310,92,100827,1,0,0:0:0:0:
341,289,100979,2,0,P|273:348|178:276,1,224.999993133545
206,110,101590,1,0,0:0:0:0:
261,267,101743,1,0,0:0:0:0:
274,68,101895,2,0,P|370:125|425:222,1,224.999993133545
424,221,102430,1,0,0:0:0:0:
424,221,102506,1,0,0:0:0:0:
424,221,102582,1,0,0:0:0:0:
242,259,102811,6,0,B|315:168|315:168|274:67,1,224.999993133545
199,150,103422,1,0,0:0:0:0:
121,230,103574,1,0,0:0:0:0:
274,67,103727,2,0,B|167:44|167:44|91:131,1,224.999993133545
279,138,104338,1,0,0:0:0:0:
160,193,104491,1,0,0:0:0:0:
318,320,104643,2,0,B|236:319|236:319|172:287|172:287|76:287,1,224.999993133545
292,170,105254,1,0,0:0:0:0:
139,121,105407,1,0,0:0:0:0:
320,238,105559,2,0,B|238:237|238:237|174:205|174:205|78:205,1,224.999993133545
80,184,106094,1,0,0:0:0:0:
81,154,106170,1,0,0:0:0:0:
97,129,106246,1,0,0:0:0:0:
102,205,106475,6,0,B|184:204|184:204|248:172|248:172|320:172,1,224.999993133545
467,174,107086,1,0,0:0:0:0:
361,276,107238,1,0,0:0:0:0:
343,97,107391,2,0,B|231:99|231:99|168:130|168:130|109:131,1,224.999993133545
308,156,108002,1,0,0:0:0:0:
222,179,108155,1,0,0:0:0:0:
124,129,108307,2,0,P|162:230|268:251,1,224.999993133545
342,300,108918,1,0,0:0:0:0:
340,153,109071,1,0,0:0:0:0:
124,129,109224,2,0,P|182:38|290:41,1,224.999993133545
313,60,109758,1,0,0:0:0:0:
334,80,109834,1,0,0:0:0:0:
351,104,109910,1,0,0:0:0:0:
85,129,110140,6,0,P|101:173|154:236,1,91.6666694641114
154,234,110369,1,0,3:0:0:0:
187,249,110445,1,0,3:0:0:0:
221,259,110521,1,0,3:0:0:0:
257,262,110598,1,0,3:0:0:0:
282,158,110750,1,0,0:0:0:0:
349,243,110903,1,0,0:0:0:0:
432,112,111056,2,0,P|397:80|321:47,1,91.6666694641114
322,55,111285,1,0,3:0:0:0:
287,61,111361,1,0,3:0:0:0:
253,71,111437,1,0,3:0:0:0:
222,89,111514,1,0,3:0:0:0:
309,150,111666,1,0,0:0:0:0:
240,207,111819,1,0,0:0:0:0:
458,185,111972,6,0,P|441:229|389:292,1,91.6666694641114
386,285,112201,1,0,3:0:0:0:
352,296,112277,1,0,3:0:0:0:
317,302,112353,1,0,3:0:0:0:
281,300,112430,1,0,3:0:0:0:
287,207,112582,1,0,0:0:0:0:
250,117,112735,1,0,0:0:0:0:
198,48,112888,6,0,P|153:64|91:116,1,91.6666694641114
94,124,113117,1,0,3:0:0:0:
80,162,113193,1,0,3:0:0:0:
77,203,113269,1,0,3:0:0:0:
84,243,113346,1,0,3:0:0:0:
104,278,113422,1,0,3:0:0:0:
135,304,113498,1,0,3:0:0:0:
169,318,113575,1,8,2:0:0:0:
221,196,113804,6,0,L|323:271,1,91.6666694641114
294,250,114033,1,0,3:0:0:0:
294,250,114109,1,0,3:0:0:0:
294,250,114185,1,0,3:0:0:0:
294,250,114262,1,0,3:0:0:0:
320,177,114414,1,0,0:0:0:0:
399,136,114567,1,0,0:0:0:0:
137,73,114720,2,0,L|255:25,1,91.6666694641114
221,39,114949,1,0,3:0:0:0:
221,39,115025,1,0,3:0:0:0:
221,39,115101,1,0,3:0:0:0:
221,39,115178,1,0,3:0:0:0:
199,142,115330,1,0,0:0:0:0:
196,297,115483,1,0,0:0:0:0:
339,256,115636,6,0,L|227:193,1,91.6666694641114
259,212,115865,1,0,3:0:0:0:
259,212,115941,1,0,3:0:0:0:
259,212,116017,1,0,3:0:0:0:
259,212,116094,1,0,3:0:0:0:
238,296,116246,1,0,0:0:0:0:
340,187,116399,1,0,0:0:0:0:
314,335,116552,6,0,P|358:319|421:267,1,91.6666694641114
418,260,116781,1,0,3:0:0:0:
432,222,116857,1,0,3:0:0:0:
435,180,116933,1,0,3:0:0:0:
428,141,117010,1,0,3:0:0:0:
408,106,117086,1,0,3:0:0:0:
377,80,117162,1,0,3:0:0:0:
342,67,117239,1,8,2:0:0:0:
118,71,117468,6,0,P|118:118|145:196,1,91.6666694641114
145,194,117697,1,0,0:0:0:0:
171,220,117773,1,0,0:0:0:0:
199,242,117849,1,0,0:0:0:0:
231,257,117926,1,0,0:0:0:0:
200,342,118078,1,0,0:0:0:0:
322,282,118231,1,0,0:0:0:0:
391,330,118384,2,0,P|409:286|413:204,1,91.6666694641114
407,207,118613,1,0,0:0:0:0:
389,176,118689,1,0,0:0:0:0:
368,147,118765,1,0,0:0:0:0:
341,124,118842,1,0,0:0:0:0:
416,82,118994,1,0,0:0:0:0:
294,59,119147,1,0,0:0:0:0:
458,185,119300,6,0,P|441:229|389:292,1,91.6666694641114
386,285,119529,1,0,0:0:0:0:
352,296,119605,1,0,0:0:0:0:
317,302,119681,1,0,0:0:0:0:
281,300,119758,1,0,0:0:0:0:
341,207,119910,1,0,0:0:0:0:
306,103,120063,1,0,0:0:0:0:
198,48,120216,6,0,P|153:64|91:116,1,91.6666694641114
94,123,120445,1,0,1:0:0:0:
79,161,120521,1,0,1:0:0:0:
77,203,120597,1,0,1:0:0:0:
84,243,120674,1,0,1:0:0:0:
104,278,120750,1,0,1:0:0:0:
134,304,120826,1,0,1:0:0:0:
168,316,120903,1,8,2:0:0:0:
101,289,121132,6,0,P|108:242|147:170,1,91.6666694641114
147,172,121361,1,0,3:0:0:0:
176,150,121437,1,0,3:0:0:0:
207,133,121513,1,0,3:0:0:0:
242,123,121590,1,0,3:0:0:0:
265,228,121742,1,0,0:0:0:0:
341,94,121895,1,0,0:0:0:0:
444,233,122048,2,0,P|417:272|349:320,1,91.6666694641114
349,312,122277,1,0,3:0:0:0:
313,313,122353,1,0,3:0:0:0:
278,310,122429,1,0,3:0:0:0:
244,299,122506,1,0,3:0:0:0:
341,227,122658,1,0,0:0:0:0:
250,200,122811,1,0,0:0:0:0:
455,156,122964,6,0,P|429:117|365:66,1,91.6666694641114
363,74,123193,1,0,3:0:0:0:
328,70,123269,1,0,3:0:0:0:
292,71,123345,1,0,3:0:0:0:
257,81,123422,1,0,3:0:0:0:
250,187,123574,1,0,0:0:0:0:
342,155,123727,1,0,0:0:0:0:
229,344,123880,6,0,P|181:338|110:300,1,91.6666694641114
111,292,124109,1,0,3:0:0:0:
90,257,124185,1,0,3:0:0:0:
78,218,124261,1,0,3:0:0:0:
77,177,124338,1,0,3:0:0:0:
89,139,124414,1,0,3:0:0:0:
114,107,124490,1,0,3:0:0:0:
145,87,124567,1,8,2:0:0:0:
220,195,124796,6,0,L|305:100,1,91.6666694641114
281,127,125025,1,0,3:0:0:0:
281,127,125101,1,0,3:0:0:0:
281,127,125177,1,0,3:0:0:0:
281,127,125254,1,0,3:0:0:0:
306,229,125406,1,0,0:0:0:0:
407,217,125559,1,0,0:0:0:0:
156,309,125712,2,0,L|281:331,1,91.6666694641114
245,324,125941,1,0,3:0:0:0:
245,324,126017,1,0,3:0:0:0:
245,324,126093,1,0,3:0:0:0:
245,324,126170,1,0,3:0:0:0:
174,228,126322,1,0,0:0:0:0:
139,75,126475,1,0,0:0:0:0:
323,112,126628,6,0,L|227:197,1,91.6666694641114
254,171,126857,1,0,3:0:0:0:
254,171,126933,1,0,3:0:0:0:
254,171,127009,1,0,3:0:0:0:
254,171,127086,1,0,3:0:0:0:
213,99,127238,1,0,0:0:0:0:
339,179,127391,1,0,0:0:0:0:
283,40,127544,6,0,P|329:46|401:84,1,91.6666694641114
400,91,127773,1,0,3:0:0:0:
421,126,127849,1,0,3:0:0:0:
433,166,127925,1,0,3:0:0:0:
434,206,128002,1,0,3:0:0:0:
422,244,128078,1,0,3:0:0:0:
397,276,128154,1,0,3:0:0:0:
368,299,128231,1,8,2:0:0:0:
146,339,128460,6,0,P|136:293|146:211,1,91.6666694641114
147,213,128689,1,0,0:0:0:0:
167,182,128765,1,0,0:0:0:0:
189,154,128841,1,0,0:0:0:0:
218,133,128918,1,0,0:0:0:0:
145,72,129070,1,0,0:0:0:0:
301,90,129223,1,0,0:0:0:0:
359,28,129376,2,0,P|386:68|407:147,1,91.6666694641114
400,145,129605,1,0,0:0:0:0:
389,179,129681,1,0,0:0:0:0:
374,212,129757,1,0,0:0:0:0:
353,240,129834,1,0,0:0:0:0:
465,242,129986,1,0,0:0:0:0:
317,303,130139,1,0,0:0:0:0:
455,156,130292,6,0,P|429:117|365:66,1,91.6666694641114
363,74,130521,1,0,0:0:0:0:
328,70,130597,1,0,0:0:0:0:
292,71,130673,1,0,0:0:0:0:
257,81,130750,1,0,0:0:0:0:
216,198,130902,1,0,0:0:0:0:
337,255,131055,1,0,0:0:0:0:
229,344,131208,2,0,P|181:338|110:300,1,91.6666694641114
111,293,131437,1,0,1:0:0:0:
89,259,131513,1,0,1:0:0:0:
78,218,131589,1,0,1:0:0:0:
77,177,131666,1,0,1:0:0:0:
89,139,131742,1,0,1:0:0:0:
113,107,131818,1,0,1:0:0:0:
145,89,131895,1,8,2:0:0:0:
333,267,132124,6,0,P|378:257|417:214,1,91.6666694641114
428,194,132353,2,0,L|435:127,3,45.8333347320557,0|0|0|0,3:0|3:0|3:0|3:0,3:0:0:0:
293,201,132735,1,0,0:0:0:0:
363,72,132887,1,0,0:0:0:0:
230,87,133040,2,0,P|183:104|131:88,1,91.6666694641114
111,99,133269,2,0,L|69:152,3,45.8333347320557,0|0|0|0,3:0|3:0|3:0|3:0,3:0:0:0:
265,163,133651,1,0,0:0:0:0:
162,317,133803,1,0,0:0:0:0:
369,301,133956,2,0,L|269:300,1,91.6666694641114
240,299,134185,2,0,L|168:299,3,45.8333347320557,0|0|0|0,3:0|3:0|3:0|3:0,3:0:0:0:
307,219,134567,1,0,0:0:0:0:
233,145,134719,1,0,0:0:0:0:
430,120,134872,6,0,L|357:177,1,91.6666694641114
376,208,135101,2,0,L|304:208,3,45.8333347320557,0|0|0|0,3:0|3:0|3:0|3:0,3:0:0:0:
323,243,135406,2,0,P|280:198|280:198,1,45.8333347320557,0|0,3:0|3:0,3:0:0:0:
189,331,135635,1,8,2:0:0:0:
179,117,135788,6,0,P|134:127|95:170,1,91.6666694641114
84,190,136017,2,0,L|77:257,3,45.8333347320557,0|0|0|0,3:0|3:0|3:0|3:0,3:0:0:0:
219,183,136399,1,0,0:0:0:0:
149,312,136551,1,0,0:0:0:0:
281,296,136704,2,0,P|335:310|380:295,1,91.6666694641114
402,284,136933,2,0,L|443:230,3,45.8333347320557,0|0|0|0,3:0|3:0|3:0|3:0,3:0:0:0:
247,221,137315,1,0,0:0:0:0:
350,67,137467,1,0,0:0:0:0:
143,83,137620,2,0,L|242:83,1,91.6666694641114
272,85,137849,2,0,L|344:85,3,45.8333347320557,0|0|0|0,3:0|3:0|3:0|3:0,3:0:0:0:
205,165,138231,1,0,0:0:0:0:
279,239,138383,1,0,0:0:0:0:
82,264,138536,6,0,L|155:207,1,91.6666694641114
136,176,138765,2,0,L|208:176,3,45.8333347320557,0|0|0|0,3:0|3:0|3:0|3:0,3:0:0:0:
189,141,139070,2,0,P|232:186|232:186,1,45.8333347320557,0|0,3:0|3:0,3:0:0:0:
248,149,139223,2,0,P|268:205|268:205,1,45.8333347320557,0|0,3:0|3:0,3:0:0:0:
167,308,139452,5,8,0:0:0:0:
256,192,161436,12,0,167849,0:0:0:0:
100,124,168765,6,0,P|108:208|228:328,1,250
293,215,169376,1,0,0:0:0:0:
352,330,169528,1,0,0:0:0:0:
217,324,169681,2,0,P|209:240|89:120,1,250
226,54,170292,1,0,0:0:0:0:
268,140,170444,1,0,0:0:0:0:
380,72,170597,2,0,B|380:148|380:148|432:220|432:220|432:332,1,250
279,301,171208,1,0,0:0:0:0:
196,194,171360,1,0,0:0:0:0:
304,92,171513,2,0,B|304:168|304:168|356:240|356:240|356:352,1,250
380,137,172124,5,8,0:0:0:0:
453,294,172276,1,8,0:0:0:0:
225,139,172429,2,0,P|257:263|384:327,1,250,2|0,0:0|0:0,0:0:0:0:
173,275,173040,1,0,0:0:0:0:
239,349,173192,1,0,0:0:0:0:
368,252,173345,2,0,B|296:224|288:188|291:153|303:133|308:116|292:98|272:64|224:66,1,250
211,179,173956,1,0,0:0:0:0:
211,179,174108,1,0,0:0:0:0:
122,56,174261,2,0,B|123:184|123:184|168:304,1,250
214,150,174872,1,0,0:0:0:0:
214,150,175024,1,0,0:0:0:0:
251,301,175177,2,0,B|294:187|294:187|295:59,1,250
363,211,175788,5,8,0:0:0:0:
459,52,175940,1,8,0:0:0:0:
276,164,176093,2,0,P|308:288|446:277,1,250,2|0,0:0|0:0,0:0:0:0:
330,130,176704,1,0,0:0:0:0:
427,196,176856,1,0,0:0:0:0:
454,70,177009,2,0,B|330:37|330:37|200:68,1,250
332,111,177620,1,0,0:0:0:0:
332,111,177772,1,0,0:0:0:0:
212,152,177925,2,0,B|331:181|331:181|455:148,1,250
387,237,178536,1,0,0:0:0:0:
361,52,178688,1,0,0:0:0:0:
454,148,178841,2,0,B|330:115|330:115|200:155,1,250
206,254,179452,5,8,0:0:0:0:
405,200,179604,1,8,0:0:0:0:
254,319,179757,2,0,P|126:256|200:173,1,250,2|0,0:0|0:0,0:0:0:0:
305,271,180368,1,0,0:0:0:0:
316,138,180520,1,0,0:0:0:0:
107,125,180674,2,0,P|219:141|205:253,1,250,2|0,0:0|0:0,0:0:0:0:
316,138,181284,1,0,0:0:0:0:
305,271,181436,1,0,0:0:0:0:
156,190,181590,2,0,P|142:302|254:319,1,250,2|0,0:0|0:0,0:0:0:0:
218,166,182200,1,0,0:0:0:0:
361,203,182353,1,0,0:0:0:0:
272,93,182505,2,0,B|344:129|344:129|320:138|294:145|256:191|268:272|347:284|357:274,1,250,2|0,0:0|0:0,0:0:0:0:
470,63,183116,5,8,0:0:0:0:
455,319,183269,1,8,0:0:0:0:
319,168,183421,6,0,B|355:202|355:202|353:292|353:292|307:336|307:336|217:335|217:335|134:250,1,324.999985122681
106,123,184032,2,0,B|116:145|116:145|159:159|159:159|173:188|173:188|216:203|216:203|230:232|230:232|265:244,1,216.666656748454
217,41,184490,5,0,0:0:0:0:
217,41,184566,1,0,0:0:0:0:
217,41,184643,1,0,0:0:0:0:
217,41,184719,1,0,0:0:0:0:
217,41,184796,2,0,B|287:74|287:74|319:138|319:138|383:170|383:170|415:234|415:234|391:312,1,324.999985122681
230,172,185406,1,8,0:0:0:0:
291,272,185559,1,8,0:0:0:0:
161,203,185712,1,8,0:0:0:0:
333,328,185864,1,8,0:0:0:0:
467,217,186017,2,8,B|408:224|408:224|308:180,1,108.333328374227
185,141,186628,5,2,2:0:0:0:
219,201,186857,1,2,2:0:0:0:
183,338,187086,6,0,B|139:290|139:290|150:219|150:219|99:168|99:168|110:97|110:97|73:59,1,324.999985122681
217,266,187696,2,0,B|232:192|232:192|176:140|176:140|189:55,1,216.666656748454
444,256,188154,5,0,0:0:0:0:
444,256,188230,1,0,0:0:0:0:
444,256,188307,1,0,0:0:0:0:
444,256,188383,1,0,0:0:0:0:
444,256,188459,2,0,B|384:256|384:256|288:288|288:288|192:288|192:288|57:244,1,324.999985122681
243,188,189070,1,8,0:0:0:0:
106,133,189223,1,8,0:0:0:0:
238,52,189377,1,8,0:0:0:0:
328,204,189528,1,8,0:0:0:0:
451,53,189681,2,8,B|350:142,1,108.333328374227
188,150,190293,5,2,2:0:0:0:
144,201,190522,1,2,2:0:0:0:
401,168,190749,6,0,P|346:333|190:290,1,324.999985122681
330,172,191360,2,0,P|353:245|241:186,1,216.666656748454
105,243,191818,5,0,0:0:0:0:
119,266,191894,1,0,0:0:0:0:
137,286,191971,1,0,0:0:0:0:
158,302,192047,1,0,0:0:0:0:
181,309,192124,2,0,B|222:259|222:259|321:237|321:237|387:160|387:160|485:138,1,324.999985122681
304,68,192734,1,8,0:0:0:0:
432,68,192887,1,8,0:0:0:0:
309,140,193040,1,8,0:0:0:0:
447,230,193192,1,8,0:0:0:0:
285,252,193345,2,8,P|333:282|408:287,1,108.333328374227
185,141,193956,5,2,2:0:0:0:
219,201,194185,1,2,2:0:0:0:
142,294,194414,6,0,B|179:268|179:268|247:289|247:289|305:246|305:246|374:266|374:266|428:230,1,324.999985122681
411,92,195024,1,0,0:0:0:0:
376,73,195100,1,0,0:0:0:0:
346,62,195177,2,2,L|234:120,1,108.333328374227
136,118,195482,5,0,0:0:0:0:
131,156,195558,1,0,0:0:0:0:
143,193,195635,1,0,0:0:0:0:
172,219,195711,1,0,0:0:0:0:
207,236,195787,1,0,0:0:0:0:
246,237,195864,1,0,0:0:0:0:
279,219,195940,1,0,0:0:0:0:
305,192,196016,1,0,0:0:0:0:
335,224,196093,6,2,P|313:287|274:313,1,108.333328374227
158,296,196398,1,8,0:0:0:0:
85,186,196551,1,8,0:0:0:0:
151,62,196705,1,8,0:0:0:0:
277,44,196856,1,8,0:0:0:0:
389,137,197009,2,10,P|367:200|328:226,1,108.333328374227
276,111,197621,5,2,2:0:0:0:
218,147,197850,1,2,2:0:0:0:
66,66,198077,6,0,P|99:143|345:189,1,349.999989318848,2|0,0:0|0:0,0:0:0:0:
187,37,198688,1,0,0:0:0:0:
395,129,198840,1,0,0:0:0:0:
66,66,198993,2,0,P|142:100|184:347,1,349.999989318848,2|0,0:0|0:0,0:0:0:0:
338,215,199604,1,0,0:0:0:0:
190,43,199756,1,0,0:0:0:0:
371,38,199909,2,0,B|371:151|371:151|467:215|467:215|467:343,1,349.999989318848,2|0,0:0|0:0,0:0:0:0:
219,319,200520,1,0,0:0:0:0:
112,136,200672,1,0,0:0:0:0:
256,45,200826,2,0,B|256:160|256:160|160:256|160:256|17:255,1,349.999989318848,2|0,0:0|0:0,0:0:0:0:
80,43,201436,5,8,0:0:0:0:
332,234,201588,1,8,0:0:0:0:
189,34,201741,2,0,B|130:125|130:125|130:253|130:253|194:349|194:349|226:349,1,349.999989318848,2|0,0:0|0:0,0:0:0:0:
285,68,202352,1,0,0:0:0:0:
296,304,202504,1,0,0:0:0:0:
382,46,202658,2,0,P|446:94|360:329,1,349.999989318848,2|0,0:0|0:0,0:0:0:0:
320,89,203268,1,0,0:0:0:0:
184,284,203421,1,0,0:0:0:0:
204,47,203574,2,0,P|127:68|123:319,1,349.999989318848,2|0,0:0|0:0,0:0:0:0:
386,126,204184,1,0,0:0:0:0:
192,189,204337,1,0,0:0:0:0:
480,160,204490,2,0,B|448:288|448:288|320:256|320:256|224:288,1,349.999989318848,2|0,0:0|0:0,0:0:0:0:
126,80,205100,5,8,0:0:0:0:
434,76,205252,1,8,0:0:0:0:
129,246,205405,2,0,B|158:205|158:205|208:224|208:224|241:181|241:181|291:200|291:200|324:157|324:157|375:176|375:176|408:133|408:133|449:153,1,349.999989318848,2|0,0:0|0:0,0:0:0:0:
397,331,206016,1,0,0:0:0:0:
278,65,206169,1,0,0:0:0:0:
481,200,206322,2,0,B|433:243|433:243|360:250|360:250|308:298|308:298|236:305|236:305|184:353,1,349.999989318848,2|0,0:0|0:0,0:0:0:0:
56,87,206932,1,0,0:0:0:0:
114,208,207085,1,0,0:0:0:0:
114,208,207238,2,0,B|162:188|162:188|268:110|268:110|399:92|399:92|518:44,1,349.999989318848,2|0,0:0|0:0,0:0:0:0:
373,324,207848,1,0,0:0:0:0:
431,79,208001,1,0,0:0:0:0:
431,79,208154,2,0,B|399:91|399:91|292:169|292:169|162:187|162:187|113:207,1,349.999989318848,2|0,0:0|0:0,0:0:0:0:
353,273,208764,5,8,0:0:0:0:
89,275,208916,1,8,0:0:0:0:
226,40,209069,2,0,B|235:51|235:51|288:57|288:57|298:110|298:110|352:116|352:116|361:169|361:169|415:175|415:175|425:228|425:228|474:232,1,349.999989318848,2|0,0:0|0:0,0:0:0:0:
191,260,209680,5,8,0:0:0:0:
383,345,209833,2,0,B|516:243,1,116.666663106283,2|0,0:0|0:0,0:0:0:0:
312,69,210138,1,8,0:0:0:0:
351,258,210291,2,0,B|439:132,1,116.666663106283
182,328,210596,1,8,0:0:0:0:
328,93,210749,2,0,B|291:203,1,116.666663106283,2|0,0:0|0:0,0:0:0:0:
212,42,211054,1,8,0:0:0:0:
198,274,211207,2,0,B|331:172,1,116.666663106283
53,162,211512,1,8,0:0:0:0:
393,256,211665,2,0,B|290:203,1,116.666663106283,2|0,0:0|2:0,0:0:0:0:
345,102,211970,5,8,0:0:0:0:
173,160,212123,1,8,0:0:0:0:
404,161,212276,1,8,0:0:0:0:
125,223,212428,1,10,0:0:0:0:
429,277,212581,1,10,0:0:0:0:
456,246,212734,2,0,P|395:186|150:236,1,349.999989318848,2|0,0:0|0:0,0:0:0:0:
345,87,213345,5,0,0:0:0:0:
67,151,213497,1,0,0:0:0:0:
238,39,213650,2,0,P|294:198|456:246,1,349.999989318848,2|0,0:0|0:0,0:0:0:0:
307,345,214261,1,0,0:0:0:0:
414,127,214413,1,0,0:0:0:0:
109,226,214566,2,0,P|286:261|461:245,1,349.999989318848,2|0,0:0|0:0,0:0:0:0:
406,106,215177,1,0,0:0:0:0:
248,329,215329,1,0,0:0:0:0:
355,47,215483,2,0,B|287:140|287:140|153:161|153:161|38:76,1,349.999989318848,2|0,0:0|0:0,0:0:0:0:
255,46,216093,5,8,0:0:0:0:
273,302,216245,1,8,0:0:0:0:
63,190,216398,2,0,B|136:243|136:243|334:209|334:209|375:151,1,349.999989318848,2|0,0:0|0:0,0:0:0:0:
132,111,217009,1,0,0:0:0:0:
309,313,217161,1,0,0:0:0:0:
391,40,217315,2,0,B|448:96|448:96|448:288|448:288|384:352,1,349.999989318848,2|0,0:0|0:0,0:0:0:0:
252,52,217925,1,0,0:0:0:0:
190,315,218078,1,0,0:0:0:0:
121,40,218230,2,0,B|64:96|64:96|64:288|64:288|128:352,1,349.999989318848,2|0,0:0|0:0,0:0:0:0:
301,91,218841,1,0,0:0:0:0:
262,317,218994,1,0,0:0:0:0:
70,115,219147,2,0,B|181:171|181:171|85:235|85:235|228:330,1,349.999989318848,2|0,0:0|0:0,0:0:0:0:
161,50,219757,5,8,0:0:0:0:
400,320,219909,1,8,0:0:0:0:
415,73,220062,2,0,B|416:122|416:122|364:138|364:138|363:192|363:192|312:207|312:207|311:261|311:261|260:276|260:276|259:330|259:330|215:339,1,349.999989318848,2|0,0:0|0:0,0:0:0:0:
62,194,220673,1,0,0:0:0:0:
278,65,220826,1,0,0:0:0:0:
67,113,220979,2,0,B|134:127|134:127|181:182|181:182|250:197|250:197|298:253|298:253|361:268,1,349.999989318848,2|0,0:0|0:0,0:0:0:0:
361,268,221589,1,0,0:0:0:0:
361,268,221742,1,0,0:0:0:0:
361,268,221894,2,0,B|313:224|313:224|240:215|240:215|189:166|189:166|117:158|117:158|67:110,1,349.999989318848,2|0,0:0|0:0,0:0:0:0:
256,337,222505,1,0,0:0:0:0:
257,36,222658,1,0,0:0:0:0:
151,268,222810,2,0,B|198:224|198:224|271:215|271:215|322:166|322:166|394:158|394:158|444:110,1,349.999989318848,2|0,0:0|0:0,0:0:0:0:
354,295,223421,5,8,0:0:0:0:
416,293,223573,1,8,0:0:0:0:
445,112,223726,2,0,B|377:127|377:127|330:182|330:182|261:197|261:197|213:253|213:253|151:268,1,349.999989318848,2|0,0:0|0:0,0:0:0:0:
257,82,224337,5,8,0:0:0:0:
262,318,224490,2,0,P|328:293|362:204,1,116.666663106283,2|0,0:0|0:0,0:0:0:0:
87,201,224795,1,8,0:0:0:0:
214,42,224947,1,8,0:0:0:0:
202,246,225100,1,8,0:0:0:0:
422,40,225253,1,8,0:0:0:0:
354,257,225405,2,0,P|420:232|454:143,1,116.666663106283,2|0,0:0|0:0,0:0:0:0:
182,170,225711,1,8,0:0:0:0:
444,109,225863,1,0,0:0:0:0:
117,189,226016,1,0,0:0:0:0:
308,46,226169,1,8,0:0:0:0:
354,257,226321,2,0,P|317:301|262:318,1,116.666663106283,2|0,0:0|0:0,0:0:0:0:
357,66,226627,5,8,0:0:0:0:
348,100,226780,1,8,0:0:0:0:
326,128,226933,1,8,0:0:0:0:
307,158,227085,1,10,0:0:0:0:
278,179,227238,1,10,0:0:0:0:
254,189,227391,5,14,0:0:0:0:
