osu file format v14

[General]
AudioFilename: audio.mp3
AudioLeadIn: 0
PreviewTime: 7978
Countdown: 0
SampleSet: Normal
StackLeniency: 0.7
Mode: 3
LetterboxInBreaks: 0
SpecialStyle: 0
WidescreenStoryboard: 0

[Editor]
DistanceSpacing: 0.6
BeatDivisor: 4
GridSize: 4
TimelineZoom: 1.2

[Metadata]
Title:Trailer!
TitleUnicode:Trailer!
Artist:Simon Felix
ArtistUnicode:Simon Felix
Creator:jakads
Version:Sayori [EZ]
Source:Doki Doki Literature Club!
Tags:DDLC Dan Salvato Team Salvato Kawawa
BeatmapID:1492470
BeatmapSetID:705675

[Difficulty]
HPDrainRate:7
CircleSize:9
OverallDifficulty:7
ApproachRate:5
SliderMultiplier:1.4
SliderTickRate:1

[Events]
//Background and Video events
Video,0,"Doki Doki Literature Club! Trailer.mp4"
0,0,"Sayori.png",0,0
//Break Periods
//Storyboard Layer 0 (Background)
//Storyboard Layer 1 (Fail)
//Storyboard Layer 2 (Pass)
//Storyboard Layer 3 (Foreground)
//Storyboard Sound Samples

[TimingPoints]
3876,512.820512820513,4,1,1,40,1,0
44773,-100,4,1,1,40,0,1
44901,-100,4,1,1,40,0,0

[HitObjects]
312,192,3875,128,0,4260:0:0:0:30:Crash1.wav
28,192,4260,128,0,4645:0:0:0:70:Kick.wav
369,192,4645,128,0,5029:0:0:0:30:Crash2.wav
85,192,5029,128,0,5414:0:0:0:70:Kick.wav
426,192,5414,128,0,5670:0:0:0:70:Snare.wav
142,192,5670,1,0,0:0:0:70:Snare.wav
199,192,5927,1,0,0:0:0:30:Crash1.wav
483,192,5927,128,0,7978:0:0:0:70:Kick.wav
256,192,7978,1,0,0:0:0:70:Kick.wav
142,192,7978,1,0,0:0:0:0:
142,192,8491,1,4,0:0:0:70:Rim.wav
369,192,9004,1,0,0:0:0:70:Kick.wav
369,192,9517,1,0,0:0:0:70:Rim.wav
142,192,9773,1,0,0:0:0:70:Kick.wav
256,192,10029,1,0,0:0:0:70:Kick.wav
256,192,10542,1,0,0:0:0:70:Rim.wav
483,192,10799,1,0,0:0:0:0:
369,192,11055,1,0,0:0:0:70:Kick.wav
369,192,11568,1,0,0:0:0:70:Rim.wav
256,192,11824,1,0,0:0:0:70:Kick.wav
142,192,12081,1,0,0:0:0:70:Kick.wav
426,192,12593,128,0,14132:0:0:0:30:Crash1.wav
312,192,12593,1,0,0:0:0:0:
28,192,13106,1,0,0:0:0:70:Kick.wav
142,192,13619,1,0,0:0:0:70:Rim.wav
28,192,13876,1,0,0:0:0:70:Kick.wav
142,192,14132,128,0,14645:0:0:0:70:Kick.wav
369,192,14645,128,0,15158:0:0:0:70:Rim.wav
426,192,15158,1,0,0:0:0:70:Kick.wav
312,192,15414,1,0,0:0:0:70:Kick.wav
85,192,15670,1,0,0:0:0:70:Rim.wav
199,192,15927,1,0,0:0:0:70:Kick.wav
369,192,16183,1,0,0:0:0:70:Kick.wav
256,192,16183,128,0,18234:0:0:0:0:
369,192,16696,1,0,0:0:0:70:Rim.wav
142,192,17209,1,0,0:0:0:70:Kick.wav
142,192,17722,1,0,0:0:0:70:Rim.wav
369,192,17978,1,0,0:0:0:70:Kick.wav
85,192,18234,1,0,0:0:0:70:Kick.wav
85,192,18747,1,0,0:0:0:70:Rim.wav
426,192,19004,1,0,0:0:0:0:
256,192,19260,1,0,0:0:0:70:Kick.wav
256,192,19773,1,0,0:0:0:70:Rim.wav
142,192,20029,1,0,0:0:0:70:Kick.wav
369,192,20286,1,0,0:0:0:70:Kick.wav
85,192,20799,128,0,22337:0:0:0:70:Rim.wav
483,192,21311,1,0,0:0:0:70:Kick.wav
142,192,21824,128,0,22337:0:0:0:70:Rim.wav
483,192,22081,1,0,0:0:0:70:Kick.wav
369,192,22337,128,0,22850:0:0:0:70:Kick.wav
142,192,22850,128,0,23363:0:0:0:70:Rim.wav
85,192,23363,1,0,0:0:0:70:Kick.wav
199,192,23619,1,0,0:0:0:70:Kick.wav
312,192,23876,1,0,0:0:0:70:Rim.wav
426,192,24132,1,0,0:0:0:70:Kick.wav
28,192,24388,1,0,0:0:0:30:Crash2.wav
256,192,24388,1,0,0:0:0:70:Kick.wav
85,192,24901,1,0,0:0:0:70:Rim.wav
312,192,25414,1,0,0:0:0:70:Kick.wav
256,192,25927,1,0,0:0:0:70:Rim.wav
142,192,26183,1,0,0:0:0:70:Kick.wav
369,192,26440,1,0,0:0:0:70:Kick.wav
426,192,26952,1,0,0:0:0:70:Rim.wav
199,192,27209,1,0,0:0:0:0:
312,192,27465,1,0,0:0:0:70:Kick.wav
483,192,27978,1,0,0:0:0:70:Rim.wav
369,192,28234,1,0,0:0:0:70:Kick.wav
256,192,28491,1,0,0:0:0:70:Kick.wav
85,192,29004,1,0,0:0:0:30:Crash1.wav
426,192,29004,1,0,0:0:0:70:Rim.wav
199,192,29517,1,0,0:0:0:70:Kick.wav
312,192,30029,1,0,0:0:0:70:Rim.wav
199,192,30286,1,0,0:0:0:70:Kick.wav
426,192,30542,128,0,31055:0:0:0:70:Kick.wav
85,192,31055,128,0,31568:0:0:0:70:Rim.wav
483,192,31568,1,0,0:0:0:70:Kick.wav
142,192,31824,1,0,0:0:0:70:Kick.wav
256,192,32081,1,0,0:0:0:70:Rim.wav
369,192,32337,1,0,0:0:0:70:Kick.wav
28,192,32593,1,0,0:0:0:70:Kick.wav
256,192,33106,1,0,0:0:0:70:Rim.wav
85,192,33619,1,0,0:0:0:70:Kick.wav
312,192,34132,1,0,0:0:0:70:Rim.wav
142,192,34388,1,0,0:0:0:70:Kick.wav
369,192,34645,1,0,0:0:0:70:Kick.wav
199,192,35158,1,0,0:0:0:70:Rim.wav
426,192,35414,1,0,0:0:0:0:
256,192,35670,1,0,0:0:0:70:Kick.wav
483,192,36183,1,0,0:0:0:70:Rim.wav
312,192,36440,1,0,0:0:0:70:Kick.wav
28,192,36696,1,0,0:0:0:70:Kick.wav
142,192,37209,1,0,0:0:0:30:Crash1.wav
369,192,37209,1,0,0:0:0:70:Rim.wav
483,192,37593,128,0,38491:0:0:0:0:
28,192,37722,1,0,0:0:0:70:Kick.wav
199,192,38234,1,0,0:0:0:70:Rim.wav
312,192,38491,1,0,0:0:0:70:Kick.wav
28,192,38747,1,0,0:0:0:70:Kick.wav
28,192,39004,1,0,0:0:0:0:
142,192,39260,1,0,0:0:0:70:Rim.wav
142,192,39517,1,0,0:0:0:0:
256,192,39773,1,0,0:0:0:70:Kick.wav
256,192,40029,1,0,0:0:0:0:
369,192,40286,1,0,0:0:0:70:Rim.wav
369,192,40542,1,0,0:0:0:70:Kick.wav
85,192,40799,1,0,0:0:0:70:Kick.wav
85,192,41055,1,0,0:0:0:0:
199,192,41311,1,0,0:0:0:30:Crash1.wav
199,192,41568,1,0,0:0:0:0:
312,192,41824,1,0,0:0:0:70:Kick.wav
312,192,42081,1,0,0:0:0:0:
426,192,42337,1,0,0:0:0:70:Rim.wav
426,192,42593,1,0,0:0:0:70:Kick.wav
142,192,42850,1,0,0:0:0:70:Kick.wav
142,192,43106,1,0,0:0:0:0:
256,192,43363,1,0,0:0:0:30:Crash1.wav
256,192,43619,1,0,0:0:0:0:
369,192,43876,1,0,0:0:0:70:Kick.wav
369,192,44132,1,0,0:0:0:70:Kick.wav
483,192,44388,1,0,0:0:0:70:Snare.wav
28,192,44517,1,0,0:0:0:70:Snare.wav
142,192,44773,1,0,0:0:0:50:CrashShort.wav
369,192,44773,1,0,0:0:0:70:Kick.wav
