osu file format v14

[General]
AudioFilename: audio.mp3
AudioLeadIn: 0
PreviewTime: 8513
Countdown: 0
SampleSet: Soft
StackLeniency: 0.7
Mode: 2
LetterboxInBreaks: 0
WidescreenStoryboard: 1

[Editor]
Bookmarks: 38769,40804,42855
DistanceSpacing: 2
BeatDivisor: 4
GridSize: 4
TimelineZoom: 1.7

[Metadata]
Title:Trailer!
TitleUnicode:Trailer!
Artist:Simon Felix
ArtistUnicode:Simon Felix
Creator:Kukkai
Version:Cup
Source:Doki Doki Literature Club!
Tags:Natsuki Yuri Sayori Monika main theme DDLC Dan Team Salvato Video Game Instrumental vg vgm ost original official soundtrack visual novel vn
BeatmapID:2041049
BeatmapSetID:726274

[Difficulty]
HPDrainRate:3
CircleSize:2.5
OverallDifficulty:6
ApproachRate:6
SliderMultiplier:1.8
SliderTickRate:1

[Events]
//Background and Video events
Video,-4,"Doki Doki Literature Club! Trailer.mp4"
0,0,"bg.png",0,0
//Break Periods
//Storyboard Layer 0 (Background)
//Storyboard Layer 1 (Fail)
//Storyboard Layer 2 (Pass)
//Storyboard Layer 3 (Foreground)
//Storyboard Layer 4 (Overlay)
//Storyboard Sound Samples

[TimingPoints]
3894,512.820512820513,4,2,1,70,1,0
7996,-90.9090909090909,4,2,1,50,0,0
24406,-90.9090909090909,4,2,1,50,0,0
38765,-90.9090909090909,4,2,1,55,0,0
40817,-90.9090909090909,4,2,1,60,0,0
42868,-90.9090909090909,4,2,1,65,0,0
43381,-90.9090909090909,4,2,1,70,0,0
43894,-90.9090909090909,4,2,1,75,0,0
44406,-90.9090909090909,4,2,1,80,0,0
44791,-90.9090909090909,4,2,1,90,0,0

[Colours]
Combo1 : 158,129,177
Combo2 : 216,148,182
Combo3 : 218,156,143

[HitObjects]
368,312,3893,6,0,L|368:244,1,45,8|8,0:1|0:1,0:0:0:0:
144,264,4663,2,0,L|144:192,1,45,8|8,0:1|0:1,0:0:0:0:
368,208,5432,2,0,L|432:208,2,45,8|8|8,0:1|0:1|0:1,0:0:0:0:
256,208,5945,5,4,0:2:0:0:
256,192,6458,12,2,7996,0:0:0:0:
364,228,8509,5,10,0:2:0:0:
264,228,8765,1,0,0:2:0:0:
164,232,9022,2,0,P|124:176|184:56,1,198.000006042481,2|10,0:2|0:2,0:0:0:0:
364,68,10047,6,0,P|404:140|356:248,1,198.000006042481,2|10,0:2|0:2,0:0:0:0:
264,244,10817,1,2,0:2:0:0:
164,244,11073,1,2,0:2:0:0:
364,241,11586,2,0,L|464:240,2,99.0000030212403,10|2|2,0:2|0:2|0:2,0:0:0:0:
128,340,12611,6,0,P|68:304|156:52,1,396.000012084961,14|10,0:2|0:2,0:0:0:0:
248,52,13894,1,0,0:2:0:0:
348,52,14150,6,0,L|348:256,1,198.000006042481,2|0,0:2|0:0,0:0:0:0:
148,252,15176,2,0,L|32:252,2,99.0000030212403,2|2|10,0:2|0:2|0:2,0:0:0:0:
388,328,16201,6,0,P|404:264|376:120,1,198.000006042481,2|10,0:2|0:2,0:0:0:0:
284,140,16970,1,0,0:2:0:0:
184,140,17227,2,0,L|412:140,1,198.000006042481,2|10,0:2|0:2,0:0:0:0:
480,140,17996,1,2,0:2:0:0:
382,140,18252,6,0,L|172:144,1,198.000006042481,2|10,0:2|0:2,0:0:0:0:
284,140,19022,1,2,0:2:0:0:
383,140,19278,1,2,0:2:0:0:
184,100,19791,1,10,0:2:0:0:
85,100,20047,1,2,0:2:0:0:
85,100,20304,1,2,0:2:0:0:
332,352,20817,6,0,P|432:192|312:36,1,396.000012084961,10|10,0:2|0:2,0:0:0:0:
228,44,22099,1,2,0:2:0:0:
128,48,22355,6,0,L|128:252,1,198.000006042481,2|10,0:2|0:2,0:0:0:0:
328,244,23381,1,2,0:2:0:0:
228,244,23637,1,2,0:2:0:0:
128,246,23894,1,10,0:2:0:0:
228,244,24150,1,2,0:2:0:0:
328,244,24406,6,0,P|348:188|304:44,1,198.000006042481,6|10,0:2|0:2,0:0:0:0:
216,60,25176,1,0,0:2:0:0:
116,60,25432,1,2,0:2:0:0:
312,64,25945,6,0,L|436:64,2,99.0000030212403,10|2|2,0:2|0:2|0:2,0:0:0:0:
112,68,26970,2,0,L|112:192,1,99.0000030212403,10|2,0:2|0:2,0:0:0:0:
212,168,27483,1,2,0:2:0:0:
408,344,27996,6,0,L|408:144,1,198.000006042481,10|2,0:2|0:2,0:0:0:0:
308,148,28765,1,0,0:2:0:0:
208,144,29022,2,0,L|208:224,1,49.5000015106202,14|0,0:2|0:2,0:0:0:0:
308,192,29406,1,0,0:2:0:0:
356,164,29535,2,0,L|356:368,1,198.000006042481,2|10,0:2|0:2,0:0:0:0:
112,288,30560,6,0,P|96:236|136:88,1,198.000006042481,2|10,0:2|0:2,0:0:0:0:
324,100,31586,1,2,0:2:0:0:
424,100,31842,1,2,0:2:0:0:
424,100,32099,1,10,0:2:0:0:
180,328,32611,6,0,P|144:280|204:152,1,198.000006042481,2|10,0:2|0:2,0:0:0:0:
284,156,33381,1,0,0:2:0:0:
384,152,33637,2,0,L|164:152,1,198.000006042481,2|10,0:2|0:2,0:0:0:0:
88,152,34406,1,2,0:2:0:0:
186,152,34663,6,0,L|404:152,1,198.000006042481,2|10,0:2|0:2,0:0:0:0:
284,160,35432,1,0,0:0:0:0:
188,272,35688,2,0,P|144:227|203:116,1,198.000006042481
392,116,36714,5,0,0:0:0:0:
392,116,36970,1,0,0:2:0:0:
272,52,37227,2,0,L|214:52,1,49.5000015106202,14|0,0:2|0:2,0:0:0:0:
324,360,37611,1,0,0:2:0:0:
372,360,37740,2,0,L|372:144,1,198.000006042481,2|10,0:2|0:2,0:0:0:0:
196,328,38765,6,0,P|160:280|212:152,1,198.000006042481,2|10,0:2|0:2,0:2:0:0:
300,160,39535,1,0,0:0:0:0:
397,159,39791,2,0,L|161:159,1,198.000006042481,2|10,0:2|0:2,0:2:0:0:
432,336,40817,6,0,P|484:264|408:188,1,198.000006042481,2|14,0:2|0:2,0:0:0:0:
324,188,41586,1,0,0:0:0:0:
226,189,41842,2,0,L|454:189,1,198.000006042481,2|10,0:2|0:2,0:0:0:0:
192,360,42868,6,0,P|144:332|208:228,1,198.000006042481,2|14,0:2|0:2,0:0:0:0:
292,216,43637,1,0,0:0:0:0:
392,216,43894,6,0,L|272:216,1,99.0000030212403,2|2,0:2|0:2,0:0:0:0:
192,208,44406,2,0,L|192:136,1,49.5000015106202,8|8,0:1|0:1,0:0:0:0:
316,168,44791,1,6,0:2:0:0:
