osu file format v14

[General]
AudioFilename: audio.mp3
AudioLeadIn: 0
PreviewTime: 15
Countdown: 0
SampleSet: None
StackLeniency: 0.4
Mode: 0
LetterboxInBreaks: 0
CountdownOffset: 3
WidescreenStoryboard: 1

[Editor]
DistanceSpacing: 1.1
BeatDivisor: 5
GridSize: 4
TimelineZoom: 1

[Metadata]
Title:Subnautica-Abandon Ship
TitleUnicode:Subnautica-Abandon Ship
Artist:Simon Chylinski
ArtistUnicode:Simon Chylinski
Creator:ElPanaVOsu
Version:Stalker
Source:Subnautica
Tags:Subnautica Abandon Ship
BeatmapID:4560575
BeatmapSetID:2162570

[Difficulty]
HPDrainRate:6
CircleSize:4
OverallDifficulty:7
ApproachRate:6
SliderMultiplier:1.99999990463257
SliderTickRate:1

[Events]
//Background and Video events
Video,-3000,"Subnautica - Abandon Ship (Music Video) Remix.mp4"
0,0,"Subnautica - All Codes for the Aurora.jpg",0,0
//Break Periods
//Storyboard Layer 0 (Background)
//Storyboard Layer 1 (Fail)
//Storyboard Layer 2 (Pass)
//Storyboard Layer 3 (Foreground)
//Storyboard Layer 4 (Overlay)
//Storyboard Sound Samples

[TimingPoints]
918.486107583157,428.265524625268,4,1,0,100,1,0
14584.7259299229,-100,4,1,0,100,0,0
14585.6074844517,-100,4,1,0,100,0,0
14586.2655280423,428.265524625268,4,1,0,100,1,0
14587.2510975224,-100,4,1,0,100,0,0
14609.8573479964,-100,4,1,0,100,0,0

[Colours]
Combo1 : 45,60,238
Combo2 : 38,164,164
Combo3 : 19,166,253
Combo4 : 0,32,159

[HitObjects]
255,190,856,5,0,0:0:0:0:
110,250,1261,2,0,B|155:269|200:289|245:284|287:283|327:266|348:253,1,239.999988555908
259,87,2121,1,0,0:0:0:0:
259,276,2552,1,0,0:0:0:0:
348,182,2988,1,0,0:0:0:0:
213,178,3402,2,0,B|165:127|177:98|219:69|271:59|342:63,1,239.999988555908
89,253,4344,5,0,0:0:0:0:
204,150,4772,1,0,0:0:0:0:
323,95,5201,5,0,0:0:0:0:
455,147,5629,1,0,0:0:0:0:
324,185,6057,1,0,0:0:0:0:
156,180,6485,1,0,0:0:0:0:
134,84,6914,2,0,B|336:108,2,199.999990463257
145,170,8199,1,0,0:0:0:0:
484,57,8627,1,0,0:0:0:0:
322,233,9055,1,0,0:0:0:0:
360,74,9398,1,0,0:0:0:0:
128,225,9826,1,0,0:0:0:0:
355,324,10340,1,0,0:0:0:0:
307,137,10714,1,0,0:0:0:0:
387,270,11196,1,0,0:0:0:0:
207,148,11552,1,0,0:0:0:0:
354,92,11967,5,0,0:0:0:0:
280,294,12427,1,0,0:0:0:0:
140,178,12909,1,0,0:0:0:0:
235,181,13338,1,0,0:0:0:0:
353,182,13766,1,0,0:0:0:0:
255,287,14194,1,0,0:0:0:0:
255,104,14657,5,0,0:0:0:0:
91,143,15014,1,0,0:0:0:0:
159,215,15442,1,0,0:0:0:0:
266,215,15871,1,0,0:0:0:0:
200,140,16299,2,0,L|49:160,2,149.999990463257
126,238,17584,1,0,0:0:0:0:
147,131,18012,5,0,0:0:0:0:
260,141,18440,1,0,0:0:0:0:
202,248,18868,2,0,P|293:273|351:261,2,149.999990463257
270,283,20153,2,0,B|176:274|137:222|128:197,1,149.999990463257
261,193,21010,6,0,P|309:188|417:210,2,149.999990463257
72,77,22295,2,0,B|54:110|48:177|61:230|78:230,1,149.999990463257
146,126,23151,2,0,B|166:105|197:88|234:93|272:100|307:114|307:115,2,149.999990463257
435,258,24436,1,0,0:0:0:0:
256,192,24864,12,0,28290,0:0:0:0:
173,205,28719,5,0,0:0:0:0:
57,203,29147,1,0,0:0:0:0:
241,287,29575,1,0,0:0:0:0:
183,97,30003,1,0,0:0:0:0:
133,173,30432,5,0,0:0:0:0:
242,136,30860,2,0,P|388:132|403:136,1,149.999990463257
202,234,31716,1,0,0:0:0:0:
254,107,32145,6,0,B|310:155|319:210|276:239,1,149.999990463257
214,244,33001,2,0,B|176:237|148:212|144:175|152:140|174:123|181:121,4,149.999990463257
57,253,35143,5,0,0:0:0:0:
371,321,35571,1,0,0:0:0:0:
156,144,35999,2,0,P|302:96|305:96,1,149.999990463257
272,249,36856,1,0,0:0:0:0:
240,248,37284,1,0,0:0:0:0:
211,230,37626,1,0,0:0:0:0:
290,132,37712,5,0,0:0:0:0:
318,137,37783,1,0,0:0:0:0:
345,143,37855,1,0,0:0:0:0:
422,298,38140,1,0,0:0:0:0:
88,270,38569,1,0,0:0:0:0:
140,59,38997,2,0,L|300:57,1,149.999990463257
293,217,39853,2,0,L|414:310,1,149.999990463257
459,40,40710,6,0,B|426:34|385:36|356:71|372:114|396:141|408:119,1,149.999990463257
217,237,41566,2,0,B|264:244|288:271|258:307|228:323|187:331|188:321,1,149.999990463257
117,113,42423,1,0,0:0:0:0:
300,185,42851,1,0,0:0:0:0:
210,130,43280,6,0,P|374:107|375:107,1,149.999990463257
207,234,44136,1,0,0:0:0:0:
392,276,44564,1,0,0:0:0:0:
86,102,44993,1,0,0:0:0:0:
412,338,45421,1,0,0:0:0:0:
171,183,45849,6,0,P|333:182|344:179,1,174.999988873799
255,118,46706,1,0,0:0:0:0:
155,251,47134,1,0,0:0:0:0:
179,113,47562,1,0,0:0:0:0:
324,105,47990,2,0,L|222:243,2,149.999990463257
452,132,49275,5,0,0:0:0:0:
253,172,49632,1,0,0:0:0:0:
59,238,50132,1,0,0:0:0:0:
382,324,50560,1,0,0:0:0:0:
245,126,50988,1,0,0:0:0:0:
88,178,51417,1,0,0:0:0:0:
136,259,51488,1,0,0:0:0:0:
83,288,51559,1,0,0:0:0:0:
258,237,51845,5,0,0:0:0:0:
123,119,52273,1,0,0:0:0:0:
284,328,52701,2,0,L|441:327,1,149.999990463257
181,158,53558,1,0,0:0:0:0:
158,282,53986,1,0,0:0:0:0:
191,82,54414,1,0,0:0:0:0:
294,239,54843,2,0,P|414:146|423:141,1,149.999990463257
255,77,55699,5,0,0:0:0:0:
255,191,56556,1,0,0:0:0:0:
353,107,57412,1,0,0:0:0:0:
155,145,57841,1,0,0:0:0:0:
309,257,58269,1,0,0:0:0:0:
183,254,58697,1,0,0:0:0:0:
255,191,59125,1,0,0:0:0:0:
161,119,59982,5,0,0:0:0:0:
255,191,60838,1,0,0:0:0:0:
301,191,60924,1,0,0:0:0:0:
211,191,61010,1,0,0:0:0:0:
255,145,61095,1,0,0:0:0:0:
292,278,61267,1,0,0:0:0:0:
143,243,61695,1,0,0:0:0:0:
360,196,62123,1,0,0:0:0:0:
205,83,62552,1,0,0:0:0:0:
255,191,63408,5,0,0:0:0:0:
255,191,64265,1,0,0:0:0:0:
332,179,64336,1,0,0:0:0:0:
157,179,64407,1,0,0:0:0:0:
255,191,64693,1,0,0:0:0:0:
255,191,65121,1,0,0:0:0:0:
255,191,65549,1,0,0:0:0:0:
255,191,65978,1,0,0:0:0:0:
257,195,66834,1,0,0:0:0:0:
255,186,67691,5,0,0:0:0:0:
255,186,68119,1,0,0:0:0:0:
255,186,68547,5,0,0:0:0:0:
255,186,68975,1,0,0:0:0:0:
255,186,69404,5,4,0:0:0:0:
126,88,70260,1,0,0:0:0:0:
383,90,71117,1,0,0:0:0:0:
383,90,71545,1,0,0:0:0:0:
335,82,71631,1,0,0:0:0:0:
428,101,71716,1,0,0:0:0:0:
373,137,71802,1,0,0:0:0:0:
383,90,71973,1,0,0:0:0:0:
383,90,72402,1,0,0:0:0:0:
383,90,72830,1,0,0:0:0:0:
385,281,73686,5,0,0:0:0:0:
124,282,74543,1,0,0:0:0:0:
124,282,74971,1,0,0:0:0:0:
124,282,75399,1,0,0:0:0:0:
124,282,75828,1,0,0:0:0:0:
124,282,76256,1,0,0:0:0:0:
358,277,76684,1,0,0:0:0:0:
115,90,77113,6,0,B|154:141|199:160|256:155|290:112|310:91,2,199.999990463257
371,90,78397,1,0,0:0:0:0:
371,90,78826,1,0,0:0:0:0:
371,90,79254,1,0,0:0:0:0:
379,148,79682,1,0,0:0:0:0:
256,187,80539,6,0,P|137:89|132:89,1,149.999990463257
89,129,81395,2,0,P|132:212|185:243,4,149.999990463257
257,190,83965,5,0,0:0:0:0:
121,117,84821,5,0,0:0:0:0:
142,119,85250,1,0,0:0:0:0:
156,122,85678,1,0,0:0:0:0:
151,201,86106,1,0,0:0:0:0:
98,119,86534,1,0,0:0:0:0:
368,99,87391,5,0,0:0:0:0:
158,113,88247,1,0,0:0:0:0:
187,184,88676,1,0,0:0:0:0:
224,117,89104,1,0,0:0:0:0:
272,57,89532,1,0,0:0:0:0:
278,117,89960,1,0,0:0:0:0:
258,192,90817,5,0,0:0:0:0:
311,239,91674,1,0,0:0:0:0:
207,191,92102,1,0,0:0:0:0:
200,131,92530,1,0,0:0:0:0:
259,127,92958,1,0,0:0:0:0:
259,236,93387,1,0,0:0:0:0:
256,192,94172,12,0,100239,0:0:0:0:
