osu file format v14

[General]
AudioFilename: audio.mp3
AudioLeadIn: 0
PreviewTime: 30008
Countdown: 0
SampleSet: Normal
StackLeniency: 0.7
Mode: 0
LetterboxInBreaks: 0
WidescreenStoryboard: 0

[Editor]
DistanceSpacing: 0.8
BeatDivisor: 4
GridSize: 4
TimelineZoom: 1

[Metadata]
Title:Abandon Ship
TitleUnicode:Abandon Ship
Artist:Simon Chylinski
ArtistUnicode:Simon Chylinski
Creator:ulrichfaniOSU
Version:Hard
Source:Subnautica
Tags:Subnautica, Gaming, Underwater
BeatmapID:1320690
BeatmapSetID:626637

[Difficulty]
HPDrainRate:7
CircleSize:4
OverallDifficulty:6
ApproachRate:8
SliderMultiplier:1.5
SliderTickRate:2

[Events]
//Background and Video events
0,0,"90414160c03eee22c91f627240f70d39.jpg",0,0
Video,0,"simon_chylinski_-_abandon_ship_fan-m-49whQ4OfmdA_fmt43.mp4"
//Break Periods
//Storyboard Layer 0 (Background)
//Storyboard Layer 1 (Fail)
//Storyboard Layer 2 (Pass)
//Storyboard Layer 3 (Foreground)
//Storyboard Sound Samples

[TimingPoints]
2580,428.571428571429,4,1,0,50,1,0
30008,-66.6666666666667,4,1,0,50,0,1
35151,-66.6666666666667,4,1,0,50,0,0
36865,-66.6666666666667,4,1,0,50,0,1
42008,-66.6666666666667,4,1,0,50,0,0
43722,-66.6666666666667,4,1,0,50,0,1
48865,-66.6666666666667,4,1,0,50,0,0
50580,-66.6666666666667,4,1,0,50,0,1
55722,-100,4,1,0,50,0,0
57437,-90.9090909090909,4,1,0,50,0,0
67722,-80,4,1,0,50,0,0
88294,-66.6666666666667,4,1,0,50,0,1
102008,-100,4,1,0,50,0,0

[Colours]
Combo1 : 0,0,128
Combo2 : 0,0,255

[HitObjects]
148,232,16294,6,0,B|152:180|144:152|160:128|152:76,1,150,4|0,0:0|0:0,0:0:0:0:
272,84,17151,2,0,B|264:136|280:156|280:176|268:184|272:196|272:208|276:236,1,150
292,116,18008,2,0,B|256:96|236:96|212:92|192:92|176:88|152:88|132:84,1,150
148,208,18865,2,0,B|184:232|216:232|240:236|264:240|284:252|292:252|304:256,1,150
324,136,19722,2,0,B|292:100|268:88|252:72|240:56|216:40|204:40,2,150
324,136,21008,1,0,0:0:0:0:
216,192,21437,2,0,B|268:220|280:232|292:240|316:248|328:256|340:260|364:272,2,150
216,192,22722,1,0,0:0:0:0:
124,116,23151,6,0,B|156:80|208:72|232:72|272:84,1,150,4|0,0:0|0:0,0:0:0:0:
164,152,24008,2,0,B|184:192|208:208|240:216|260:220|296:224,1,150
312,104,24865,2,0,B|272:112|256:124|240:128|216:128|200:136|164:152,1,150
224,256,25722,2,2,L|284:256,2,50
192,280,26151,1,0,0:0:0:0:
168,164,26580,6,0,B|188:120|220:112|244:104|272:104|304:100,1,150
392,172,27437,1,0,0:0:0:0:
392,172,27865,1,0,0:0:0:0:
276,200,28294,6,0,P|228:216|136:180,1,150
160,104,29008,1,0,0:0:0:0:
196,92,29151,2,2,L|248:76,2,50
196,132,29580,2,2,L|148:164,2,50
224,184,30008,6,0,P|312:216|384:184,1,150.000005722046,4|0,0:0|0:0,0:0:0:0:
344,144,30437,2,0,P|304:64|240:40,1,150.000005722046
196,64,30865,2,0,P|176:140|112:172,1,150.000005722046
136,228,31294,2,0,P|200:280|288:276,1,150.000005722046
304,240,31722,2,0,P|364:168|424:136,1,150.000005722046
376,92,32151,2,0,P|300:60|228:64,1,150.000005722046
188,104,32580,2,0,P|132:180|76:204,1,150.000005722046
104,260,33008,2,0,P|200:328|232:332,1,150.000005722046
280,300,33437,6,0,P|352:248|412:236,1,150.000005722046
396,176,33865,2,0,P|392:88|352:40,1,150.000005722046
300,64,34294,2,0,P|220:72|128:60,1,150.000005722046
112,112,34722,2,0,P|96:244|104:256,1,150.000005722046
160,268,35151,1,2,0:0:0:0:
316,180,35580,1,2,0:0:0:0:
140,140,36008,1,2,0:0:0:0:
276,256,36437,1,2,0:0:0:0:
396,240,36722,5,0,0:0:0:0:
380,180,36865,6,0,L|408:108,2,75.000002861023,4|0|0,0:0|0:0|0:0,0:0:0:0:
352,128,37294,2,0,L|380:56,2,75.000002861023
320,76,37722,2,0,L|352:8,2,75.000002861023
260,76,38151,2,0,P|172:64|100:104,1,150.000005722046
140,144,38580,6,0,L|60:180,2,75.000002861023
172,196,39008,2,0,L|252:172,2,75.000002861023
160,256,39437,2,0,L|72:252,2,75.000002861023
220,272,39865,2,0,P|312:260|356:228,1,150.000005722046
364,168,40294,6,0,L|408:96,2,75.000002861023
312,136,40722,2,0,L|260:200,2,75.000002861023
256,120,41151,2,0,L|296:48,2,75.000002861023
196,124,41580,2,0,P|104:152|72:204,1,150.000005722046
116,240,42008,5,2,0:0:0:0:
284,304,42437,1,2,0:0:0:0:
212,140,42865,1,2,0:0:0:0:
388,176,43294,1,2,0:0:0:0:
412,120,43437,1,0,0:0:0:0:
352,128,43580,1,0,0:0:0:0:
292,136,43722,6,0,P|196:72|132:116,1,150.000005722046,4|0,0:0|0:0,0:0:0:0:
128,120,44151,2,0,P|136:212|188:244,1,150.000005722046
236,256,44580,2,0,P|320:280|404:256,1,150.000005722046
408,216,45008,2,0,P|412:128|368:72,1,150.000005722046
324,104,45437,2,0,P|252:140|168:136,1,150.000005722046
128,164,45865,2,0,P|148:256|224:280,1,150.000005722046
252,280,46294,2,0,P|336:248|404:256,1,150.000005722046
404,192,46722,2,0,P|344:112|304:56,1,150.000005722046
256,88,47151,6,0,P|160:116|104:144,1,150.000005722046
108,196,47580,2,0,P|136:272|224:304,1,150.000005722046
252,288,48008,2,0,P|348:276|404:296,1,150.000005722046
424,240,48437,2,0,P|432:160|392:96,1,150.000005722046
340,88,48865,1,2,0:0:0:0:
180,172,49294,1,2,0:0:0:0:
340,252,49722,2,0,L|432:212,2,75.000002861023,2|0|0,0:0|0:0|0:0,0:0:0:0:
280,244,50151,1,2,0:0:0:0:
112,180,50580,6,0,L|36:136,2,75.000002861023,4|0|0,0:0|0:0|0:0,0:0:0:0:
164,152,51008,2,0,L|128:76,2,75.000002861023
224,152,51437,2,0,L|260:72,2,75.000002861023
284,164,51865,2,0,L|356:128,2,75.000002861023
288,224,52294,2,0,L|344:284,2,75.000002861023
228,236,52722,2,0,L|224:320,2,75.000002861023
168,236,53151,2,0,L|116:300,2,75.000002861023
128,192,53580,2,0,L|52:224,2,75.000002861023
116,132,54008,6,0,P|184:64|276:72,1,150.000005722046
284,88,54437,2,0,P|348:144|432:152,1,150.000005722046
400,216,54865,2,0,P|328:272|256:296,1,150.000005722046
220,260,55294,2,0,P|180:188|164:108,1,150.000005722046
192,92,55722,5,2,0:0:0:0:
312,112,56151,1,2,0:0:0:0:
280,228,56580,1,2,0:0:0:0:
164,200,57008,1,2,0:0:0:0:
204,76,57437,6,0,B|244:96|252:100|260:104|276:112|288:120|296:120|304:124|312:128|332:136|340:140|360:152,1,165.000005035401,4|0,0:0|0:0,0:0:0:0:
260,244,58294,2,0,B|216:208|200:196|180:184|164:176|148:160|124:144,1,165.000005035401
248,92,59151,2,0,B|280:124|288:132|292:136|304:144|312:152|320:160|328:168|332:172|336:176|348:184|356:188|364:192|368:196|376:200|384:204,2,165.000005035401
248,92,60437,1,0,0:0:0:0:
120,124,60865,6,0,B|88:176|84:192|76:200|68:208|64:212|64:216|56:224|52:228|48:244|44:252|40:260|24:272,1,165.000005035401,4|0,0:0|0:0,0:0:0:0:
164,288,61722,2,0,B|188:248|192:244|200:232|208:224|216:208|216:204|220:192|232:180|236:168|240:156|248:148|256:140,1,165.000005035401
364,80,62580,2,2,L|408:124,2,55.0000016784668
320,80,63008,2,0,P|236:72|160:116,2,165.000005035401
296,208,64294,6,0,B|240:216|228:220|208:220|200:224|184:220|172:216|164:220|156:220|152:220|132:220,1,165.000005035401,4|0,0:0|0:0,0:0:0:0:
140,88,65151,2,0,B|200:100|212:96|224:96|248:100|268:100|288:104|304:108,1,165.000005035401
400,196,66008,2,2,L|464:240,2,55.0000016784668
368,168,66437,2,0,B|328:136|316:132|300:128|288:124|276:120|264:120|252:116|244:116|228:116|216:116|216:112,2,165.000005035401
236,240,67722,6,0,B|184:224|180:224|164:216|152:200|140:192|128:188|116:184|72:160|60:160,1,187.5,4|0,0:0|0:0,0:0:0:0:
96,120,68294,2,0,L|164:80,1,62.5
200,84,68580,2,0,B|244:120|256:128|264:132|280:144|296:156|304:160|316:168|324:172|336:176|352:184|368:196,1,187.5
340,236,69151,2,0,L|280:272,1,62.5
236,268,69437,1,2,0:0:0:0:
112,184,69865,1,2,0:0:0:0:
252,136,70294,1,2,0:0:0:0:
172,264,70722,1,2,0:0:0:0:
320,232,71151,6,0,B|312:184|308:176|304:172|300:160|296:152|296:140|288:132|280:120|272:112|260:100|244:92|232:88|220:80,1,187.5,4|0,0:0|0:0,0:0:0:0:
176,104,71722,2,0,L|108:128,1,62.5
96,172,72008,2,0,B|128:216|140:220|152:224|168:232|180:236|192:244|200:248|208:248|220:256|232:256|240:260|260:264|264:268,1,187.5
280,220,72580,2,0,L|328:168,1,62.5
316,124,72865,1,2,0:0:0:0:
180,60,73294,1,2,0:0:0:0:
328,48,73722,1,2,0:0:0:0:
228,160,74151,1,2,0:0:0:0:
80,184,74580,6,0,B|80:128|84:120|92:112|100:104|112:96|120:88|136:76|144:72|152:72|168:64|176:64|188:64|192:60,1,187.5,4|0,0:0|0:0,0:0:0:0:
236,84,75151,2,0,L|304:112,1,62.5
332,140,75437,2,0,B|332:188|332:196|332:204|332:216|328:220|328:224|328:232|324:240|312:248|304:256|292:260|276:268|268:268|256:272|224:268,1,187.5
204,236,76008,2,0,L|152:188,1,62.5
136,148,76294,1,2,0:0:0:0:
264,68,76722,1,2,0:0:0:0:
120,32,77151,1,2,0:0:0:0:
208,152,77580,1,2,0:0:0:0:
220,300,78008,6,0,B|260:264|264:260|272:252|288:244|300:232|308:224|316:216|320:208|328:204|332:196|340:188|348:184|360:168,1,187.5,4|0,0:0|0:0,0:0:0:0:
324,136,78580,2,0,L|256:92,1,62.5
220,100,78865,2,0,B|176:132|172:140|160:148|152:156|144:160|136:168|128:172|124:176|116:184|112:188|108:192|104:196|100:204|76:232,1,187.5
124,252,79437,2,0,L|196:268,1,62.5
236,264,79722,1,2,0:0:0:0:
372,200,80151,1,2,0:0:0:0:
320,340,80580,1,2,0:0:0:0:
264,200,81008,1,2,0:0:0:0:
128,132,81437,6,0,P|152:88|284:96,1,187.5,4|0,0:0|0:0,0:0:0:0:
368,204,82294,2,0,P|336:260|220:256,1,187.5
164,120,83151,2,0,P|112:144|104:264,2,187.5
216,120,84151,2,0,L|280:104,1,62.5
328,100,84437,2,0,P|388:116|336:224,1,187.5
248,132,85294,1,0,0:0:0:0:
100,104,85722,2,0,P|120:164|240:228,1,187.5
372,208,86580,5,4,0:0:0:0:
372,208,87008,1,4,0:0:0:0:
240,136,87437,2,2,L|164:120,2,62.5
280,168,87865,2,2,L|360:140,2,62.5
232,204,88294,6,0,P|144:212|56:268,1,150.000005722046,4|0,0:0|0:0,0:0:0:0:
128,288,88722,2,0,P|208:296|336:264,1,150.000005722046
328,252,89151,2,0,P|336:168|288:96,1,150.000005722046
252,84,89580,2,0,P|152:72|112:116,1,150.000005722046
104,160,90008,1,2,0:0:0:0:
220,296,90437,1,2,0:0:0:0:
360,184,90865,1,2,0:0:0:0:
236,52,91294,1,2,0:0:0:0:
80,140,91722,6,0,P|116:208|240:240,1,150.000005722046
240,244,92151,2,0,L|324:252,2,75.000002861023
208,192,92580,2,0,P|236:120|324:76,1,150.000005722046
344,112,93008,2,0,L|404:176,2,75.000002861023
284,104,93437,1,2,0:0:0:0:
104,112,93865,1,2,0:0:0:0:
128,292,94294,1,2,0:0:0:0:
304,264,94722,1,2,0:0:0:0:
356,92,95151,5,4,0:0:0:0:
236,80,95437,2,0,L|156:64,2,75.000002861023
240,140,95865,2,0,L|316:120,2,75.000002861023,0|2|2,0:0|0:0|0:0,0:0:0:0:
184,164,96294,2,2,L|88:216,1,75.000002861023
228,248,96722,1,0,0:0:0:0:
288,236,96865,6,0,P|368:244|424:196,1,150.000005722046
392,148,97294,2,0,L|324:100,2,75.000002861023
332,152,97722,2,2,L|236:168,2,75.000002861023
308,208,98151,2,0,P|244:256|168:252,1,150.000005722046,2|0,0:0|0:0,0:0:0:0:
140,208,98580,6,0,L|92:188,4,37.5000014305115
140,148,99008,2,0,L|112:104,4,37.5000014305115
192,116,99437,2,0,L|220:80,4,37.5000014305115
240,156,99865,2,0,L|288:132,3,37.5000014305115
224,216,100294,6,0,L|248:240,4,28.1250010728836,6|0|0|0|0,0:0|0:0|0:0|0:0|0:0,0:0:0:0:
136,220,100722,2,0,L|104:236,4,28.1250010728836,6|0|0|0|0,0:0|0:0|0:0|0:0|0:0,0:0:0:0:
148,132,101151,2,0,L|112:104,4,28.1250010728836,6|0|0|0|0,0:0|0:0|0:0|0:0|0:0,0:0:0:0:
236,140,101580,2,0,L|264:124,4,28.1250010728836,6|0|0|0|0,0:0|0:0|0:0|0:0|0:0,0:0:0:0:
196,184,102008,5,0,0:0:0:0:
