osu file format v14

[General]
AudioFilename: audio.mp3
AudioLeadIn: 0
PreviewTime: 112479
Countdown: 1
SampleSet: Soft
StackLeniency: 0.7
Mode: 0
LetterboxInBreaks: 0
WidescreenStoryboard: 1

[Editor]
Bookmarks: 21963,41162,43906,65849,89162,90535,100991,111105,156365,166305,178308,200252,222195,288025,309968
DistanceSpacing: 1.5
BeatDivisor: 4
GridSize: 16
TimelineZoom: 3.599998

[Metadata]
Title:The Final Prelude
TitleUnicode:The Final Prelude
Artist:Simi
ArtistUnicode:Simi
Creator:deadpon3
Version:Smile More!
Source:
Tags:Siminczak junglecore breakcore jungle dnb skrd 88 happy hardcore
BeatmapID:1530683
BeatmapSetID:724889

[Difficulty]
HPDrainRate:6
CircleSize:4.1
OverallDifficulty:8.2
ApproachRate:9.5
SliderMultiplier:1.8
SliderTickRate:1

[Events]
//Background and Video events
0,0,"pic.png",0,0
//Break Periods
//Storyboard Layer 0 (Background)
//Storyboard Layer 1 (Fail)
//Storyboard Layer 2 (Pass)
//Storyboard Layer 3 (Foreground)
//Storyboard Layer 4 (Overlay)
//Storyboard Sound Samples

[TimingPoints]
20,342.857142857143,4,2,0,75,1,0
20,-100,4,2,0,75,0,0
21962,-90.9090909090909,4,2,0,75,0,0
39791,-76.9230769230769,4,2,0,75,0,0
40048,-76.9230769230769,4,2,0,30,0,0
40134,-76.9230769230769,4,2,0,75,0,0
40391,-76.9230769230769,4,2,0,30,0,0
40477,-76.9230769230769,4,2,0,75,0,0
40734,-76.9230769230769,4,2,0,30,0,0
40820,-76.9230769230769,4,2,0,75,0,0
41077,-76.9230769230769,4,2,0,30,0,0
41162,-90.9090909090909,4,2,0,75,0,0
41334,-90.9090909090909,4,2,0,5,0,0
43905,-200,4,2,0,50,0,0
46477,-200,4,2,0,15,0,0
46648,-200,4,2,0,50,0,0
49220,-181.818181818182,4,2,0,15,0,0
49391,-181.818181818182,4,2,0,50,0,0
51962,-181.818181818182,4,2,0,15,0,0
52134,-200,4,2,0,50,0,0
54705,-200,4,2,0,15,0,0
54877,-200,4,2,0,50,0,0
57448,-200,4,2,0,15,0,0
57620,-200,4,2,0,50,0,0
60191,-200,4,2,0,15,0,0
60362,-200,4,2,0,50,0,0
63020,-200,4,2,0,15,0,0
65848,-200,4,2,0,50,0,0
82305,-166.666666666667,4,2,0,50,0,0
85048,-153.846153846154,4,2,0,50,0,0
89162,-111.111111111111,4,2,0,50,0,0
90534,-76.9230769230769,4,2,0,74,0,0
112477,-71.4285714285714,4,2,0,75,0,1
131677,-66.6666666666667,4,2,0,75,0,1
134420,-100,4,2,0,75,0,0
139905,-100,4,2,0,60,0,0
156362,-90.9090909090909,4,2,0,60,0,0
174191,-76.9230769230769,4,2,0,60,0,0
175648,-90.9090909090909,4,2,0,5,0,0
178305,-200,4,2,0,50,0,0
180877,-200,4,2,0,15,0,0
181048,-200,4,2,0,50,0,0
183620,-200,4,2,0,15,0,0
183791,-200,4,2,0,50,0,0
186362,-200,4,2,0,15,0,0
186534,-200,4,2,0,50,0,0
189105,-200,4,2,0,15,0,0
189277,-200,4,2,0,50,0,0
192020,-166.666666666667,4,2,0,50,0,0
193391,-142.857142857143,4,2,0,50,0,0
196134,-125,4,2,0,50,0,0
197505,-111.111111111111,4,2,0,50,0,0
200248,-76.9230769230769,4,2,0,75,0,0
205048,-76.9230769230769,4,2,0,75,0,0
205734,-76.9230769230769,4,2,0,75,0,0
244134,-71.4285714285714,4,2,0,75,0,1
264705,-71.4285714285714,4,2,0,5,0,1
266077,-100,4,2,0,75,0,0
286648,-100,4,2,0,5,0,0
288020,-90.9090909090909,4,2,0,75,0,0
307305,-90.9090909090909,4,2,0,5,0,0
308591,-76.9230769230769,4,2,0,75,0,0

[Colours]
Combo1 : 0,255,64
Combo2 : 255,255,0
Combo3 : 0,64,128
Combo4 : 255,0,0

[HitObjects]
449,35,20,6,0,P|459:82|452:133,1,90,4|0,0:0|0:0,0:0:0:0:
301,148,362,2,0,P|336:115|384:96,1,90,8|0,0:0|0:0,0:0:0:0:
381,189,620,2,0,L|388:298,1,90,2|2,0:0|0:0,0:0:0:0:
450,356,877,1,0,0:0:0:0:
278,277,1048,1,8,0:0:0:0:
453,146,1220,2,0,P|493:132|506:132,1,45,0|0,0:0|0:0,0:0:0:0:
375,99,1391,6,0,L|382:208,1,90,2|0,0:0|0:0,0:0:0:0:
179,62,1734,2,0,L|268:67,1,90,8|0,0:0|0:0,0:0:0:0:
353,26,1991,2,0,L|263:31,1,90,2|2,0:0|0:0,0:0:0:0:
128,130,2248,1,0,0:0:0:0:
271,232,2420,2,0,P|277:267|278:278,3,45,8|0|8|0,0:0|0:0|0:0|0:0,0:0:0:0:
193,336,2762,6,0,P|129:323|83:337,1,90,4|0,0:0|0:0,0:0:0:0:
24,201,3105,2,0,L|36:310,1,90,8|0,0:0|0:0,0:0:0:0:
119,218,3362,2,0,L|109:128,1,90,2|0,0:0|0:0,0:0:0:0:
175,0,3620,1,2,0:0:0:0:
19,23,3791,1,8,0:0:0:0:
210,115,3962,5,0,0:0:0:0:
210,115,4048,1,0,0:0:0:0:
210,115,4134,2,0,L|301:105,1,90,2|0,0:0|0:0,0:0:0:0:
507,50,4477,2,0,L|417:40,1,90,8|0,0:0|0:0,0:0:0:0:
387,141,4734,2,0,B|384:188|384:188|399:241,1,90,2|2,0:0|0:0,0:0:0:0:
479,263,4991,1,0,0:0:0:0:
302,324,5162,2,0,P|295:351|296:385,1,45,8|0,0:0|0:0,0:0:0:0:
309,223,5334,5,8,0:0:0:0:
302,200,5419,1,8,0:0:0:0:
293,180,5505,2,0,P|258:134|216:106,1,90,4|0,0:0|0:0,0:0:0:0:
77,66,5848,2,0,P|134:58|179:36,1,90,8|0,0:0|0:0,0:0:0:0:
158,143,6105,2,0,P|135:196|132:246,1,90,2|2,0:0|0:0,0:0:0:0:
188,288,6362,1,0,0:0:0:0:
37,152,6534,1,8,0:0:0:0:
266,81,6705,2,0,P|264:103|260:125,1,45,0|0,0:0|0:0,0:0:0:0:
309,220,6877,6,0,P|324:177|350:141,1,90,2|0,0:0|0:0,0:0:0:0:
424,6,7220,2,0,L|440:104,1,90,8|0,0:0|0:0,0:0:0:0:
349,140,7477,2,0,L|261:126,1,90,2|2,0:0|0:0,0:0:0:0:
187,49,7734,1,0,0:0:0:0:
87,222,7905,2,0,P|87:248|91:276,3,45,8|0|8|0,0:0|0:0|0:0|0:0,0:0:0:0:
24,125,8248,6,0,P|105:138|136:170,1,90,4|0,0:0|0:0,0:0:0:0:
208,310,8591,2,0,P|179:232|191:189,1,90,8|0,0:0|0:0,0:0:0:0:
261,155,8848,2,0,L|349:140,1,90,2|2,0:0|0:0,0:0:0:0:
415,69,9105,1,0,0:0:0:0:
382,249,9277,1,8,0:0:0:0:
247,78,9448,5,0,0:0:0:0:
247,78,9534,1,0,0:0:0:0:
247,78,9620,2,0,L|158:63,1,90,2|0,0:0|0:0,0:0:0:0:
26,176,9963,2,0,P|14:132|16:87,1,90,8|0,0:0|0:0,0:0:0:0:
123,156,10220,2,0,L|141:260,1,90,2|2,0:0|0:0,0:0:0:0:
55,311,10477,1,0,0:0:0:0:
217,164,10648,5,8,0:0:0:0:
240,158,10733,1,0,0:0:0:0:
261,159,10819,1,8,0:0:0:0:
284,163,10905,1,0,0:0:0:0:
304,171,10991,2,0,P|350:209|378:260,1,90,4|0,0:0|0:0,0:0:0:0:
269,367,11334,2,0,P|263:307|279:251,1,90,8|0,0:0|0:0,0:0:0:0:
366,233,11591,2,0,B|414:221|414:221|466:225,1,90,2|2,0:0|0:0,0:0:0:0:
497,297,11848,1,0,0:0:0:0:
387,63,12020,1,8,0:0:0:0:
503,150,12191,5,0,0:0:0:0:
503,150,12277,1,0,0:0:0:0:
512,185,12363,1,2,0:0:0:0:
407,317,12534,1,0,0:0:0:0:
297,184,12705,2,0,P|290:125|306:78,1,90,8|0,0:0|0:0,0:0:0:0:
391,18,12963,2,0,L|477:41,1,90,2|2,0:0|0:0,0:0:0:0:
503,150,13220,1,0,0:0:0:0:
379,263,13391,5,8,0:0:0:0:
364,275,13476,1,0,0:0:0:0:
347,284,13562,1,8,0:0:0:0:
329,291,13648,1,0,0:0:0:0:
310,294,13734,2,0,P|263:290|225:266,1,90,4|0,0:0|0:0,0:0:0:0:
198,93,14077,2,0,L|189:187,1,90,8|0,0:0|0:0,0:0:0:0:
129,251,14334,2,0,P|84:253|46:276,1,90,2|2,0:0|0:0,0:0:0:0:
64,361,14591,1,0,0:0:0:0:
269,162,14763,1,8,0:0:0:0:
129,251,14934,5,0,0:0:0:0:
129,251,15020,1,0,0:0:0:0:
138,286,15106,1,2,0:0:0:0:
273,79,15277,1,0,0:0:0:0:
142,167,15448,2,0,P|70:170|26:149,1,90,8|0,0:0|0:0,0:0:0:0:
107,45,15705,2,0,L|98:139,1,90,2|2,0:0|0:0,0:0:0:0:
129,251,15963,1,0,0:0:0:0:
303,136,16134,5,8,0:0:0:0:
294,103,16219,1,8,0:0:0:0:
268,84,16305,1,2,0:0:0:0:
235,86,16391,1,8,0:0:0:0:
211,109,16477,2,0,L|220:203,1,90,4|0,0:0|0:0,0:0:0:0:
246,315,16820,2,0,P|287:299|332:297,1,90,8|0,0:0|0:0,0:0:0:0:
385,205,17077,2,0,L|423:288,1,90,2|2,0:0|0:0,0:0:0:0:
380,356,17334,1,0,0:0:0:0:
297,197,17506,1,8,0:0:0:0:
496,256,17677,5,0,0:0:0:0:
496,256,17763,1,0,0:0:0:0:
505,291,17849,1,2,0:0:0:0:
380,356,18020,1,0,0:0:0:0:
297,197,18191,2,0,P|310:154|335:117,1,90,8|0,0:0|0:0,0:0:0:0:
488,163,18448,2,0,B|437:170|437:170|386:152,1,90,2|2,0:0|0:0,0:0:0:0:
367,47,18706,1,0,0:0:0:0:
488,163,18877,5,8,0:0:0:0:
497,198,18963,1,0,0:0:0:0:
463,262,19048,1,8,0:0:0:0:
454,297,19134,1,0,0:0:0:0:
393,342,19220,6,0,L|296:330,1,90,4|0,0:0|0:0,0:0:0:0:
208,208,19563,2,0,L|297:196,1,90,8|0,0:0|0:0,0:0:0:0:
463,262,19820,2,0,L|366:250,1,90,2|2,0:0|0:0,0:0:0:0:
323,316,20077,1,0,0:0:0:0:
147,284,20248,6,0,L|227:274,1,45,8|0,0:0|0:0,0:0:0:0:
372,139,20420,2,0,L|291:129,1,45,8|0,0:0|0:0,0:0:0:0:
191,133,20591,5,8,0:0:0:0:
191,133,20677,1,0,0:0:0:0:
191,133,20763,2,0,P|179:104|178:81,1,45,8|0,0:0|0:0,0:0:0:0:
329,273,20934,2,0,P|340:301|341:324,1,45,0|0,0:0|0:0,0:0:0:0:
328,134,21106,2,0,P|356:122|379:121,1,45,8|0,0:0|0:0,0:0:0:0:
190,272,21277,2,0,P|161:283|138:284,1,45,0|0,0:0|0:0,0:0:0:0:
105,124,21448,5,8,0:0:0:0:
146,109,21533,1,0,0:0:0:0:
190,118,21619,1,8,0:0:0:0:
223,148,21706,1,0,0:0:0:0:
259,157,21791,1,8,0:0:0:0:
296,152,21877,1,0,0:0:0:0:
328,134,21963,6,0,P|357:80|321:9,1,99.0000030212403,4|0,0:0|0:0,0:0:0:0:
247,42,22220,1,0,0:0:0:0:
247,42,22306,2,0,L|189:34,1,49.5000015106202,8|0,0:0|0:0,0:0:0:0:
146,109,22477,2,0,L|96:115,1,49.5000015106202,0|0,0:0|0:0,0:0:0:0:
32,195,22648,5,2,0:0:0:0:
28,227,22733,1,0,0:0:0:0:
42,258,22819,1,2,0:0:0:0:
68,277,22905,1,0,0:0:0:0:
101,281,22991,5,8,0:0:0:0:
141,253,23076,1,0,0:0:0:0:
189,242,23162,1,0,0:0:0:0:
238,249,23248,1,0,0:0:0:0:
281,268,23334,1,2,0:0:0:0:
328,280,23419,1,0,0:0:0:0:
375,267,23505,1,0,0:0:0:0:
408,231,23591,1,0,0:0:0:0:
419,184,23677,6,0,P|419:157|414:126,3,49.5000015106202,8|0|0|0,0:0|0:0|0:0|0:0,0:0:0:0:
328,280,24020,2,0,P|329:304|333:329,3,49.5000015106202,2|0|2|0,0:0|0:0|0:0|0:0,0:0:0:0:
252,204,24363,2,0,P|244:177|231:149,3,49.5000015106202,8|0|0|0,0:0|0:0|0:0|0:0,0:0:0:0:
140,273,24705,6,0,P|76:247|52:212,1,99.0000030212403,4|0,0:0|0:0,0:0:0:0:
66,132,24962,1,0,0:0:0:0:
66,132,25048,2,0,L|58:81,1,49.5000015106202,8|0,0:0|0:0,0:0:0:0:
148,84,25220,2,0,L|153:32,1,49.5000015106202,0|0,0:0|0:0,0:0:0:0:
251,152,25391,5,2,0:0:0:0:
274,160,25476,1,0,0:0:0:0:
298,162,25562,1,2,0:0:0:0:
322,158,25648,1,0,0:0:0:0:
344,147,25734,1,8,0:0:0:0:
372,123,25819,1,0,0:0:0:0:
408,120,25905,1,0,0:0:0:0:
440,138,25991,1,0,0:0:0:0:
456,171,26077,5,2,0:0:0:0:
462,219,26162,1,0,0:0:0:0:
438,261,26248,1,0,0:0:0:0:
392,278,26334,1,0,0:0:0:0:
346,263,26420,6,0,P|313:258|279:262,3,49.5000015106202,8|0|0|0,0:0|0:0|0:0|0:0,0:0:0:0:
456,171,26762,2,0,P|487:159|515:138,3,49.5000015106202,2|0|2|0,0:0|0:0|0:0|0:0,0:0:0:0:
365,88,27105,2,0,P|337:68|316:41,1,49.5000015106202,8|0,0:0|0:0,0:0:0:0:
371,179,27277,5,8,0:0:0:0:
321,185,27362,1,8,0:0:0:0:
274,168,27448,2,0,B|212:149|141:165,1,99.0000030212403,4|0,0:0|0:0,0:0:0:0:
82,193,27705,1,0,0:0:0:0:
82,193,27791,6,0,B|73:151|89:106,1,49.5000015106202,8|0,0:0|0:0,0:0:0:0:
174,44,27963,2,0,B|142:71|95:81,1,49.5000015106202,0|0,0:0|0:0,0:0:0:0:
0,36,28134,2,0,B|40:49|71:85,1,49.5000015106202,2|0,0:0|0:0,0:0:0:0:
176,159,28305,2,0,L|195:220,1,49.5000015106202,2|0,0:0|0:0,0:0:0:0:
313,73,28477,5,8,0:0:0:0:
345,70,28562,1,0,0:0:0:0:
376,82,28648,1,0,0:0:0:0:
398,106,28734,1,0,0:0:0:0:
409,151,28820,5,2,0:0:0:0:
398,186,28905,1,0,0:0:0:0:
390,228,28991,1,0,0:0:0:0:
398,271,29077,1,0,0:0:0:0:
421,307,29162,6,0,P|448:322|474:326,3,49.5000015106202,8|0|0|0,0:0|0:0|0:0|0:0,0:0:0:0:
313,300,29505,2,0,P|300:278|293:255,3,49.5000015106202,2|0|2|0,0:0|0:0|0:0|0:0,0:0:0:0:
236,194,29848,2,0,P|241:170|254:149,3,49.5000015106202,8|0|0|0,0:0|0:0|0:0|0:0,0:0:0:0:
252,48,30191,6,0,P|209:77|147:77,1,99.0000030212403,4|0,0:0|0:0,0:0:0:0:
78,71,30448,1,0,0:0:0:0:
78,71,30535,6,0,L|68:128,1,49.5000015106202,8|0,0:0|0:0,0:0:0:0:
124,283,30705,2,0,L|133:225,1,49.5000015106202,0|0,0:0|0:0,0:0:0:0:
202,162,30877,2,0,L|144:152,1,49.5000015106202,2|0,0:0|0:0,0:0:0:0:
0,191,31048,2,0,L|57:200,1,49.5000015106202,2|0,0:0|0:0,0:0:0:0:
231,281,31220,5,8,0:0:0:0:
255,284,31305,1,0,0:0:0:0:
280,281,31391,1,0,0:0:0:0:
303,274,31477,1,0,0:0:0:0:
325,262,31563,5,2,0:0:0:0:
354,239,31648,1,0,0:0:0:0:
390,236,31734,1,0,0:0:0:0:
423,253,31820,1,0,0:0:0:0:
441,285,31905,6,0,P|434:193|423:173,1,99.0000030212403,4|0,0:0|0:0,0:0:0:0:
266,138,32162,2,0,L|369:121,1,99.0000030212403,4|0,0:0|0:0,0:0:0:0:
458,20,32420,2,0,L|423:83,1,49.5000015106202,8|0,0:0|0:0,0:0:0:0:
278,44,32591,2,0,P|221:28|180:27,1,99.0000030212403,4|0,0:0|0:0,0:0:0:0:
53,86,32848,1,0,0:0:0:0:
53,86,32934,6,0,L|63:200,1,99.0000030212403,4|0,0:0|0:0,0:0:0:0:
95,289,33191,1,0,0:0:0:0:
95,289,33277,2,0,L|157:300,1,49.5000015106202,8|0,0:0|0:0,0:0:0:0:
223,213,33448,2,0,P|249:206|285:202,1,49.5000015106202,0|0,0:0|0:0,0:0:0:0:
425,301,33620,5,2,0:0:0:0:
423,333,33705,1,0,0:0:0:0:
399,354,33791,1,2,0:0:0:0:
367,352,33877,1,0,0:0:0:0:
346,328,33962,1,8,0:0:0:0:
333,296,34047,1,0,0:0:0:0:
338,248,34133,1,0,0:0:0:0:
371,212,34219,1,0,0:0:0:0:
423,203,34305,5,2,0:0:0:0:
454,165,34390,1,0,0:0:0:0:
462,117,34476,1,0,0:0:0:0:
445,71,34562,1,0,0:0:0:0:
373,66,34648,6,0,P|351:87|334:114,3,49.5000015106202,8|0|0|0,0:0|0:0|0:0|0:0,0:0:0:0:
247,133,34991,2,0,P|246:157|250:182,3,49.5000015106202,2|0|2|0,0:0|0:0|0:0|0:0,0:0:0:0:
186,229,35334,2,0,P|203:246|223:261,3,49.5000015106202,8|0|0|0,0:0|0:0|0:0|0:0,0:0:0:0:
306,336,35677,6,0,P|350:283|331:214,1,99.0000030212403,4|0,0:0|0:0,0:0:0:0:
346,152,35934,1,0,0:0:0:0:
346,152,36020,2,0,L|339:90,1,49.5000015106202,8|0,0:0|0:0,0:0:0:0:
247,133,36191,2,0,L|224:74,1,49.5000015106202,0|0,0:0|0:0,0:0:0:0:
143,168,36362,5,2,0:0:0:0:
111,185,36447,1,0,0:0:0:0:
75,180,36533,1,2,0:0:0:0:
50,154,36619,1,0,0:0:0:0:
46,117,36705,1,8,0:0:0:0:
72,158,36790,1,0,0:0:0:0:
84,206,36876,1,0,0:0:0:0:
81,255,36962,1,0,0:0:0:0:
63,301,37048,5,2,0:0:0:0:
109,286,37133,1,0,0:0:0:0:
159,287,37219,1,0,0:0:0:0:
205,304,37305,1,0,0:0:0:0:
277,336,37391,6,0,P|312:324|337:302,3,49.5000015106202,8|0|0|0,0:0|0:0|0:0|0:0,0:0:0:0:
464,316,37734,2,0,P|480:282|482:249,3,49.5000015106202,2|0|2|0,0:0|0:0|0:0|0:0,0:0:0:0:
414,196,38077,2,0,P|402:174|395:150,1,49.5000015106202,8|0,0:0|0:0,0:0:0:0:
387,68,38248,5,8,0:0:0:0:
387,68,38334,1,8,0:0:0:0:
387,68,38420,2,0,P|321:89|252:72,1,99.0000030212403,4|0,0:0|0:0,0:0:0:0:
209,39,38677,1,0,0:0:0:0:
209,39,38762,6,0,P|162:30|135:33,1,49.5000015106202,8|0,0:0|0:0,0:0:0:0:
45,78,38934,2,0,P|92:87|119:84,1,49.5000015106202,0|0,0:0|0:0,0:0:0:0:
196,150,39105,2,0,L|204:198,1,49.5000015106202,2|0,0:0|0:0,0:0:0:0:
97,243,39277,2,0,L|88:291,1,49.5000015106202,2|0,0:0|0:0,0:0:0:0:
197,374,39448,5,8,0:0:0:0:
230,374,39533,1,0,0:0:0:0:
264,365,39619,1,0,0:0:0:0:
294,345,39705,1,0,0:0:0:0:
317,318,39791,6,0,B|314:251|341:205|341:205|313:233|264:245,1,175.499991966248,4|0,0:0|0:0,0:0:0:0:
197,175,40134,2,0,P|214:110|318:86,1,175.499991966248,4|0,0:0|0:0,0:0:0:0:
468,178,40477,2,0,P|441:228|335:193,1,175.499991966248,4|0,0:0|0:0,0:0:0:0:
407,16,40820,2,0,B|454:94|454:94|472:202,1,175.499991966248,4|0,0:0|0:0,0:0:0:0:
392,327,41162,5,2,0:0:0:0:
256,192,41334,12,0,43734,0:0:0:0:
237,18,43905,6,0,B|222:105|255:136|255:136|335:102|418:152|418:152|440:115|424:52|424:52|340:25|340:25|322:97|344:224|344:224,1,675,4|0,0:0|0:0,0:0:0:0:
246,232,46648,2,0,B|167:217|56:254|56:254|78:195|124:123|124:123|195:179|174:326|174:326|243:315|301:336,1,675,0|0,0:0|0:0,0:0:0:0:
453,212,49391,6,0,B|512:151|468:55|468:55|364:70|147:113|423:295|515:151|352:36|329:9|329:9|245:54|241:133,1,742.500022659302,2|0,0:0|0:0,0:0:0:0:
198,265,52134,2,0,B|134:259|78:198|87:71|87:71|19:105|-15:164|-15:164|57:259|152:81|264:117,1,675,0|0,0:0|0:0,0:0:0:0:
263,206,54877,6,0,B|351:165|450:184|450:184|463:106|463:106|327:95|327:95|413:205|372:297|283:330,1,675,2|0,0:0|0:0,0:0:0:0:
40,289,57620,2,0,B|85:249|143:231|143:231|115:260|115:260|185:366|299:377|394:269|373:195|373:195|343:178|343:178|400:174|466:188,1,675
269,86,60362,6,0,B|202:46|256:-15|256:-15|329:20|291:98|291:98|207:89|136:145|136:145|59:95|98:23|98:23|184:50|144:133,1,697.5,2|0,0:0|0:0,0:0:0:0:
256,192,63277,12,0,65677,0:0:0:0:
437,111,65848,5,2,0:0:0:0:
246,152,66362,2,0,B|276:160|300:189|300:189|338:175|366:183,1,135,0|2,0:0|0:0,0:0:0:0:
115,283,67220,2,0,P|180:289|224:241,1,135,2|0,0:0|0:0,0:0:0:0:
178,141,67905,1,2,0:0:0:0:
339,266,68248,1,0,0:0:0:0:
462,68,68591,6,0,B|431:76|409:74|409:74|370:52|325:45,2,135,2|0|0,0:0|0:0|0:0,0:0:0:0:
229,159,69962,2,0,P|277:131|353:141,2,135,2|0|0,0:0|0:0|0:0,0:0:0:0:
454,241,71334,5,2,0:0:0:0:
257,315,71848,2,0,B|302:311|349:333|349:333|381:317|396:312,1,135,0|2,0:0|0:0,0:0:0:0:
283,81,72705,2,0,L|301:227,1,135,2|0,0:0|0:0,0:0:0:0:
257,315,73391,1,2,0:0:0:0:
103,344,73734,1,0,0:0:0:0:
69,161,74077,5,2,0:0:0:0:
69,161,74248,2,0,L|83:83,1,67.5
153,40,74591,2,0,B|97:55|35:37|35:37|50:62,1,135,0|2,0:0|0:0,0:0:0:0:
159,182,75448,2,0,B|178:142|211:111|211:111|160:120,2,135,2|0|0,0:0|0:0|0:0,0:0:0:0:
16,124,76820,5,2,0:0:0:0:
150,302,77334,2,0,B|197:268|262:288|262:288|296:275,1,135,0|2,0:0|0:0,0:0:0:0:
282,146,78191,2,0,L|278:287,1,135,2|0,0:0|0:0,0:0:0:0:
359,338,78877,1,2,0:0:0:0:
192,196,79220,1,0,0:0:0:0:
375,251,79562,6,0,P|431:251|442:180,2,135,2|0|0,0:0|0:0|0:0,0:0:0:0:
342,25,80934,2,0,L|362:163,1,135,2|0,0:0|0:0,0:0:0:0:
375,251,81620,1,2,0:0:0:0:
474,99,81962,1,0,0:0:0:0:
245,19,82305,6,0,P|165:39|140:131,1,161.999995056153,2|0,0:0|0:0,0:0:0:0:
201,204,82991,1,2,0:0:0:0:
25,99,83334,1,0,0:0:0:0:
273,119,83677,2,0,B|338:102|338:102|387:103|387:103|437:93,2,161.999995056153,2|0|0,0:0|0:0|0:0,0:0:0:0:
342,17,85048,6,0,L|362:204,1,175.499991966248,2|0,0:0|0:0,0:0:0:0:
404,271,85734,1,2,0:0:0:0:
512,126,86077,1,0,0:0:0:0:
243,57,86420,2,0,P|158:51|82:115,2,175.499991966248,2|0|0,0:0|0:0|0:0,0:0:0:0:
136,239,89162,6,0,B|121:202|121:202|128:145,1,80.9999975280763,8|0,0:0|0:0,0:0:0:0:
180,84,89420,1,0,0:0:0:0:
180,84,89505,2,0,L|174:37,1,40.4999987640381,8|0,0:0|0:0,0:0:0:0:
287,86,89677,5,8,0:0:0:0:
327,79,89762,1,0,0:0:0:0:
367,73,89848,2,0,L|433:63,1,40.4999987640381,8|0,0:0|0:0,0:0:0:0:
329,177,90020,5,8,0:0:0:0:
322,217,90105,1,0,0:0:0:0:
316,257,90191,2,0,L|306:323,1,40.4999987640381,8|0,0:0|0:0,0:0:0:0:
378,347,90362,1,2,0:0:0:0:
512,151,90534,5,6,0:0:0:0:
512,151,90620,1,0,0:0:0:0:
512,151,90705,2,0,P|508:86|459:16,1,116.999994644165,8|0,0:0|0:0,0:0:0:0:
394,156,90962,2,0,B|382:211|382:211|398:284,1,116.999994644165,8|0,0:0|0:0,0:0:0:0:
265,230,91220,2,0,L|141:217,1,116.999994644165,10|0,0:0|0:0,0:0:0:0:
274,112,91477,2,0,P|244:61|236:4,1,116.999994644165,2|0,0:0|0:0,0:0:0:0:
382,98,91734,2,0,L|397:175,1,58.4999973220826,0|8,0:0|0:0,0:0:0:0:
255,288,91905,6,0,L|266:230,1,58.4999973220826,2|0,0:0|0:0,0:0:0:0:
445,273,92077,2,0,P|386:295|328:277,1,116.999994644165,8|0,0:0|0:0,0:0:0:0:
480,84,92334,2,0,B|490:144|490:144|458:226,1,116.999994644165,8|0,0:0|0:0,0:0:0:0:
274,59,92591,2,0,L|391:39,1,116.999994644165,10|0,0:0|0:0,0:0:0:0:
311,185,92848,2,0,L|195:165,1,116.999994644165,8|8,0:0|0:0,0:0:0:0:
133,21,93105,2,0,P|153:68|159:97,1,58.4999973220826,2|8,0:0|0:0,0:0:0:0:
9,197,93277,6,0,P|17:169|30:142,1,58.4999973220826,2|0,0:0|0:0,0:0:0:0:
222,278,93448,2,0,P|160:303|90:293,1,116.999994644165,8|0,0:0|0:0,0:0:0:0:
30,143,93705,2,0,L|48:266,1,116.999994644165,8|0,0:0|0:0,0:0:0:0:
195,51,93962,2,0,P|186:124|151:172,1,116.999994644165,10|0,0:0|0:0,0:0:0:0:
0,311,94220,2,0,P|86:293|140:313,1,116.999994644165,8|8,0:0|0:0,0:0:0:0:
233,342,94477,2,0,L|215:274,1,58.4999973220826,0|8,0:0|0:0,0:0:0:0:
379,203,94648,6,0,L|364:259,1,58.4999973220826,2|0,0:0|0:0,0:0:0:0:
163,159,94820,2,0,B|210:117|210:117|284:104,1,116.999994644165,8|0,0:0|0:0,0:0:0:0:
422,304,95077,2,0,P|335:290|307:262,1,116.999994644165,8|0,0:0|0:0,0:0:0:0:
453,68,95334,2,0,L|485:191,1,116.999994644165,10|8,0:0|0:0,0:0:0:0:
422,304,95591,5,0,0:0:0:0:
351,322,95676,1,10,0:0:0:0:
280,307,95762,1,0,0:0:0:0:
223,263,95848,2,0,P|210:189|216:162,1,58.4999973220826,8|8,0:0|0:0,0:0:0:0:
257,102,96020,5,6,0:0:0:0:
263,82,96105,1,0,0:0:0:0:
269,65,96191,2,0,P|190:76|134:60,1,116.999994644165,8|0,0:0|0:0,0:0:0:0:
24,1,96448,2,0,L|58:167,1,116.999994644165,8|0,0:0|0:0,0:0:0:0:
223,263,96705,2,0,B|220:206|220:206|176:102,1,116.999994644165,10|0,0:0|0:0,0:0:0:0:
28,264,96962,2,0,P|37:325|79:374,1,116.999994644165,8|8,0:0|0:0,0:0:0:0:
104,125,97220,2,0,P|59:115|31:118,1,58.4999973220826,2|8,0:0|0:0,0:0:0:0:
223,263,97391,6,0,P|266:249|289:232,1,58.4999973220826,2|0,0:0|0:0,0:0:0:0:
170,38,97562,2,0,B|173:95|173:95|217:199,1,116.999994644165,8|0,0:0|0:0,0:0:0:0:
392,103,97820,2,0,P|336:78|273:71,1,116.999994644165,8|0,0:0|0:0,0:0:0:0:
225,263,98077,2,0,P|274:227|312:175,1,116.999994644165,10|0,0:0|0:0,0:0:0:0:
397,25,98334,2,0,L|415:170,1,116.999994644165,10|8,0:0|0:0,0:0:0:0:
427,280,98591,5,0,0:0:0:0:
427,280,98677,2,0,L|419:221,1,58.4999973220826,10|0,0:0|0:0,0:0:0:0:
512,69,98848,2,0,P|495:138|477:170,1,58.4999973220826,8|0,0:0|0:0,0:0:0:0:
319,239,99020,2,0,P|311:210|307:181,1,58.4999973220826,8|0,0:0|0:0,0:0:0:0:
397,25,99191,2,0,L|389:83,1,58.4999973220826,8|0,0:0|0:0,0:0:0:0:
256,72,99362,5,0,0:0:0:0:
256,72,99448,2,0,P|173:77|130:111,1,116.999994644165,10|0,0:0|0:0,0:0:0:0:
211,213,99705,2,0,L|199:139,1,58.4999973220826,8|0,0:0|0:0,0:0:0:0:
49,71,99877,2,0,L|39:128,1,58.4999973220826,8|0,0:0|0:0,0:0:0:0:
81,288,100048,6,0,P|113:220|96:139,1,116.999994644165,10|0,0:0|0:0,0:0:0:0:
254,70,100305,2,0,L|139:91,1,116.999994644165,8|0,0:0|0:0,0:0:0:0:
211,213,100562,2,0,B|267:232|267:232|356:209,1,116.999994644165,8|0,0:0|0:0,0:0:0:0:
501,194,100820,2,0,B|445:175|445:175|356:198,1,116.999994644165,10|8,0:0|0:0,0:0:0:0:
269,144,101077,5,0,0:0:0:0:
254,70,101162,1,8,0:0:0:0:
302,15,101248,1,0,0:0:0:0:
375,15,101334,2,0,P|419:24|455:42,1,58.4999973220826,8|8,0:0|0:0,0:0:0:0:
497,136,101506,5,6,0:0:0:0:
499,165,101591,1,0,0:0:0:0:
501,194,101677,2,0,P|486:270|454:317,1,116.999994644165,8|0,0:0|0:0,0:0:0:0:
269,144,101934,2,0,P|342:118|399:123,1,116.999994644165,8|0,0:0|0:0,0:0:0:0:
341,369,102191,2,0,P|282:318|257:266,1,116.999994644165,10|0,0:0|0:0,0:0:0:0:
373,67,102448,2,0,L|385:191,1,116.999994644165,8|0,0:0|0:0,0:0:0:0:
465,303,102705,5,0,0:0:0:0:
465,303,102791,1,0,0:0:0:0:
465,303,102877,2,0,P|492:251|500:193,1,116.999994644165,10|0,0:0|0:0,0:0:0:0:
337,116,103134,2,0,L|349:240,1,116.999994644165,8|0,0:0|0:0,0:0:0:0:
499,69,103391,2,0,P|464:23|409:4,1,116.999994644165,8|0,0:0|0:0,0:0:0:0:
238,243,103648,2,0,P|318:249|362:217,1,116.999994644165,10|0,0:0|0:0,0:0:0:0:
494,206,103905,2,0,L|411:192,1,58.4999973220826,10|0,0:0|0:0,0:0:0:0:
327,92,104077,2,0,L|410:78,1,58.4999973220826,10|0,0:0|0:0,0:0:0:0:
211,176,104248,6,0,B|195:237|195:237|210:306,1,116.999994644165,6|8,0:0|0:0,0:0:0:0:
385,83,104505,2,0,L|257:64,1,116.999994644165,0|8,0:0|0:0,0:0:0:0:
45,119,104762,2,0,L|173:100,1,116.999994644165,0|10,0:0|0:0,0:0:0:0:
326,193,105020,2,0,L|198:174,1,116.999994644165,0|8,0:0|0:0,0:0:0:0:
125,218,105277,1,2,0:0:0:0:
96,222,105362,1,8,0:0:0:0:
269,65,105534,5,0,0:0:0:0:
298,69,105620,2,0,L|413:86,1,116.999994644165,10|0,0:0|0:0,0:0:0:0:
512,237,105877,2,0,P|522:176|503:111,1,116.999994644165,8|0,0:0|0:0,0:0:0:0:
326,193,106134,2,0,P|334:227|354:266,1,58.4999973220826,8|0,0:0|0:0,0:0:0:0:
434,360,106305,2,0,P|427:285|313:260,1,175.499991966248,10|0,0:0|0:0,0:0:0:0:
255,289,106648,5,10,0:0:0:0:
186,256,106733,1,8,0:0:0:0:
155,186,106819,1,10,0:0:0:0:
180,114,106905,1,8,0:0:0:0:
250,60,106991,6,0,L|414:46,1,116.999994644165,6|0,0:0|0:0,0:0:0:0:
494,173,107248,2,0,P|456:97|462:36,1,116.999994644165,0|8,0:0|0:0,0:0:0:0:
363,134,107505,1,0,0:0:0:0:
363,134,107591,2,0,P|342:234|346:280,1,116.999994644165,10|0,0:0|0:0,0:0:0:0:
463,353,107848,2,0,P|457:280|403:216,1,116.999994644165,8|2,0:0|0:0,0:0:0:0:
350,265,108105,1,8,0:0:0:0:
479,85,108277,5,0,0:0:0:0:
487,69,108362,2,0,L|335:55,1,116.999994644165,10|0,0:0|0:0,0:0:0:0:
208,169,108620,2,0,P|266:142|327:141,1,116.999994644165,8|0,0:0|0:0,0:0:0:0:
437,279,108877,2,0,L|422:162,1,116.999994644165,10|0,0:0|0:0,0:0:0:0:
256,108,109134,2,0,P|165:85|137:53,1,116.999994644165,8|0,0:0|0:0,0:0:0:0:
35,161,109391,2,0,L|95:153,1,58.4999973220826,10|0,0:0|0:0,0:0:0:0:
220,258,109562,2,0,L|160:250,1,58.4999973220826,10|0,0:0|0:0,0:0:0:0:
228,0,109734,6,0,P|256:76|246:149,1,116.999994644165,6|0,0:0|0:0,0:0:0:0:
130,166,109991,1,0,0:0:0:0:
130,166,110077,2,0,L|2:182,1,116.999994644165,10|0,0:0|0:0,0:0:0:0:
225,316,110334,2,0,P|214:255|224:200,1,116.999994644165,8|0,0:0|0:0,0:0:0:0:
128,48,110591,2,0,P|168:90|179:110,1,58.4999973220826,10|0,0:0|0:0,0:0:0:0:
312,196,110762,5,10,0:0:0:0:
355,208,110847,1,8,0:0:0:0:
399,201,110933,1,10,0:0:0:0:
436,174,111019,1,0,0:0:0:0:
490,97,111105,6,0,P|489:48|481:13,2,58.4999973220826,6|0|8,0:0|0:0|0:0,0:0:0:0:
428,212,111362,2,0,P|418:276|421:308,2,58.4999973220826,0|0|8,0:0|0:0|0:0,0:0:0:0:
347,69,111620,2,0,P|335:19|324:-8,2,58.4999973220826,2|0|8,0:0|0:0|0:0,0:0:0:0:
250,195,111877,2,0,P|241:222|235:251,2,58.4999973220826,0|0|8,0:0|0:0|0:0,0:0:0:0:
137,62,112134,5,4,0:0:0:0:
73,96,112219,1,0,0:0:0:0:
39,160,112305,1,8,0:0:0:0:
45,232,112391,1,8,0:0:0:0:
91,300,112477,5,6,0:0:0:0:
162,260,112562,1,0,0:0:0:0:
235,251,112648,2,0,P|304:253|389:292,1,125.999996154785,8|0,0:0|0:0,0:0:0:0:
448,104,112905,2,0,L|433:248,1,125.999996154785,8|0,0:0|0:0,0:0:0:0:
417,320,113162,1,10,0:0:0:0:
260,174,113334,1,0,0:0:0:0:
260,174,113420,2,0,L|273:48,1,125.999996154785,8|8,0:0|0:0,0:0:0:0:
446,36,113677,2,0,P|484:33|524:25,1,62.9999980773926,8|8,0:0|0:0,0:0:0:0:
417,182,113848,6,0,P|345:168|308:178,1,62.9999980773926,6|0,0:0|0:0,0:0:0:0:
154,84,114020,2,0,P|227:71|293:33,1,125.999996154785,8|0,0:0|0:0,0:0:0:0:
346,0,114277,1,8,0:0:0:0:
219,162,114448,1,0,0:0:0:0:
219,162,114534,2,0,P|110:132|67:144,1,125.999996154785,10|0,0:0|0:0,0:0:0:0:
18,315,114791,2,0,L|36:161,1,125.999996154785,8|8,0:0|0:0,0:0:0:0:
51,57,115048,5,10,0:0:0:0:
51,57,115134,1,10,0:0:0:0:
51,57,115220,2,0,P|113:39|155:44,1,62.9999980773926,6|0,0:0|0:0,0:0:0:0:
163,247,115391,2,0,B|141:180|141:180|154:115,1,125.999996154785,8|0,0:0|0:0,0:0:0:0:
352,91,115648,2,0,P|285:105|233:85,1,125.999996154785,8|0,0:0|0:0,0:0:0:0:
194,3,115905,1,10,0:0:0:0:
321,185,116077,1,0,0:0:0:0:
321,185,116162,2,0,L|338:321,1,125.999996154785,8|0,0:0|0:0,0:0:0:0:
191,322,116420,2,0,P|228:294|248:285,1,62.9999980773926,8|8,0:0|0:0,0:0:0:0:
481,252,116591,6,0,P|443:279|423:288,1,62.9999980773926,6|0,0:0|0:0,0:0:0:0:
224,175,116762,2,0,P|222:107|251:50,1,125.999996154785,8|0,0:0|0:0,0:0:0:0:
325,15,117020,1,8,0:0:0:0:
435,189,117191,1,0,0:0:0:0:
435,189,117277,2,0,P|403:192|373:199,1,62.9999980773926,10|0,0:0|0:0,0:0:0:0:
297,269,117448,2,0,P|265:265|235:258,1,62.9999980773926,10|0,0:0|0:0,0:0:0:0:
106,169,117620,5,10,0:0:0:0:
81,101,117705,1,8,0:0:0:0:
114,39,117791,1,8,0:0:0:0:
182,22,117877,1,8,0:0:0:0:
246,56,117962,5,6,0:0:0:0:
290,71,118048,1,0,0:0:0:0:
329,58,118134,2,0,P|441:83|469:114,1,125.999996154785,8|0,0:0|0:0,0:0:0:0:
447,176,118391,1,8,0:0:0:0:
312,282,118562,1,0,0:0:0:0:
312,282,118648,2,0,L|293:143,1,125.999996154785,10|0,0:0|0:0,0:0:0:0:
463,257,118905,2,0,P|390:263|393:211,1,125.999996154785,8|0,0:0|0:0,0:0:0:0:
431,115,119162,2,0,P|447:184|445:211,1,62.9999980773926,8|8,0:0|0:0,0:0:0:0:
294,326,119334,6,0,P|299:295|310:265,1,62.9999980773926,6|0,0:0|0:0,0:0:0:0:
461,28,119505,2,0,P|471:112|445:195,1,125.999996154785,8|0,0:0|0:0,0:0:0:0:
384,227,119762,1,8,0:0:0:0:
235,78,119934,1,0,0:0:0:0:
235,78,120020,2,0,L|103:69,1,125.999996154785,10|0,0:0|0:0,0:0:0:0:
24,220,120277,2,0,P|101:174|159:175,1,125.999996154785,8|8,0:0|0:0,0:0:0:0:
198,315,120534,5,0,0:0:0:0:
198,315,120620,2,0,L|185:244,1,62.9999980773926,10|0,0:0|0:0,0:0:0:0:
311,71,120791,2,0,L|299:132,1,62.9999980773926,8|0,0:0|0:0,0:0:0:0:
78,196,120962,2,0,P|125:173|178:171,1,62.9999980773926,8|0,0:0|0:0,0:0:0:0:
363,252,121134,2,0,P|310:248|263:223,1,62.9999980773926,8|0,0:0|0:0,0:0:0:0:
182,64,121305,5,0,0:0:0:0:
182,64,121391,2,0,L|45:75,1,125.999996154785,10|0,0:0|0:0,0:0:0:0:
16,235,121648,2,0,P|5:205|0:174,1,62.9999980773926,8|0,0:0|0:0,0:0:0:0:
73,13,121820,2,0,P|67:43|56:73,1,62.9999980773926,8|8,0:0|0:0,0:0:0:0:
135,170,121991,6,0,L|260:159,1,125.999996154785,10|0,0:0|0:0,0:0:0:0:
386,50,122248,2,0,P|439:113|447:177,1,125.999996154785,8|0,0:0|0:0,0:0:0:0:
339,307,122505,2,0,B|318:258|318:258|341:178,1,125.999996154785,8|0,0:0|0:0,0:0:0:0:
510,159,122762,2,0,P|444:152|395:149,1,62.9999980773926,10|0,0:0|0:0,0:0:0:0:
323,55,122934,2,0,P|354:53|386:50,1,62.9999980773926,10|0,0:0|0:0,0:0:0:0:
260,158,123105,5,10,0:0:0:0:
189,149,123190,1,10,0:0:0:0:
117,142,123277,2,0,P|51:135|2:132,1,62.9999980773926,8|0,0:0|0:0,0:0:0:0:
6,238,123448,5,6,0:0:0:0:
2,276,123534,1,0,0:0:0:0:
0,315,123620,2,0,P|81:307|145:339,1,125.999996154785,8|0,0:0|0:0,0:0:0:0:
183,379,123877,1,8,0:0:0:0:
296,241,124048,1,0,0:0:0:0:
296,241,124134,2,0,L|287:107,1,125.999996154785,10|0,0:0|0:0,0:0:0:0:
153,39,124391,2,0,P|239:39|292:7,1,125.999996154785,8|8,0:0|0:0,0:0:0:0:
55,72,124648,2,0,P|43:136|56:183,1,62.9999980773926,8|8,0:0|0:0,0:0:0:0:
160,265,124820,6,0,P|188:179|178:126,1,125.999996154785,6|0,0:0|0:0,0:0:0:0:
153,39,125077,1,8,0:0:0:0:
287,115,125248,1,0,0:0:0:0:
287,115,125334,2,0,P|371:93|418:98,1,125.999996154785,8|0,0:0|0:0,0:0:0:0:
512,222,125591,2,0,L|375:206,1,125.999996154785,8|0,0:0|0:0,0:0:0:0:
211,201,125848,2,0,L|330:187,1,62.9999980773926,10|0,0:0|0:0,0:0:0:0:
409,298,126020,2,0,L|289:284,1,62.9999980773926,10|0,0:0|0:0,0:0:0:0:
140,311,126191,6,0,P|64:291|40:291,2,62.9999980773926,10|0|0,0:0|0:0|0:0,0:0:0:0:
211,201,126448,2,0,P|287:181|311:181,2,62.9999980773926,8|0|0,0:0|0:0|0:0,0:0:0:0:
83,153,126705,5,10,0:0:0:0:
75,133,126790,1,0,0:0:0:0:
71,112,126877,2,0,P|72:66|84:31,1,62.9999980773926,10|0,0:0|0:0,0:0:0:0:
243,63,127048,5,0,0:0:0:0:
262,100,127133,1,8,0:0:0:0:
271,140,127219,1,0,0:0:0:0:
270,182,127305,2,0,P|252:251|211:313,1,125.999996154785,8|0,0:0|0:0,0:0:0:0:
67,360,127562,6,0,B|59:293|59:293|53:223,1,125.999996154785,6|0,0:0|0:0,0:0:0:0:
156,56,127820,2,0,B|168:121|168:121|146:198,1,125.999996154785,8|0,0:0|0:0,0:0:0:0:
54,234,128077,1,8,0:0:0:0:
266,66,128248,2,0,P|391:37|422:40,1,125.999996154785,6|0,0:0|0:0,0:0:0:0:
497,223,128505,2,0,P|374:185|348:167,1,125.999996154785,8|0,0:0|0:0,0:0:0:0:
486,9,128762,2,0,P|502:46|508:73,1,62.9999980773926,8|8,0:0|0:0,0:0:0:0:
291,289,128934,6,0,P|263:226|276:129,1,125.999996154785,6|0,0:0|0:0,0:0:0:0:
325,49,129191,1,0,0:0:0:0:
325,49,129277,2,0,L|399:34,1,62.9999980773926,10|0,0:0|0:0,0:0:0:0:
501,145,129448,2,0,L|439:132,1,62.9999980773926,10|0,0:0|0:0,0:0:0:0:
219,79,129620,1,0,0:0:0:0:
187,82,129705,1,0,0:0:0:0:
156,85,129791,2,0,L|-2:102,1,125.999996154785,8|0,0:0|0:0,0:0:0:0:
200,290,130048,2,0,L|358:273,1,125.999996154785,8|0,0:0|0:0,0:0:0:0:
77,207,130305,6,0,P|60:290|85:360,1,125.999996154785,10|0,0:0|0:0,0:0:0:0:
279,167,130562,2,0,P|296:84|271:14,1,125.999996154785,8|0,0:0|0:0,0:0:0:0:
203,2,130820,1,8,0:0:0:0:
38,177,130991,1,2,0:0:0:0:
38,177,131077,2,0,P|40:253|74:315,1,125.999996154785,0|0,0:0|0:0,0:0:0:0:
158,316,131334,5,6,0:0:0:0:
223,277,131419,1,0,0:0:0:0:
298,261,131505,1,10,0:0:0:0:
374,266,131591,1,0,0:0:0:0:
429,335,131677,6,0,L|411:161,1,135.000005149842,6|0,0:0|0:0,0:0:0:0:
454,33,131934,1,0,0:0:0:0:
454,33,132020,2,0,P|495:104|488:166,1,135.000005149842,8|0,0:0|0:0,0:0:0:0:
326,158,132277,2,0,P|254:139|188:141,1,135.000005149842,8|0,0:0|0:0,0:0:0:0:
173,284,132534,2,0,P|225:231|250:187,1,67.5000025749208,8|0,0:0|0:0,0:0:0:0:
213,55,132705,5,10,0:0:0:0:
156,11,132790,1,0,0:0:0:0:
89,32,132876,1,10,0:0:0:0:
68,99,132962,1,0,0:0:0:0:
76,173,133048,6,0,L|88:310,1,135.000005149842,6|8,0:0|0:0,0:0:0:0:
302,287,133305,2,0,B|251:266|251:266|164:285,1,135.000005149842,4|8,0:0|0:0,0:0:0:0:
0,343,133562,2,0,B|51:364|51:364|138:345,1,135.000005149842,6|8,0:0|0:0,0:0:0:0:
320,176,133820,2,0,L|187:202,1,135.000005149842,4|8,0:0|0:0,0:0:0:0:
9,186,134077,2,0,L|116:164,1,67.5000025749208,6|0,0:0|0:0,0:0:0:0:
177,86,134248,1,10,0:0:0:0:
250,72,134333,1,8,0:0:0:0:
323,59,134420,6,0,P|385:53|432:64,2,90,4|0|8,0:0|0:0|0:0,0:0:0:0:
263,177,134934,1,0,0:0:0:0:
263,177,135020,2,0,L|272:278,1,90,2|2,0:0|0:0,0:0:0:0:
297,335,135277,2,0,L|304:245,1,90,0|8,0:0|0:0,0:0:0:0:
349,188,135534,2,0,P|389:179|403:179,1,45,0|0,0:0|0:0,0:0:0:0:
476,214,135705,5,0,0:0:0:0:
413,344,135877,1,0,0:0:0:0:
413,344,135962,1,0,0:0:0:0:
263,177,136134,2,0,P|212:164|164:166,1,90,8|0,0:0|0:0,0:0:0:0:
103,148,136391,2,0,P|147:143|189:127,1,90,2|2,0:0|0:0,0:0:0:0:
182,38,136648,2,0,L|191:153,1,90,0|8,0:0|0:0,0:0:0:0:
255,266,136991,5,8,0:0:0:0:
255,266,137077,2,0,L|262:176,1,90,0|0,0:0|0:0,0:0:0:0:
326,121,137334,2,0,P|370:125|412:141,1,90,0|8,0:0|0:0,0:0:0:0:
504,135,137591,2,0,L|508:77,1,45,0|0,0:0|0:0,0:0:0:0:
463,212,137762,2,0,L|470:301,1,90,2|2,0:0|0:0,0:0:0:0:
470,301,138020,1,0,0:0:0:0:
342,230,138191,1,8,0:0:0:0:
504,135,138362,5,0,0:0:0:0:
504,135,138448,2,0,P|515:61|510:38,1,90,0|0,0:0|0:0,0:0:0:0:
441,0,138705,2,0,L|339:7,1,90,0|8,0:0|0:0,0:0:0:0:
323,76,138962,2,0,L|326:143,1,45,0|0,0:0|0:0,0:0:0:0:
229,153,139134,2,0,P|210:86|215:54,1,90,2|2,0:0|0:0,0:0:0:0:
325,120,139391,2,0,L|329:211,1,90,0|8,0:0|0:0,0:0:0:0:
393,318,139734,5,8,0:0:0:0:
393,318,139820,1,8,0:0:0:0:
393,318,139905,2,0,L|503:305,2,90,4|0|8,0:0|0:0|0:0,0:0:0:0:
278,278,140420,1,0,0:0:0:0:
278,278,140505,2,0,P|210:268|170:274,1,90,2|2,0:0|0:0,0:0:0:0:
99,265,140762,2,0,P|142:254|182:234,1,90,0|8,0:0|0:0,0:0:0:0:
228,172,141020,2,0,L|224:125,1,45,0|0,0:0|0:0,0:0:0:0:
206,53,141191,5,0,0:0:0:0:
58,105,141362,1,0,0:0:0:0:
58,105,141448,1,0,0:0:0:0:
228,172,141620,2,0,L|327:183,1,90,8|0,0:0|0:0,0:0:0:0:
388,201,141877,2,0,P|344:206|302:222,1,90,2|2,0:0|0:0,0:0:0:0:
315,310,142134,2,0,P|302:266|306:195,1,90,0|8,0:0|0:0,0:0:0:0:
377,69,142477,5,8,0:0:0:0:
377,69,142562,2,0,P|375:113|362:156,1,90,0|0,0:0|0:0,0:0:0:0:
300,222,142820,2,0,L|210:212,1,90,0|8,0:0|0:0,0:0:0:0:
169,281,143077,2,0,B|169:282|179:321|173:337,1,45,0|0,0:0|0:0,0:0:0:0:
87,268,143248,2,0,P|85:217|101:164,1,90,2|2,0:0|0:0,0:0:0:0:
94,179,143505,1,0,0:0:0:0:
259,304,143677,1,8,0:0:0:0:
303,143,143848,5,0,0:0:0:0:
303,143,143934,2,0,P|308:76|298:38,1,90,0|0,0:0|0:0,0:0:0:0:
222,13,144191,2,0,L|116:21,1,90,0|8,0:0|0:0,0:0:0:0:
58,76,144448,2,0,L|56:122,1,45,0|0,0:0|0:0,0:0:0:0:
131,187,144620,2,0,B|149:150|149:150|142:89,1,90,2|2,0:0|0:0,0:0:0:0:
58,1,144877,1,0,0:0:0:0:
24,202,145048,5,8,0:0:0:0:
34,245,145133,1,0,0:0:0:0:
63,278,145219,1,8,0:0:0:0:
105,294,145305,1,0,0:0:0:0:
149,288,145391,6,0,P|213:274|259:280,2,90,4|0|8,0:0|0:0|0:0,0:0:0:0:
248,192,145905,1,0,0:0:0:0:
248,192,145991,2,0,P|291:204|335:204,1,90,2|2,0:0|0:0,0:0:0:0:
422,164,146248,2,0,L|408:272,1,90,0|8,0:0|0:0,0:0:0:0:
339,329,146505,2,0,P|327:298|325:273,1,45,0|0,0:0|0:0,0:0:0:0:
335,204,146677,5,0,0:0:0:0:
471,341,146848,1,0,0:0:0:0:
471,341,146934,1,0,0:0:0:0:
512,186,147105,2,0,L|500:96,1,90,8|0,0:0|0:0,0:0:0:0:
382,24,147362,2,0,L|471:12,1,90,2|2,0:0|0:0,0:0:0:0:
406,124,147620,2,0,P|331:109|307:93,1,90,0|8,0:0|0:0,0:0:0:0:
210,33,147962,5,8,0:0:0:0:
210,33,148048,2,0,P|152:26|110:42,1,90,0|0,0:0|0:0,0:0:0:0:
234,115,148305,2,0,L|243:204,1,90,0|8,0:0|0:0,0:0:0:0:
255,286,148562,2,0,P|260:318|269:336,1,45,0|0,0:0|0:0,0:0:0:0:
354,284,148734,2,0,P|352:229|344:194,1,90,2|2,0:0|0:0,0:0:0:0:
345,196,148991,1,0,0:0:0:0:
158,151,149162,1,8,0:0:0:0:
322,36,149334,5,0,0:0:0:0:
322,36,149420,2,0,P|377:30|422:47,1,90,0|0,0:0|0:0,0:0:0:0:
487,95,149677,2,0,L|484:199,1,90,0|8,0:0|0:0,0:0:0:0:
416,258,149934,2,0,P|406:207|406:195,1,45,0|0,0:0|0:0,0:0:0:0:
273,105,150105,2,0,P|323:127|354:164,1,90,2|2,0:0|0:0,0:0:0:0:
324,317,150362,2,0,P|319:263|334:227,1,90,0|8,0:0|0:0,0:0:0:0:
411,89,150705,5,2,0:0:0:0:
411,89,150791,1,8,0:0:0:0:
411,89,150877,2,0,L|414:0,2,90,4|0|8,0:0|0:0|0:0,0:0:0:0:
472,196,151391,1,0,0:0:0:0:
472,196,151477,2,0,L|475:285,1,90,2|2,0:0|0:0,0:0:0:0:
383,322,151734,2,0,P|324:305|278:305,1,90,0|8,0:0|0:0,0:0:0:0:
339,225,151991,2,0,L|337:180,1,45,0|0,0:0|0:0,0:0:0:0:
272,106,152162,5,0,0:0:0:0:
440,68,152334,1,0,0:0:0:0:
440,68,152420,1,0,0:0:0:0:
339,225,152591,2,0,P|276:207|225:210,1,90,8|0,0:0|0:0,0:0:0:0:
187,268,152848,2,0,L|69:243,1,90,2|2,0:0|0:0,0:0:0:0:
148,72,153105,2,0,L|166:160,1,90,0|8,0:0|0:0,0:0:0:0:
270,294,153448,5,8,0:0:0:0:
270,294,153534,2,0,L|251:205,1,90,0|0,0:0|0:0,0:0:0:0:
304,118,153791,2,0,P|334:65|361:41,1,90,0|8,0:0|0:0,0:0:0:0:
439,33,154048,2,0,P|481:31|517:17,1,45,0|0,0:0|0:0,0:0:0:0:
449,117,154220,2,0,L|460:212,1,90,2|2,0:0|0:0,0:0:0:0:
459,206,154477,1,0,0:0:0:0:
304,118,154648,5,8,0:0:0:0:
304,118,154734,1,0,0:0:0:0:
304,118,154820,1,8,0:0:0:0:
304,118,154905,1,0,0:0:0:0:
304,118,154991,5,8,0:0:0:0:
274,134,155076,1,0,0:0:0:0:
241,140,155162,1,8,0:0:0:0:
208,134,155248,1,0,0:0:0:0:
180,116,155334,5,0,0:0:0:0:
130,91,155419,1,0,0:0:0:0:
77,104,155505,1,8,0:0:0:0:
44,149,155591,1,0,0:0:0:0:
49,204,155677,6,0,L|58:258,1,45
167,325,155848,2,0,L|158:271,1,45,8|0,0:0|0:0,0:0:0:0:
252,214,156020,2,0,L|243:258,1,45,8|0,0:0|0:0,0:0:0:0:
329,299,156191,2,0,L|320:254,1,45,8|0,0:0|0:0,0:0:0:0:
397,208,156362,6,0,P|389:159|399:111,1,99.0000030212403,4|0,0:0|0:0,0:0:0:0:
465,39,156620,1,0,0:0:0:0:
465,39,156705,2,0,L|395:27,1,49.5000015106202,8|0,0:0|0:0,0:0:0:0:
317,69,156877,2,0,L|247:81,1,49.5000015106202,0|0,0:0|0:0,0:0:0:0:
161,50,157048,5,2,0:0:0:0:
120,35,157133,1,0,0:0:0:0:
78,44,157219,1,2,0:0:0:0:
48,74,157305,1,0,0:0:0:0:
38,115,157391,1,0,0:0:0:0:
46,158,157476,1,0,0:0:0:0:
46,202,157562,1,0,0:0:0:0:
36,244,157648,1,0,0:0:0:0:
42,315,157735,5,2,0:0:0:0:
98,282,157820,1,0,0:0:0:0:
163,272,157905,1,0,0:0:0:0:
227,287,157991,1,0,0:0:0:0:
300,293,158077,6,0,P|329:285|372:281,3,49.5000015106202,8|0|0|0,0:0|0:0|0:0|0:0,0:0:0:0:
456,307,158420,2,0,P|472:326|490:344,3,49.5000015106202,2|0|2|0,0:0|0:0|0:0|0:0,0:0:0:0:
424,223,158762,2,0,P|433:200|439:176,3,49.5000015106202,8|0|0|0,0:0|0:0|0:0|0:0,0:0:0:0:
512,110,159105,6,0,P|447:91|403:104,1,99.0000030212403,4|0,0:0|0:0,0:0:0:0:
345,152,159362,1,0,0:0:0:0:
345,152,159448,2,0,L|276:143,1,49.5000015106202,8|0,0:0|0:0,0:0:0:0:
229,68,159620,2,0,L|160:77,1,49.5000015106202,0|0,0:0|0:0,0:0:0:0:
75,148,159791,5,2,0:0:0:0:
94,174,159876,1,0,0:0:0:0:
105,205,159962,1,2,0:0:0:0:
108,238,160048,1,0,0:0:0:0:
101,270,160133,1,8,0:0:0:0:
57,291,160220,1,0,0:0:0:0:
101,270,160305,1,0,0:0:0:0:
150,264,160391,1,0,0:0:0:0:
197,282,160477,5,2,0:0:0:0:
248,302,160562,1,0,0:0:0:0:
303,302,160648,1,0,0:0:0:0:
353,281,160734,1,0,0:0:0:0:
404,224,160820,6,0,L|402:169,3,49.5000015106202,8|0|0|0,0:0|0:0|0:0|0:0,0:0:0:0:
462,78,161162,2,0,L|515:68,3,49.5000015106202,2|0|2|0,0:0|0:0|0:0|0:0,0:0:0:0:
380,13,161505,2,0,L|327:3,3,49.5000015106202,8|0|8|8,0:0|0:0|0:0|0:0,0:0:0:0:
281,99,161848,6,0,B|219:118|148:102,1,99.0000030212403,4|0,0:0|0:0,0:0:0:0:
89,74,162105,1,0,0:0:0:0:
89,74,162191,6,0,B|80:116|96:161,1,49.5000015106202,8|0,0:0|0:0,0:0:0:0:
181,223,162363,2,0,B|149:196|102:186,1,49.5000015106202,0|0,0:0|0:0,0:0:0:0:
7,231,162534,2,0,B|47:218|78:182,1,49.5000015106202,2|0,0:0|0:0,0:0:0:0:
183,107,162705,2,0,L|191:37,1,49.5000015106202,2|0,0:0|0:0,0:0:0:0:
270,186,162877,5,8,0:0:0:0:
306,191,162962,1,0,0:0:0:0:
341,204,163048,1,0,0:0:0:0:
372,224,163134,1,0,0:0:0:0:
398,252,163220,5,2,0:0:0:0:
384,205,163305,1,0,0:0:0:0:
391,156,163391,1,0,0:0:0:0:
418,116,163477,1,0,0:0:0:0:
460,91,163562,6,0,P|485:82|520:76,3,49.5000015106202,8|0|0|0,0:0|0:0|0:0|0:0,0:0:0:0:
371,30,163905,2,0,P|345:21|310:15,3,49.5000015106202,2|0|2|0,0:0|0:0|0:0|0:0,0:0:0:0:
263,93,164248,2,0,P|237:101|202:107,3,49.5000015106202,8|0|0|0,0:0|0:0|0:0|0:0,0:0:0:0:
154,18,164591,6,0,P|80:38|49:65,1,99.0000030212403,4|0,0:0|0:0,0:0:0:0:
77,143,164848,1,0,0:0:0:0:
77,143,164935,6,0,L|134:151,1,49.5000015106202,8|0,0:0|0:0,0:0:0:0:
264,252,165105,2,0,L|206:242,1,49.5000015106202,0|0,0:0|0:0,0:0:0:0:
215,105,165277,2,0,L|205:161,1,49.5000015106202,2|0,0:0|0:0,0:0:0:0:
125,289,165448,2,0,L|133:230,1,49.5000015106202,2|0,0:0|0:0,0:0:0:0:
324,122,165620,1,8,0:0:0:0:
364,112,165705,1,0,0:0:0:0:
405,123,165791,1,0,0:0:0:0:
435,152,165877,1,0,0:0:0:0:
449,192,165962,5,2,0:0:0:0:
445,240,166048,1,0,0:0:0:0:
414,279,166134,1,0,0:0:0:0:
368,299,166220,1,0,0:0:0:0:
326,302,166305,6,0,L|211:289,1,99.0000030212403,4|0,0:0|0:0,0:0:0:0:
118,219,166562,2,0,P|139:300|135:358,1,99.0000030212403,4|0,0:0|0:0,0:0:0:0:
218,181,166820,2,0,P|233:132|247:110,1,49.5000015106202,8|0,0:0|0:0,0:0:0:0:
102,28,166991,2,0,P|120:87|151:135,1,99.0000030212403,2|0,0:0|0:0,0:0:0:0:
218,181,167248,1,0,0:0:0:0:
293,214,167334,6,0,L|429:203,1,99.0000030212403,4|0,0:0|0:0,0:0:0:0:
462,142,167591,1,0,0:0:0:0:
462,142,167677,2,0,P|470:102|471:79,1,49.5000015106202,8|0,0:0|0:0,0:0:0:0:
368,61,167848,2,0,P|354:22|344:1,1,49.5000015106202,0|0,0:0|0:0,0:0:0:0:
234,110,168020,5,2,0:0:0:0:
202,127,168105,1,0,0:0:0:0:
166,122,168191,1,2,0:0:0:0:
141,96,168277,1,0,0:0:0:0:
137,59,168363,1,8,0:0:0:0:
163,100,168448,1,0,0:0:0:0:
175,148,168534,1,0,0:0:0:0:
172,197,168620,1,0,0:0:0:0:
154,243,168706,5,2,0:0:0:0:
200,228,168791,1,0,0:0:0:0:
250,229,168877,1,0,0:0:0:0:
296,246,168963,1,0,0:0:0:0:
365,298,169048,6,0,P|371:335|374:369,3,49.5000015106202,8|0|0|0,0:0|0:0|0:0|0:0,0:0:0:0:
460,189,169391,2,0,P|454:226|451:260,3,49.5000015106202,2|0|2|0,0:0|0:0|0:0|0:0,0:0:0:0:
378,112,169734,2,0,P|374:87|370:63,3,49.5000015106202,8|0|0|0,0:0|0:0|0:0|0:0,0:0:0:0:
275,34,170077,6,0,L|148:41,1,99.0000030212403,4|0,0:0|0:0,0:0:0:0:
83,97,170334,1,0,0:0:0:0:
83,97,170420,2,0,L|72:160,1,49.5000015106202,8|0,0:0|0:0,0:0:0:0:
142,240,170591,2,0,L|153:303,1,49.5000015106202,0|0,0:0|0:0,0:0:0:0:
248,199,170762,5,2,0:0:0:0:
283,188,170847,1,0,0:0:0:0:
320,183,170933,1,2,0:0:0:0:
357,184,171019,1,0,0:0:0:0:
393,191,171105,1,8,0:0:0:0:
367,148,171190,1,0,0:0:0:0:
356,100,171276,1,0,0:0:0:0:
361,51,171362,1,0,0:0:0:0:
314,25,171448,5,2,0:0:0:0:
270,47,171533,1,0,0:0:0:0:
221,55,171619,1,0,0:0:0:0:
172,48,171705,1,0,0:0:0:0:
102,31,171791,6,0,P|57:22|37:21,3,49.5000015106202,8|0|0|0,0:0|0:0|0:0|0:0,0:0:0:0:
154,156,172134,2,0,P|178:152|202:146,3,49.5000015106202,2|0|2|0,0:0|0:0|0:0|0:0,0:0:0:0:
76,243,172477,2,0,P|51:237|27:233,3,49.5000015106202,8|0|8|8,0:0|0:0|0:0|0:0,0:0:0:0:
146,306,172820,6,0,P|212:285|281:302,1,99.0000030212403,4|0,0:0|0:0,0:0:0:0:
324,335,173077,1,0,0:0:0:0:
324,335,173162,2,0,P|371:344|398:341,1,49.5000015106202,8|0,0:0|0:0,0:0:0:0:
488,296,173334,2,0,P|441:287|414:290,1,49.5000015106202,0|0,0:0|0:0,0:0:0:0:
337,224,173505,2,0,L|329:176,1,49.5000015106202,2|0,0:0|0:0,0:0:0:0:
436,131,173677,2,0,L|445:83,1,49.5000015106202,2|0,0:0|0:0,0:0:0:0:
336,0,173848,5,8,0:0:0:0:
303,0,173933,1,0,0:0:0:0:
269,9,174019,1,0,0:0:0:0:
239,29,174105,1,0,0:0:0:0:
216,56,174191,6,0,B|219:123|192:169|192:169|220:141|269:129,1,175.499991966248,4|0,0:0|0:0,0:0:0:0:
336,199,174534,2,0,P|319:264|215:288,1,175.499991966248,4|0,0:0|0:0,0:0:0:0:
65,196,174877,2,0,P|92:146|198:181,1,175.499991966248,4|0,0:0|0:0,0:0:0:0:
126,358,175220,2,0,B|79:280|79:280|61:172,1,175.499991966248,4|0,0:0|0:0,0:0:0:0:
141,47,175562,5,2,0:0:0:0:
256,192,175648,12,0,178134,0:0:0:0:
327,156,178305,6,0,B|436:164|506:121|506:121|466:61|404:63|404:63|365:124|458:232|458:232|371:274|270:237,1,675,4|0,0:0|0:0,0:0:0:0:
185,212,181048,2,0,B|45:209|18:199|18:199|8:250|31:297|31:297|85:305|131:285|131:285|84:209|98:131|98:131|158:110|248:138,1,675,0|0,0:0|0:0,0:0:0:0:
285,242,183791,6,0,B|390:244|490:158|490:158|432:215|393:286|393:286|388:202|352:149|352:149|425:114|464:58,1,675,2|0,0:0|0:0,0:0:0:0:
366,4,186534,2,0,B|255:92|129:35|129:35|216:122|194:249|194:249|114:189|12:228,1,675,0|0,0:0|0:0,0:0:0:0:
61,364,189277,6,0,L|69:296,1,60,2|0,0:0|0:0,0:0:0:0:
15,226,189620,2,0,L|8:167,1,60,2|0,0:0|0:0,0:0:0:0:
38,85,189962,2,0,L|44:32,2,30,0|0|0,0:0|0:0|0:0,0:0:0:0:
116,45,190305,2,0,L|112:15,2,30,0|0|0,0:0|0:0|0:0,0:0:0:0:
171,112,190648,6,0,P|209:117|256:112,1,60,2|0,0:0|0:0,0:0:0:0:
302,65,190991,2,0,P|331:60|361:60,1,60,2|0,0:0|0:0,0:0:0:0:
433,110,191334,2,0,L|487:106,2,30,0|0|0,0:0|0:0|0:0,0:0:0:0:
367,167,191677,2,0,L|313:171,2,30,0|0|0,0:0|0:0|0:0,0:0:0:0:
451,229,192020,6,0,L|445:304,1,71.9999978027344,2|0,0:0|0:0,0:0:0:0:
347,337,192362,2,0,L|272:331,1,71.9999978027344,2|0,0:0|0:0,0:0:0:0:
200,256,192705,2,0,L|206:202,2,35.9999989013672,0|0|0,0:0|0:0|0:0,0:0:0:0:
111,313,193048,2,0,L|114:348,2,35.9999989013672,0|0|0,0:0|0:0|0:0,0:0:0:0:
43,210,193391,6,0,P|42:157|51:117,1,83.9999974365235,2|0,0:0|0:0,0:0:0:0:
133,51,193734,2,0,L|254:45,1,83.9999974365235,2|0,0:0|0:0,0:0:0:0:
374,59,194077,1,0,0:0:0:0:
374,59,194191,1,0,0:0:0:0:
374,59,194305,1,0,0:0:0:0:
374,59,194420,2,0,L|453:62,2,41.9999987182618,0|0|0,0:0|0:0|0:0,0:0:0:0:
313,164,194762,6,0,P|307:221|321:269,1,83.9999974365235,2|0,0:0|0:0,0:0:0:0:
352,318,195105,2,0,P|328:265|292:231,1,83.9999974365235,2|0,0:0|0:0,0:0:0:0:
160,277,195448,1,0,0:0:0:0:
160,277,195562,1,0,0:0:0:0:
160,277,195676,1,0,0:0:0:0:
160,277,195791,2,0,P|128:296|116:307,2,41.9999987182618,0|0|0,0:0|0:0|0:0,0:0:0:0:
164,174,196134,6,0,P|163:107|151:74,1,96,2|0,0:0|0:0,0:0:0:0:
49,37,196477,2,0,P|107:69|142:75,1,96,2|0,0:0|0:0,0:0:0:0:
288,30,196820,1,0,0:0:0:0:
288,30,196934,1,0,0:0:0:0:
288,30,197048,1,0,0:0:0:0:
288,30,197162,2,0,L|347:17,2,48,0|0|0,0:0|0:0|0:0,0:0:0:0:
315,164,197505,6,0,P|312:252|325:288,1,107.999996704102,2|0,0:0|0:0,0:0:0:0:
192,304,197848,2,0,P|168:317|143:326,2,53.9999983520508,8|0|0,0:0|0:0|0:0,0:0:0:0:
131,226,198191,2,0,P|105:218|81:206,2,53.9999983520508,2|0|0,0:0|0:0|0:0,0:0:0:0:
143,128,198534,2,0,P|130:104|122:79,2,53.9999983520508,8|0|0,0:0|0:0|0:0,0:0:0:0:
256,64,198877,6,0,L|323:56,2,53.9999983520508,2|0|0,0:0|0:0|0:0,0:0:0:0:
352,128,199220,2,0,L|419:120,2,53.9999983520508,8|0|0,0:0|0:0|0:0,0:0:0:0:
448,192,199562,2,0,L|515:184,2,53.9999983520508,2|0|0,0:0|0:0|0:0,0:0:0:0:
355,241,199905,5,0,0:0:0:0:
352,257,200020,1,0,0:0:0:0:
349,273,200133,1,8,0:0:0:0:
352,128,200248,6,0,L|261:120,1,77.9999964294435,4|0,0:0|0:0,0:0:0:0:
145,83,200477,1,0,0:0:0:0:
145,83,200591,2,0,P|204:58|222:58,1,77.9999964294435,8|0,0:0|0:0,0:0:0:0:
129,194,200820,1,0,0:0:0:0:
129,194,200934,6,0,P|62:176|33:157,2,77.9999964294435,2|0|0,0:0|0:0|0:0,0:0:0:0:
217,58,201277,5,8,0:0:0:0:
225,143,201391,1,0,0:0:0:0:
234,228,201505,1,8,0:0:0:0:
302,175,201620,6,0,P|388:168|435:177,1,77.9999964294435,4|0,0:0|0:0,0:0:0:0:
439,316,201848,1,0,0:0:0:0:
439,316,201962,2,0,P|389:245|374:199,1,77.9999964294435,8|0,0:0|0:0,0:0:0:0:
492,126,202191,1,0,0:0:0:0:
492,126,202305,6,0,P|455:203|423:240,1,77.9999964294435,10|0,0:0|0:0,0:0:0:0:
404,16,202534,2,0,P|412:54|414:92,1,77.9999964294435,8|0,0:0|0:0,0:0:0:0:
280,0,202762,2,0,P|307:27|329:59,1,77.9999964294435,8|0,0:0|0:0,0:0:0:0:
185,144,202991,6,0,L|180:57,1,77.9999964294435,2|0,0:0|0:0,0:0:0:0:
82,231,203220,1,0,0:0:0:0:
82,231,203334,2,0,L|86:153,1,77.9999964294435,8|0,0:0|0:0,0:0:0:0:
225,336,203562,1,0,0:0:0:0:
225,336,203677,6,0,P|169:332|121:309,1,77.9999964294435,2|0,0:0|0:0,0:0:0:0:
5,240,203905,2,0,P|60:229|112:239,1,77.9999964294435,8|0,0:0|0:0,0:0:0:0:
261,154,204134,2,0,P|205:150|157:127,1,77.9999964294435,8|0,0:0|0:0,0:0:0:0:
10,36,204362,6,0,L|23:143,2,77.9999964294435,2|0|0,0:0|0:0|0:0,0:0:0:0:
184,142,204705,2,0,L|175:220,2,77.9999964294435,8|0|0,0:0|0:0|0:0,0:0:0:0:
321,29,205048,6,0,P|398:27|452:57,1,77.9999964294435,2|0,0:0|0:0,0:0:0:0:
466,194,205277,2,0,P|495:160|512:119,1,77.9999964294435,8|0,0:0|0:0,0:0:0:0:
336,194,205505,2,0,L|347:293,1,77.9999964294435,8|0,0:0|0:0,0:0:0:0:
237,64,205734,6,0,P|188:50|129:54,1,77.9999964294435,4|0,0:0|0:0,0:0:0:0:
66,150,205962,1,0,0:0:0:0:
66,150,206077,2,0,P|49:114|41:76,1,77.9999964294435,8|0,0:0|0:0,0:0:0:0:
200,182,206305,1,8,0:0:0:0:
200,182,206420,2,0,L|191:266,2,77.9999964294435,2|0|0,0:0|0:0|0:0,0:0:0:0:
161,49,206762,5,8,0:0:0:0:
246,56,206876,1,0,0:0:0:0:
331,62,206990,1,0,0:0:0:0:
417,69,207105,6,0,L|502:51,1,77.9999964294435,2|0,0:0|0:0,0:0:0:0:
411,186,207334,1,0,0:0:0:0:
411,186,207448,2,0,L|334:169,1,77.9999964294435,8|0,0:0|0:0,0:0:0:0:
254,78,207677,1,8,0:0:0:0:
254,78,207791,6,0,L|339:60,1,77.9999964294435,2|0,0:0|0:0,0:0:0:0:
435,212,208020,2,0,L|350:194,1,77.9999964294435,8|0,0:0|0:0,0:0:0:0:
214,56,208248,2,0,L|299:38,1,77.9999964294435,8|0,0:0|0:0,0:0:0:0:
466,24,208477,6,0,P|489:91|492:124,1,77.9999964294435,4|0,0:0|0:0,0:0:0:0:
435,212,208705,1,0,0:0:0:0:
435,212,208820,2,0,L|448:310,1,77.9999964294435,8|0,0:0|0:0,0:0:0:0:
334,169,209048,1,0,0:0:0:0:
334,169,209162,6,0,P|256:154|238:156,1,77.9999964294435,2|0,0:0|0:0,0:0:0:0:
195,312,209391,2,0,P|246:251|254:235,1,77.9999964294435,8|0,0:0|0:0,0:0:0:0:
141,121,209620,2,0,P|167:196|177:210,1,77.9999964294435,8|0,0:0|0:0,0:0:0:0:
297,337,209848,6,0,L|380:326,2,77.9999964294435,2|0|0,0:0|0:0|0:0,0:0:0:0:
117,269,210191,2,0,L|39:279,2,77.9999964294435,8|0|0,0:0|0:0|0:0,0:0:0:0:
272,136,210534,6,0,L|319:198,1,77.9999964294435,4|0,0:0|0:0,0:0:0:0:
99,116,210762,2,0,P|108:81|129:43,1,77.9999964294435,8|0,0:0|0:0,0:0:0:0:
194,259,210991,2,0,L|116:269,1,77.9999964294435,8|0,0:0|0:0,0:0:0:0:
304,45,211220,6,0,L|351:107,1,77.9999964294435,2|0,0:0|0:0,0:0:0:0:
471,182,211448,1,0,0:0:0:0:
471,182,211562,2,0,L|482:327,1,77.9999964294435,8|0,0:0|0:0,0:0:0:0:
359,237,211791,1,8,0:0:0:0:
359,237,211905,2,0,P|322:221|259:217,2,77.9999964294435,0|0|0,0:0|0:0|0:0,0:0:0:0:
482,337,212248,5,10,0:0:0:0:
476,259,212362,1,0,0:0:0:0:
471,182,212476,1,0,0:0:0:0:
464,105,212591,6,0,L|383:98,1,77.9999964294435,2|0,0:0|0:0,0:0:0:0:
274,42,212820,1,0,0:0:0:0:
274,42,212934,2,0,P|229:63|179:73,1,77.9999964294435,8|0,0:0|0:0,0:0:0:0:
38,111,213162,1,8,0:0:0:0:
38,111,213277,6,0,L|28:25,1,77.9999964294435,2|0,0:0|0:0,0:0:0:0:
207,223,213505,2,0,L|217:137,1,77.9999964294435,8|0,0:0|0:0,0:0:0:0:
28,287,213734,2,0,L|18:201,1,77.9999964294435,8|0,0:0|0:0,0:0:0:0:
126,86,213962,6,0,L|135:163,1,77.9999964294435,2|0,0:0|0:0,0:0:0:0:
112,314,214191,1,0,0:0:0:0:
112,314,214305,2,0,L|102:228,1,77.9999964294435,8|0,0:0|0:0,0:0:0:0:
216,145,214534,1,0,0:0:0:0:
216,145,214648,2,0,P|252:134|322:142,2,77.9999964294435,2|0|0,0:0|0:0|0:0,0:0:0:0:
273,249,214991,5,8,0:0:0:0:
348,247,215105,1,0,0:0:0:0:
399,191,215219,1,8,0:0:0:0:
392,116,215334,6,0,L|381:31,1,77.9999964294435,2|0,0:0|0:0,0:0:0:0:
512,0,215562,1,0,0:0:0:0:
512,0,215677,2,0,L|501:77,1,77.9999964294435,8|0,0:0|0:0,0:0:0:0:
474,220,215905,1,0,0:0:0:0:
474,220,216019,6,0,P|497:278|529:320,1,77.9999964294435,4|0,0:0|0:0,0:0:0:0:
319,151,216248,2,0,P|295:92|263:50,1,77.9999964294435,8|0,0:0|0:0,0:0:0:0:
362,262,216477,2,0,P|303:285|261:317,1,77.9999964294435,8|0,0:0|0:0,0:0:0:0:
425,57,216705,6,0,L|409:160,1,77.9999964294435,2|0,0:0|0:0,0:0:0:0:
362,262,216934,1,0,0:0:0:0:
362,262,217048,2,0,L|377:365,1,77.9999964294435,8|0,0:0|0:0,0:0:0:0:
247,204,217277,1,0,0:0:0:0:
247,204,217391,6,0,P|155:187|132:190,1,77.9999964294435,2|0,0:0|0:0,0:0:0:0:
55,331,217620,2,0,P|115:259|124:238,1,77.9999964294435,8|0,0:0|0:0,0:0:0:0:
42,102,217848,2,0,P|73:190|87:208,1,77.9999964294435,8|0,0:0|0:0,0:0:0:0:
205,306,218077,6,0,L|318:295,2,77.9999964294435,2|0|0,0:0|0:0|0:0,0:0:0:0:
365,212,218420,2,0,L|442:219,2,77.9999964294435,8|0|0,0:0|0:0|0:0,0:0:0:0:
244,60,218762,2,0,P|252:97|266:134,1,77.9999964294435,2|0,0:0|0:0,0:0:0:0:
382,287,218991,2,0,P|375:248|364:211,1,77.9999964294435,8|0,0:0|0:0,0:0:0:0:
463,38,219220,2,0,P|451:75|445:113,1,77.9999964294435,8|0,0:0|0:0,0:0:0:0:
263,225,219448,6,0,P|224:227|187:239,2,77.9999964294435,2|0|0,0:0|0:0|0:0,0:0:0:0:
382,287,219791,2,0,P|420:284|457:272,2,77.9999964294435,8|0|0,0:0|0:0|0:0,0:0:0:0:
360,176,220134,1,2,0:0:0:0:
360,176,220248,1,0,0:0:0:0:
360,176,220362,1,0,0:0:0:0:
382,287,220477,5,8,0:0:0:0:
174,213,220705,5,2,0:0:0:0:
174,213,220820,1,0,0:0:0:0:
80,77,221162,1,0,0:0:0:0:
53,264,221505,5,0,0:0:0:0:
174,213,221763,1,0,0:0:0:0:
160,345,222020,1,2,0:0:0:0:
51,100,222191,6,0,P|44:61|44:22,2,77.9999964294435,4|0|0,0:0|0:0|0:0,0:0:0:0:
158,136,222534,2,0,L|174:213,2,77.9999964294435,8|0|0,0:0|0:0|0:0,0:0:0:0:
230,45,222877,5,2,0:0:0:0:
282,27,222991,1,0,0:0:0:0:
335,40,223105,1,0,0:0:0:0:
436,88,223220,5,8,0:0:0:0:
496,41,223334,1,0,0:0:0:0:
425,14,223448,1,8,0:0:0:0:
364,149,223562,6,0,L|372:231,1,77.9999964294435,2|0,0:0|0:0,0:0:0:0:
447,296,223791,1,0,0:0:0:0:
276,248,223905,2,0,P|237:247|198:255,2,77.9999964294435,8|0|0,0:0|0:0|0:0,0:0:0:0:
436,88,224248,6,0,L|444:170,1,77.9999964294435,2|0,0:0|0:0,0:0:0:0:
364,304,224477,2,0,L|371:226,1,77.9999964294435,8|0,0:0|0:0,0:0:0:0:
281,103,224705,1,8,0:0:0:0:
204,93,224819,1,0,0:0:0:0:
132,123,224934,6,0,L|34:117,2,77.9999964294435,2|0|0,0:0|0:0|0:0,0:0:0:0:
281,17,225277,2,0,L|379:11,2,77.9999964294435,8|0|0,0:0|0:0|0:0,0:0:0:0:
204,93,225620,5,2,0:0:0:0:
207,128,225734,1,0,0:0:0:0:
286,178,225848,5,8,0:0:0:0:
289,213,225962,1,0,0:0:0:0:
383,333,226077,5,8,0:0:0:0:
279,295,226191,1,0,0:0:0:0:
443,211,226305,6,0,P|456:130|452:94,2,77.9999964294435,2|0|0,0:0|0:0|0:0,0:0:0:0:
318,64,226648,2,0,P|354:53|399:49,2,77.9999964294435,8|0|0,0:0|0:0|0:0,0:0:0:0:
158,141,226991,2,0,L|80:134,1,77.9999964294435,2|0,0:0|0:0,0:0:0:0:
221,254,227220,5,0,0:0:0:0:
291,148,227334,1,8,0:0:0:0:
133,25,227448,1,0,0:0:0:0:
158,141,227562,1,8,0:0:0:0:
40,210,227677,6,0,L|32:298,2,77.9999964294435,2|0|0,0:0|0:0|0:0,0:0:0:0:
153,302,228020,2,0,L|190:382,2,77.9999964294435,8|0|0,0:0|0:0|0:0,0:0:0:0:
252,139,228362,1,2,0:0:0:0:
236,186,228476,1,0,0:0:0:0:
247,236,228590,1,0,0:0:0:0:
329,353,228705,5,8,0:0:0:0:
371,259,228820,1,0,0:0:0:0:
240,317,228934,1,8,0:0:0:0:
413,166,229048,6,0,L|514:184,1,77.9999964294435,2|0,0:0|0:0,0:0:0:0:
347,47,229277,1,0,0:0:0:0:
259,159,229391,2,0,P|247:213|247:251,2,77.9999964294435,8|0|0,0:0|0:0|0:0,0:0:0:0:
400,330,229734,6,0,P|389:292|369:257,1,77.9999964294435,2|0,0:0|0:0,0:0:0:0:
442,94,229962,2,0,P|423:128|412:165,1,77.9999964294435,8|0,0:0|0:0,0:0:0:0:
471,277,230191,1,8,0:0:0:0:
512,184,230305,1,0,0:0:0:0:
336,148,230420,6,0,L|254:159,1,77.9999964294435,2|0,0:0|0:0,0:0:0:0:
156,57,230648,1,0,0:0:0:0:
156,57,230762,2,0,L|238:68,2,77.9999964294435,8|0|0,0:0|0:0|0:0,0:0:0:0:
68,96,231105,5,2,0:0:0:0:
64,130,231220,1,0,0:0:0:0:
0,202,231334,5,8,0:0:0:0:
5,245,231449,1,0,0:0:0:0:
130,289,231562,5,8,0:0:0:0:
46,335,231677,1,0,0:0:0:0:
211,178,231791,6,0,L|227:274,2,77.9999964294435,2|0|0,0:0|0:0|0:0,0:0:0:0:
139,84,232134,2,0,P|83:70|37:71,2,77.9999964294435,8|0|0,0:0|0:0|0:0,0:0:0:0:
297,118,232477,2,0,P|335:114|373:103,1,77.9999964294435,2|0,0:0|0:0,0:0:0:0:
488,33,232705,5,0,0:0:0:0:
331,6,232820,1,8,0:0:0:0:
465,142,232934,1,0,0:0:0:0:
465,142,233048,1,8,0:0:0:0:
363,226,233162,6,0,L|380:316,2,77.9999964294435,2|0|0,0:0|0:0|0:0,0:0:0:0:
209,152,233505,2,0,P|211:111|223:75,2,77.9999964294435,8|0|0,0:0|0:0|0:0,0:0:0:0:
232,288,233848,5,2,0:0:0:0:
180,288,233962,1,0,0:0:0:0:
138,259,234076,1,0,0:0:0:0:
45,143,234191,5,8,0:0:0:0:
209,152,234305,1,0,0:0:0:0:
29,217,234420,1,8,0:0:0:0:
222,76,234534,6,0,P|298:64|349:67,1,77.9999964294435,2|0,0:0|0:0,0:0:0:0:
101,22,234762,1,0,0:0:0:0:
129,181,234877,2,0,L|140:282,2,77.9999964294435,8|0|0,0:0|0:0|0:0,0:0:0:0:
26,67,235220,6,0,P|35:121|60:168,1,77.9999964294435,2|0,0:0|0:0,0:0:0:0:
233,237,235448,2,0,P|246:200|251:161,1,77.9999964294435,8|0,0:0|0:0,0:0:0:0:
177,12,235677,1,8,0:0:0:0:
114,97,235791,1,0,0:0:0:0:
298,63,235905,6,0,L|406:50,2,77.9999964294435,2|0|0,0:0|0:0|0:0,0:0:0:0:
433,171,236248,2,0,L|538:195,2,77.9999964294435,8|0|0,0:0|0:0|0:0,0:0:0:0:
333,243,236591,5,2,0:0:0:0:
333,243,236705,1,0,0:0:0:0:
438,292,236820,1,0,0:0:0:0:
267,160,236934,2,0,P|196:169|146:189,1,77.9999964294435,8|0,0:0|0:0,0:0:0:0:
116,279,237162,1,8,0:0:0:0:
40,76,237277,6,0,L|55:180,1,77.9999964294435,0|0,0:0|0:0,0:0:0:0:
54,245,237505,1,0,0:0:0:0:
152,20,237620,2,0,L|137:124,1,77.9999964294435,8|0,0:0|0:0,0:0:0:0:
117,200,237848,1,0,0:0:0:0:
255,82,237962,5,2,0:0:0:0:
259,119,238077,1,0,0:0:0:0:
365,150,238191,5,8,0:0:0:0:
360,192,238306,1,0,0:0:0:0:
479,43,238420,5,8,0:0:0:0:
488,114,238535,1,0,0:0:0:0:
461,219,238648,6,0,L|480:353,1,77.9999964294435,2|0,0:0|0:0,0:0:0:0:
402,364,238877,1,0,0:0:0:0:
263,275,238991,2,0,L|273:197,1,77.9999964294435,8|0,0:0|0:0,0:0:0:0:
365,150,239220,1,0,0:0:0:0:
268,53,239334,6,0,P|229:51|190:54,1,77.9999964294435,2|0,0:0|0:0,0:0:0:0:
47,205,239562,2,0,L|37:109,1,77.9999964294435,8|0,0:0|0:0,0:0:0:0:
91,38,239791,1,8,0:0:0:0:
91,38,239905,1,0,0:0:0:0:
197,209,240020,6,0,L|188:286,2,77.9999964294435,2|0|0,0:0|0:0|0:0,0:0:0:0:
79,278,240362,2,0,P|40:282|2:291,2,77.9999964294435,8|0|0,0:0|0:0|0:0,0:0:0:0:
175,363,240705,5,2,0:0:0:0:
135,352,240820,1,0,0:0:0:0:
270,257,240934,5,8,0:0:0:0:
316,244,241049,1,0,0:0:0:0:
434,221,241162,5,8,0:0:0:0:
391,344,241277,1,0,0:0:0:0:
286,168,241391,6,0,P|286:129|294:88,2,77.9999964294435,2|0|0,0:0|0:0|0:0,0:0:0:0:
467,72,241734,2,0,P|447:38|420:6,2,77.9999964294435,8|0|0,0:0|0:0|0:0,0:0:0:0:
436,163,242077,5,2,0:0:0:0:
435,182,242191,1,0,0:0:0:0:
435,201,242305,1,0,0:0:0:0:
485,266,242420,5,8,0:0:0:0:
295,309,242648,5,2,0:0:0:0:
295,309,242762,1,0,0:0:0:0:
102,160,243105,1,0,0:0:0:0:
116,292,243448,5,2,0:0:0:0:
223,211,243677,1,0,0:0:0:0:
102,160,243905,1,0,0:0:0:0:
348,38,244134,5,6,0:0:0:0:
348,38,244220,1,0,0:0:0:0:
348,38,244305,2,0,L|360:182,1,125.999996154785,8|0,0:0|0:0,0:0:0:0:
257,332,244562,2,0,P|280:261|331:220,1,125.999996154785,8|0,0:0|0:0,0:0:0:0:
512,227,244820,2,0,B|455:245|455:245|383:232,1,125.999996154785,10|0,0:0|0:0,0:0:0:0:
257,133,245077,2,0,B|200:115|200:115|128:128,1,125.999996154785,8|8,0:0|0:0,0:0:0:0:
185,259,245334,2,0,P|183:223|176:191,1,62.9999980773926,8|8,0:0|0:0,0:0:0:0:
45,56,245505,5,6,0:0:0:0:
45,56,245591,1,0,0:0:0:0:
45,56,245677,2,0,P|32:110|54:222,1,125.999996154785,8|0,0:0|0:0,0:0:0:0:
119,302,245934,2,0,P|54:274|-12:272,1,125.999996154785,8|0,0:0|0:0,0:0:0:0:
306,224,246191,2,0,P|246:249|183:258,1,125.999996154785,10|0,0:0|0:0,0:0:0:0:
399,330,246448,2,0,L|382:176,1,125.999996154785,8|8,0:0|0:0,0:0:0:0:
490,71,246705,2,0,P|448:63|403:60,1,62.9999980773926,10|10,0:0|0:0,0:0:0:0:
305,108,246877,5,6,0:0:0:0:
264,111,246962,1,0,0:0:0:0:
222,114,247048,2,0,L|80:103,1,125.999996154785,8|0,0:0|0:0,0:0:0:0:
0,235,247305,2,0,P|52:202|133:185,1,125.999996154785,8|0,0:0|0:0,0:0:0:0:
216,367,247562,2,0,P|161:338|106:276,1,125.999996154785,10|0,0:0|0:0,0:0:0:0:
222,114,247820,2,0,P|224:175|198:254,1,125.999996154785,8|0,0:0|0:0,0:0:0:0:
334,337,248077,2,0,L|326:265,1,62.9999980773926,8|8,0:0|0:0,0:0:0:0:
377,153,248248,5,6,0:0:0:0:
380,121,248333,1,0,0:0:0:0:
383,90,248420,2,0,P|453:100|517:83,1,125.999996154785,8|0,0:0|0:0,0:0:0:0:
450,272,248677,2,0,P|380:262|316:279,1,125.999996154785,8|0,0:0|0:0,0:0:0:0:
296,53,248934,2,0,L|305:193,1,125.999996154785,10|10,0:0|0:0,0:0:0:0:
241,281,249191,5,0,0:0:0:0:
183,322,249276,1,10,0:0:0:0:
116,301,249362,1,8,0:0:0:0:
91,235,249448,1,8,0:0:0:0:
129,176,249534,1,8,0:0:0:0:
141,136,249619,5,6,0:0:0:0:
135,95,249705,1,0,0:0:0:0:
111,61,249791,2,0,B|15:54|15:54|37:78,1,125.999996154785,8|0,0:0|0:0,0:0:0:0:
224,156,250048,2,0,B|278:76|278:76|246:83,1,125.999996154785,8|0,0:0|0:0,0:0:0:0:
86,207,250305,2,0,B|127:293|127:293|137:262,1,125.999996154785,10|0,0:0|0:0,0:0:0:0:
346,168,250562,2,0,P|277:149|220:157,1,125.999996154785,8|0,0:0|0:0,0:0:0:0:
428,274,250820,2,0,L|422:192,1,62.9999980773926,8|8,0:0|0:0,0:0:0:0:
473,33,250991,5,6,0:0:0:0:
473,33,251077,1,0,0:0:0:0:
473,33,251162,2,0,B|499:96|499:96|495:175,1,125.999996154785,8|0,0:0|0:0,0:0:0:0:
268,34,251420,2,0,L|409:6,1,125.999996154785,8|0,0:0|0:0,0:0:0:0:
346,167,251677,2,0,P|277:161|225:132,1,125.999996154785,10|0,0:0|0:0,0:0:0:0:
107,19,251934,2,0,B|80:91|122:161,1,125.999996154785,8|8,0:0|0:0,0:0:0:0:
172,270,252191,5,0,0:0:0:0:
172,270,252277,2,0,P|177:232|177:193,1,62.9999980773926,10|0,0:0|0:0,0:0:0:0:
24,117,252448,2,0,P|33:147|45:176,1,62.9999980773926,8|0,0:0|0:0,0:0:0:0:
195,289,252620,2,0,P|190:251|179:213,1,62.9999980773926,8|0,0:0|0:0,0:0:0:0:
12,179,252791,2,0,P|29:206|48:231,1,62.9999980773926,8|0,0:0|0:0,0:0:0:0:
142,340,252962,5,0,0:0:0:0:
142,340,253048,2,0,P|216:311|311:331,1,125.999996154785,10|0,0:0|0:0,0:0:0:0:
426,325,253305,2,0,L|361:348,1,62.9999980773926,8|0,0:0|0:0,0:0:0:0:
279,192,253477,2,0,L|344:215,1,62.9999980773926,8|8,0:0|0:0,0:0:0:0:
433,129,253648,6,0,P|471:205|477:265,1,125.999996154785,10|0,0:0|0:0,0:0:0:0:
266,78,253905,2,0,P|320:46|382:34,1,125.999996154785,8|0,0:0|0:0,0:0:0:0:
338,213,254162,2,0,L|208:220,1,125.999996154785,8|0,0:0|0:0,0:0:0:0:
54,121,254420,2,0,P|118:136|179:127,1,125.999996154785,10|10,0:0|0:0,0:0:0:0:
265,81,254677,5,0,0:0:0:0:
328,42,254762,1,10,0:0:0:0:
401,57,254848,1,10,0:0:0:0:
443,118,254934,1,8,0:0:0:0:
431,192,255019,1,0,0:0:0:0:
425,226,255105,5,6,0:0:0:0:
426,261,255191,1,0,0:0:0:0:
433,295,255277,2,0,P|348:280|268:313,1,125.999996154785,8|0,0:0|0:0,0:0:0:0:
203,344,255534,2,0,L|212:219,1,125.999996154785,8|0,0:0|0:0,0:0:0:0:
94,40,255791,2,0,L|103:165,1,125.999996154785,10|0,0:0|0:0,0:0:0:0:
0,299,256048,2,0,P|-8:234|9:174,1,125.999996154785,8|8,0:0|0:0,0:0:0:0:
124,66,256305,5,8,0:0:0:0:
124,66,256391,1,8,0:0:0:0:
124,66,256477,2,0,L|133:191,1,125.999996154785,6|0,0:0|0:0,0:0:0:0:
128,358,256734,2,0,P|88:305|73:245,1,125.999996154785,8|0,0:0|0:0,0:0:0:0:
287,125,256991,2,0,P|261:185|216:228,1,125.999996154785,8|0,0:0|0:0,0:0:0:0:
5,104,257248,2,0,P|70:96|130:113,1,125.999996154785,8|0,0:0|0:0,0:0:0:0:
219,37,257505,2,0,P|182:33|157:25,1,62.9999980773926,10|0,0:0|0:0,0:0:0:0:
0,189,257677,2,0,P|30:176|65:172,1,62.9999980773926,10|0,0:0|0:0,0:0:0:0:
137,295,257848,6,0,L|127:364,2,62.9999980773926,10|0|0,0:0|0:0|0:0,0:0:0:0:
256,219,258105,2,0,L|246:150,2,62.9999980773926,8|0|0,0:0|0:0|0:0,0:0:0:0:
368,313,258362,5,10,0:0:0:0:
388,321,258447,1,0,0:0:0:0:
409,325,258534,2,0,P|449:323|490:312,1,62.9999980773926,10|0,0:0|0:0,0:0:0:0:
482,204,258705,5,0,0:0:0:0:
446,175,258790,1,8,0:0:0:0:
401,181,258876,1,0,0:0:0:0:
374,217,258962,2,0,P|426:237|484:201,1,125.999996154785,8|0,0:0|0:0,0:0:0:0:
494,4,259220,6,0,L|518:162,1,125.999996154785,6|0,0:0|0:0,0:0:0:0:
311,133,259477,2,0,P|382:87|432:85,1,125.999996154785,8|0,0:0|0:0,0:0:0:0:
250,41,259734,2,0,P|199:51|178:51,1,62.9999980773926,8|0,0:0|0:0,0:0:0:0:
41,4,259905,2,0,P|101:71|105:153,1,125.999996154785,6|0,0:0|0:0,0:0:0:0:
187,279,260162,2,0,L|205:154,1,125.999996154785,8|0,0:0|0:0,0:0:0:0:
379,32,260420,5,8,0:0:0:0:
379,32,260505,1,8,0:0:0:0:
379,32,260591,2,0,P|319:99|315:181,1,125.999996154785,6|0,0:0|0:0,0:0:0:0:
396,244,260848,1,0,0:0:0:0:
396,244,260934,2,0,L|388:142,1,62.9999980773926,10|0,0:0|0:0,0:0:0:0:
512,60,261105,2,0,L|507:122,1,62.9999980773926,10|0,0:0|0:0,0:0:0:0:
456,313,261277,5,0,0:0:0:0:
456,313,261362,1,0,0:0:0:0:
456,313,261448,2,0,B|477:264|477:264|471:180,1,125.999996154785,8|0,0:0|0:0,0:0:0:0:
379,32,261705,2,0,B|358:81|358:81|364:165,1,125.999996154785,8|0,0:0|0:0,0:0:0:0:
273,327,261962,6,0,B|294:278|294:278|288:194,1,125.999996154785,10|0,0:0|0:0,0:0:0:0:
196,46,262219,2,0,B|175:95|175:95|181:179,1,125.999996154785,8|0,0:0|0:0,0:0:0:0:
92,344,262477,6,0,B|113:295|113:295|107:211,1,125.999996154785,8|2,0:0|0:0,0:0:0:0:
15,63,262734,2,0,B|-6:112|-6:112|0:196,1,125.999996154785,0|0,0:0|0:0,0:0:0:0:
190,303,262991,2,0,L|184:217,1,62.9999980773926,6|0,0:0|0:0,0:0:0:0:
277,71,263162,2,0,L|283:157,1,62.9999980773926,10|0,0:0|0:0,0:0:0:0:
345,265,263334,6,0,P|409:258|463:198,1,125.999996154785,6|0,0:0|0:0,0:0:0:0:
479,109,263591,1,0,0:0:0:0:
479,109,263677,2,0,P|440:57|361:40,1,125.999996154785,8|0,0:0|0:0,0:0:0:0:
265,196,263934,2,0,L|278:60,1,125.999996154785,8|0,0:0|0:0,0:0:0:0:
104,5,264191,2,0,L|115:130,1,125.999996154785,8|10,0:0|0:0,0:0:0:0:
125,225,264448,5,0,0:0:0:0:
128,266,264533,1,10,0:0:0:0:
132,308,264619,1,0,0:0:0:0:
256,192,264705,12,10,265905,0:0:0:0:
189,59,266077,6,0,P|127:53|80:64,2,90,4|0|8,0:0|0:0|0:0,0:0:0:0:
249,177,266591,1,0,0:0:0:0:
249,177,266677,2,0,L|240:278,1,90,2|2,0:0|0:0,0:0:0:0:
215,335,266934,2,0,L|208:245,1,90,0|8,0:0|0:0,0:0:0:0:
163,188,267191,2,0,P|123:179|109:179,1,45,0|0,0:0|0:0,0:0:0:0:
36,214,267362,5,0,0:0:0:0:
99,344,267534,1,0,0:0:0:0:
99,344,267619,1,0,0:0:0:0:
249,177,267791,2,0,P|300:164|348:166,1,90,8|0,0:0|0:0,0:0:0:0:
409,148,268048,2,0,P|365:143|323:127,1,90,2|2,0:0|0:0,0:0:0:0:
330,38,268305,2,0,L|321:153,1,90,0|8,0:0|0:0,0:0:0:0:
257,266,268648,5,8,0:0:0:0:
257,266,268734,2,0,L|250:176,1,90,0|0,0:0|0:0,0:0:0:0:
186,121,268991,2,0,P|142:125|100:141,1,90,0|8,0:0|0:0,0:0:0:0:
8,135,269248,2,0,L|4:77,1,45,0|0,0:0|0:0,0:0:0:0:
49,212,269419,2,0,L|42:301,1,90,2|2,0:0|0:0,0:0:0:0:
42,301,269677,1,0,0:0:0:0:
170,230,269848,1,8,0:0:0:0:
8,135,270019,5,0,0:0:0:0:
8,135,270105,2,0,P|-3:61|2:38,1,90,0|0,0:0|0:0,0:0:0:0:
71,0,270362,2,0,L|173:7,1,90,0|8,0:0|0:0,0:0:0:0:
189,76,270619,2,0,L|186:143,1,45,0|0,0:0|0:0,0:0:0:0:
283,153,270791,2,0,P|302:86|297:54,1,90,2|2,0:0|0:0,0:0:0:0:
187,120,271048,2,0,L|183:211,1,90,0|8,0:0|0:0,0:0:0:0:
119,318,271391,5,8,0:0:0:0:
119,318,271477,1,8,0:0:0:0:
119,318,271562,2,0,L|9:305,2,90,4|0|8,0:0|0:0|0:0,0:0:0:0:
234,278,272077,1,0,0:0:0:0:
234,278,272162,2,0,P|302:268|342:274,1,90,2|2,0:0|0:0,0:0:0:0:
413,265,272419,2,0,P|370:254|330:234,1,90,0|8,0:0|0:0,0:0:0:0:
284,172,272677,2,0,L|288:125,1,45,0|0,0:0|0:0,0:0:0:0:
306,53,272848,5,0,0:0:0:0:
454,105,273019,1,0,0:0:0:0:
454,105,273105,1,0,0:0:0:0:
284,172,273277,2,0,L|185:183,1,90,8|0,0:0|0:0,0:0:0:0:
124,201,273534,2,0,P|168:206|210:222,1,90,2|2,0:0|0:0,0:0:0:0:
197,310,273791,2,0,P|210:266|206:195,1,90,0|8,0:0|0:0,0:0:0:0:
135,69,274134,5,8,0:0:0:0:
135,69,274219,2,0,P|137:113|150:156,1,90,0|0,0:0|0:0,0:0:0:0:
212,222,274477,2,0,L|302:212,1,90,0|8,0:0|0:0,0:0:0:0:
343,281,274734,2,0,B|343:282|333:321|339:337,1,45,0|0,0:0|0:0,0:0:0:0:
425,268,274905,2,0,P|427:217|411:164,1,90,2|2,0:0|0:0,0:0:0:0:
418,179,275162,1,0,0:0:0:0:
253,304,275334,1,8,0:0:0:0:
209,143,275505,5,0,0:0:0:0:
209,143,275591,2,0,P|204:76|214:38,1,90,0|0,0:0|0:0,0:0:0:0:
290,13,275848,2,0,L|396:21,1,90,0|8,0:0|0:0,0:0:0:0:
454,76,276105,2,0,L|456:122,1,45,0|0,0:0|0:0,0:0:0:0:
381,187,276277,2,0,B|363:150|363:150|370:89,1,90,2|2,0:0|0:0,0:0:0:0:
454,1,276534,5,0,0:0:0:0:
488,202,276705,5,8,0:0:0:0:
478,245,276790,1,0,0:0:0:0:
449,278,276876,1,8,0:0:0:0:
407,294,276962,1,0,0:0:0:0:
363,288,277048,6,0,P|299:274|253:280,2,90,4|0|8,0:0|0:0|0:0,0:0:0:0:
264,192,277562,1,0,0:0:0:0:
264,192,277648,2,0,P|221:204|177:204,1,90,2|2,0:0|0:0,0:0:0:0:
90,164,277905,2,0,L|104:272,1,90,0|8,0:0|0:0,0:0:0:0:
173,329,278162,2,0,P|185:298|187:273,1,45,0|0,0:0|0:0,0:0:0:0:
177,204,278334,5,0,0:0:0:0:
41,341,278505,1,0,0:0:0:0:
41,341,278591,1,0,0:0:0:0:
0,186,278762,2,0,L|12:96,1,90,8|0,0:0|0:0,0:0:0:0:
130,24,279019,2,0,L|41:12,1,90,2|2,0:0|0:0,0:0:0:0:
106,124,279277,2,0,P|181:109|205:93,1,90,0|8,0:0|0:0,0:0:0:0:
302,33,279619,5,8,0:0:0:0:
302,33,279705,2,0,P|360:26|402:42,1,90,0|0,0:0|0:0,0:0:0:0:
278,115,279962,2,0,L|269:204,1,90,0|8,0:0|0:0,0:0:0:0:
257,286,280219,2,0,P|252:318|243:336,1,45,0|0,0:0|0:0,0:0:0:0:
158,284,280391,2,0,P|160:229|168:194,1,90,2|2,0:0|0:0,0:0:0:0:
167,196,280648,1,0,0:0:0:0:
354,151,280819,1,8,0:0:0:0:
190,36,280991,5,0,0:0:0:0:
190,36,281077,2,0,P|135:30|90:47,1,90,0|0,0:0|0:0,0:0:0:0:
25,95,281334,2,0,L|28:199,1,90,0|8,0:0|0:0,0:0:0:0:
96,258,281591,2,0,P|106:207|106:195,1,45,0|0,0:0|0:0,0:0:0:0:
239,105,281762,2,0,P|189:127|158:164,1,90,2|2,0:0|0:0,0:0:0:0:
188,317,282019,2,0,P|193:263|178:227,1,90,0|8,0:0|0:0,0:0:0:0:
101,89,282362,5,2,0:0:0:0:
101,89,282448,1,8,0:0:0:0:
101,89,282534,2,0,L|98:0,2,90,4|0|8,0:0|0:0|0:0,0:0:0:0:
40,196,283048,1,0,0:0:0:0:
40,196,283134,2,0,L|37:285,1,90,2|2,0:0|0:0,0:0:0:0:
129,322,283391,2,0,P|188:305|234:305,1,90,0|8,0:0|0:0,0:0:0:0:
173,225,283648,2,0,L|175:180,1,45,0|0,0:0|0:0,0:0:0:0:
240,106,283819,5,0,0:0:0:0:
72,68,283991,1,0,0:0:0:0:
72,68,284077,1,0,0:0:0:0:
173,225,284248,2,0,P|236:207|287:210,1,90,8|0,0:0|0:0,0:0:0:0:
325,268,284505,2,0,L|443:243,1,90,2|2,0:0|0:0,0:0:0:0:
364,72,284762,2,0,L|346:160,1,90,0|8,0:0|0:0,0:0:0:0:
242,294,285105,5,8,0:0:0:0:
242,294,285191,2,0,L|261:205,1,90,0|0,0:0|0:0,0:0:0:0:
208,118,285448,2,0,P|178:65|151:41,1,90,0|8,0:0|0:0,0:0:0:0:
73,33,285705,2,0,P|31:31|-5:17,1,45,0|0,0:0|0:0,0:0:0:0:
63,117,285877,2,0,L|52:212,1,90,2|2,0:0|0:0,0:0:0:0:
67,310,286134,2,0,P|142:287|180:287,1,90,0|8,0:0|0:0,0:0:0:0:
242,294,286391,5,0,0:0:0:0:
285,301,286476,1,8,0:0:0:0:
328,289,286562,1,0,0:0:0:0:
256,192,286648,12,8,287848,0:0:0:0:
115,176,288020,6,0,P|123:225|113:273,1,99.0000030212403,4|0,0:0|0:0,0:0:0:0:
47,345,288278,1,0,0:0:0:0:
47,345,288363,2,0,L|117:357,1,49.5000015106202,8|0,0:0|0:0,0:0:0:0:
195,315,288535,2,0,L|265:303,1,49.5000015106202,0|0,0:0|0:0,0:0:0:0:
351,334,288706,5,2,0:0:0:0:
392,349,288791,1,0,0:0:0:0:
434,340,288877,1,2,0:0:0:0:
464,310,288963,1,0,0:0:0:0:
474,269,289048,1,0,0:0:0:0:
465,225,289133,1,0,0:0:0:0:
465,181,289219,1,0,0:0:0:0:
475,139,289305,1,0,0:0:0:0:
470,69,289392,5,2,0:0:0:0:
414,102,289477,1,0,0:0:0:0:
349,112,289562,1,0,0:0:0:0:
285,97,289648,1,0,0:0:0:0:
210,99,289735,6,0,P|181:107|138:111,3,49.5000015106202,8|0|0|0,0:0|0:0|0:0|0:0,0:0:0:0:
54,85,290078,2,0,P|38:66|20:48,3,49.5000015106202,2|0|2|0,0:0|0:0|0:0|0:0,0:0:0:0:
86,169,290420,2,0,P|77:192|71:216,3,49.5000015106202,8|0|0|0,0:0|0:0|0:0|0:0,0:0:0:0:
0,274,290763,6,0,P|65:293|109:280,1,99.0000030212403,4|0,0:0|0:0,0:0:0:0:
167,232,291020,1,0,0:0:0:0:
167,232,291106,2,0,L|236:241,1,49.5000015106202,8|0,0:0|0:0,0:0:0:0:
283,316,291278,2,0,L|352:307,1,49.5000015106202,0|0,0:0|0:0,0:0:0:0:
437,236,291449,5,2,0:0:0:0:
418,210,291534,1,0,0:0:0:0:
407,179,291620,1,2,0:0:0:0:
404,146,291706,1,0,0:0:0:0:
411,114,291791,1,8,0:0:0:0:
455,93,291878,1,0,0:0:0:0:
411,114,291963,1,0,0:0:0:0:
362,120,292049,1,0,0:0:0:0:
315,102,292135,5,2,0:0:0:0:
264,82,292220,1,0,0:0:0:0:
209,82,292306,1,0,0:0:0:0:
159,103,292392,1,0,0:0:0:0:
108,160,292478,6,0,L|110:215,3,49.5000015106202,8|0|0|0,0:0|0:0|0:0|0:0,0:0:0:0:
50,306,292820,2,0,L|-3:316,3,49.5000015106202,2|0|2|0,0:0|0:0|0:0|0:0,0:0:0:0:
132,371,293163,2,0,L|185:381,3,49.5000015106202,8|0|8|0,0:0|0:0|0:0|0:0,0:0:0:0:
231,285,293506,6,0,B|293:266|364:282,1,99.0000030212403,4|0,0:0|0:0,0:0:0:0:
423,310,293763,1,0,0:0:0:0:
423,310,293849,6,0,B|432:268|416:223,1,49.5000015106202,8|0,0:0|0:0,0:0:0:0:
331,161,294021,2,0,B|363:188|410:198,1,49.5000015106202,0|0,0:0|0:0,0:0:0:0:
505,153,294192,2,0,B|465:166|434:202,1,49.5000015106202,2|0,0:0|0:0,0:0:0:0:
329,276,294363,2,0,L|310:337,1,49.5000015106202,2|0,0:0|0:0,0:0:0:0:
259,121,294535,1,8,0:0:0:0:
224,133,294620,1,0,0:0:0:0:
188,139,294706,1,0,0:0:0:0:
151,139,294792,1,0,0:0:0:0:
114,132,294878,5,2,0:0:0:0:
128,179,294963,1,0,0:0:0:0:
121,228,295049,1,0,0:0:0:0:
94,268,295135,1,0,0:0:0:0:
52,293,295220,6,0,P|27:302|-8:308,3,49.5000015106202,8|0|0|0,0:0|0:0|0:0|0:0,0:0:0:0:
141,354,295563,2,0,P|167:363|202:369,3,49.5000015106202,2|0|2|0,0:0|0:0|0:0|0:0,0:0:0:0:
249,291,295906,2,0,P|275:283|310:277,3,49.5000015106202,8|0|0|0,0:0|0:0|0:0|0:0,0:0:0:0:
358,366,296249,6,0,P|432:346|463:319,1,99.0000030212403,4|0,0:0|0:0,0:0:0:0:
435,241,296506,1,0,0:0:0:0:
435,241,296591,6,0,L|378:233,1,49.5000015106202,8|0,0:0|0:0,0:0:0:0:
248,132,296763,2,0,L|306:142,1,49.5000015106202,0|0,0:0|0:0,0:0:0:0:
297,279,296935,2,0,L|307:223,1,49.5000015106202,2|0,0:0|0:0,0:0:0:0:
387,95,297106,2,0,L|379:154,1,49.5000015106202,2|0,0:0|0:0,0:0:0:0:
188,262,297278,1,8,0:0:0:0:
148,272,297363,1,0,0:0:0:0:
107,261,297449,1,0,0:0:0:0:
77,232,297535,1,0,0:0:0:0:
63,192,297620,5,2,0:0:0:0:
67,144,297706,1,0,0:0:0:0:
98,105,297792,1,0,0:0:0:0:
144,85,297878,1,0,0:0:0:0:
186,82,297963,6,0,L|301:95,1,99.0000030212403,4|0,0:0|0:0,0:0:0:0:
394,165,298220,2,0,P|373:84|377:26,1,99.0000030212403,4|0,0:0|0:0,0:0:0:0:
294,203,298478,2,0,P|279:252|265:274,1,49.5000015106202,8|0,0:0|0:0,0:0:0:0:
410,356,298649,2,0,P|392:297|361:249,1,99.0000030212403,2|0,0:0|0:0,0:0:0:0:
294,203,298906,1,0,0:0:0:0:
219,170,298992,6,0,L|83:181,1,99.0000030212403,4|0,0:0|0:0,0:0:0:0:
50,242,299249,1,0,0:0:0:0:
50,242,299335,2,0,P|42:282|41:305,1,49.5000015106202,8|0,0:0|0:0,0:0:0:0:
144,323,299506,2,0,P|158:362|168:383,1,49.5000015106202,0|0,0:0|0:0,0:0:0:0:
278,274,299678,5,2,0:0:0:0:
310,257,299763,1,0,0:0:0:0:
346,262,299849,1,2,0:0:0:0:
371,288,299935,1,0,0:0:0:0:
375,325,300021,1,8,0:0:0:0:
349,284,300106,1,0,0:0:0:0:
337,236,300192,1,0,0:0:0:0:
340,187,300278,1,0,0:0:0:0:
358,141,300362,5,0,0:0:0:0:
312,156,300449,1,0,0:0:0:0:
262,155,300535,1,0,0:0:0:0:
216,138,300621,1,0,0:0:0:0:
147,86,300706,6,0,P|141:49|138:15,3,49.5000015106202,8|0|0|0,0:0|0:0|0:0|0:0,0:0:0:0:
52,195,301049,2,0,P|58:158|61:124,3,49.5000015106202,2|0|2|0,0:0|0:0|0:0|0:0,0:0:0:0:
134,272,301392,2,0,P|138:297|142:321,3,49.5000015106202,8|0|0|0,0:0|0:0|0:0|0:0,0:0:0:0:
237,350,301735,6,0,L|364:343,1,99.0000030212403,4|0,0:0|0:0,0:0:0:0:
429,287,301992,1,0,0:0:0:0:
429,287,302078,2,0,L|440:224,1,49.5000015106202,8|0,0:0|0:0,0:0:0:0:
370,144,302249,2,0,L|359:81,1,49.5000015106202,0|0,0:0|0:0,0:0:0:0:
264,185,302420,5,2,0:0:0:0:
229,196,302505,1,0,0:0:0:0:
192,201,302591,1,2,0:0:0:0:
155,200,302677,1,0,0:0:0:0:
119,193,302763,1,8,0:0:0:0:
145,236,302848,1,0,0:0:0:0:
156,284,302934,1,0,0:0:0:0:
151,333,303020,1,0,0:0:0:0:
198,359,303106,5,2,0:0:0:0:
242,337,303191,1,0,0:0:0:0:
291,329,303277,1,0,0:0:0:0:
340,336,303363,1,0,0:0:0:0:
410,353,303449,6,0,P|455:362|475:363,3,49.5000015106202,8|0|0|0,0:0|0:0|0:0|0:0,0:0:0:0:
358,228,303792,2,0,P|334:232|310:238,3,49.5000015106202,2|0|2|0,0:0|0:0|0:0|0:0,0:0:0:0:
436,141,304135,2,0,P|461:147|485:151,3,49.5000015106202,8|0|0|0,0:0|0:0|0:0|0:0,0:0:0:0:
366,78,304478,6,0,P|300:99|231:82,1,99.0000030212403,4|0,0:0|0:0,0:0:0:0:
188,49,304735,1,0,0:0:0:0:
188,49,304820,2,0,P|141:40|114:43,1,49.5000015106202,8|0,0:0|0:0,0:0:0:0:
24,88,304992,2,0,P|71:97|98:94,1,49.5000015106202,0|0,0:0|0:0,0:0:0:0:
175,160,305163,2,0,L|183:208,1,49.5000015106202,2|0,0:0|0:0,0:0:0:0:
76,253,305335,2,0,L|67:301,1,49.5000015106202,2|0,0:0|0:0,0:0:0:0:
203,312,305505,5,8,0:0:0:0:
251,317,305590,1,0,0:0:0:0:
298,300,305676,1,0,0:0:0:0:
333,266,305762,1,0,0:0:0:0:
349,220,305848,5,2,0:0:0:0:
334,172,305933,1,0,0:0:0:0:
338,123,306019,1,0,0:0:0:0:
361,80,306105,1,0,0:0:0:0:
398,47,306191,6,0,L|462:37,3,49.5000015106202,8|0|0|0,0:0|0:0|0:0|0:0,0:0:0:0:
238,96,306534,2,0,L|174:85,3,49.5000015106202,2|0|2|0,0:0|0:0|0:0|0:0,0:0:0:0:
434,173,306877,2,0,L|497:162,3,49.5000015106202,8|0|0|0,0:0|0:0|0:0|0:0,0:0:0:0:
333,266,307220,5,2,0:0:0:0:
256,192,307305,12,0,308420,0:0:0:0:
277,327,308591,6,0,B|280:260|253:214|253:214|281:242|330:254,1,175.499991966248,4|0,0:0|0:0,0:0:0:0:
397,184,308934,2,0,P|380:119|276:95,1,175.499991966248,4|0,0:0|0:0,0:0:0:0:
126,187,309277,2,0,P|153:237|259:202,1,175.499991966248,4|0,0:0|0:0,0:0:0:0:
187,25,309620,2,0,B|140:103|140:103|122:211,1,175.499991966248,4|0,0:0|0:0,0:0:0:0:
202,336,309962,5,2,0:0:0:0:
