osu file format v14

[General]
AudioFilename: audio.mp3
AudioLeadIn: 0
PreviewTime: 92178
Countdown: 1
SampleSet: Soft
StackLeniency: 0.7
Mode: 1
LetterboxInBreaks: 0
WidescreenStoryboard: 1

[Editor]
DistanceSpacing: 1.9
BeatDivisor: 4
GridSize: 32
TimelineZoom: 1.9

[Metadata]
Title:Ishikitakaikei yandere doemushoujoJ
TitleUnicode:意識高い系ヤンデレドM少女J
Artist:Silver forest
ArtistUnicode:Silver forest
Creator:]_p
Version:Joga was playing 1/6
Source:
Tags:
BeatmapID:1308355
BeatmapSetID:620643

[Difficulty]
HPDrainRate:5
CircleSize:5
OverallDifficulty:5
ApproachRate:5
SliderMultiplier:1.4
SliderTickRate:1

[Events]
//Background and Video events
0,0,"maxresdefault[1].jpg",0,0
//Break Periods
//Storyboard Layer 0 (Background)
//Storyboard Layer 1 (Fail)
//Storyboard Layer 2 (Pass)
//Storyboard Layer 3 (Foreground)
//Storyboard Sound Samples

[TimingPoints]
69,375,4,2,0,100,1,0
1506,-104.166666666667,4,2,0,100,0,0
7256,-100,4,2,0,100,0,0
7319,-96.1538461538461,4,2,0,100,0,0
7381,-92.5925925925926,4,2,0,100,0,0
7444,-89.2857142857143,4,2,0,100,0,0
7506,-86.2068965517241,4,2,0,100,0,0
7569,-83.3333333333333,4,2,0,100,0,0
48069,-76.9230769230769,4,2,0,100,0,1
79381,-78.4313725490196,4,2,0,100,0,1
79444,-80,4,2,0,100,0,1
79506,-81.6326530612245,4,2,0,100,0,1
79569,-83.3333333333333,4,2,0,100,0,0
92131,-81.6326530612245,4,2,0,100,0,0
92194,-80,4,2,0,100,0,0
92256,-78.4313725490196,4,2,0,100,0,0
92319,375,4,2,0,100,1,0
92319,-76.9230769230769,4,2,0,100,0,1
102772,-83.3333333333333,4,2,0,75,0,1
104319,-76.9230769230769,4,2,0,100,0,1
107006,-75.7575757575758,4,2,0,100,0,1
107069,-74.6268656716418,4,2,0,100,0,1
107131,-73.5294117647059,4,2,0,100,0,1
107194,-72.463768115942,4,2,0,100,0,1
107256,-71.4285714285714,4,2,0,100,0,1
107319,-70.4225352112676,4,2,0,100,0,1
124944,-76.9230769230769,4,2,0,100,0,0
125319,-70.4225352112676,4,2,0,100,0,1
126569,-70.4225352112676,4,2,0,100,0,1
126631,-72.202166064982,4,2,0,100,0,1
126694,-73.5294117647059,4,2,0,100,0,1
126756,-74.3494423791822,4,2,0,100,0,1
126819,-75.7575757575758,4,2,0,100,0,0

[HitObjects]
256,160,1569,5,2,0:0:0:0:
416,160,1662,1,0,0:0:0:0:
256,160,1756,1,2,0:0:0:0:
384,192,1850,1,0,0:0:0:0:
256,160,2037,1,2,0:0:0:0:
256,160,2131,1,2,0:0:0:0:
256,160,2225,1,2,0:0:0:0:
384,192,2319,1,0,0:0:0:0:
256,160,2600,1,2,0:0:0:0:
416,160,2694,1,0,0:0:0:0:
256,160,2787,1,2,0:0:0:0:
384,192,2881,1,0,0:0:0:0:
256,160,3069,1,2,0:0:0:0:
416,160,3162,1,0,0:0:0:0:
256,160,3256,1,2,0:0:0:0:
384,192,3350,1,0,0:0:0:0:
256,160,3537,1,2,0:0:0:0:
256,160,3631,1,2,0:0:0:0:
256,160,3725,1,2,0:0:0:0:
384,192,3819,1,0,0:0:0:0:
256,160,4100,1,2,0:0:0:0:
416,160,4194,1,0,0:0:0:0:
256,160,4287,1,2,0:0:0:0:
384,192,4381,1,0,0:0:0:0:
256,160,4569,1,2,0:0:0:0:
416,160,4662,1,0,0:0:0:0:
256,160,4756,1,2,0:0:0:0:
384,192,4850,1,0,0:0:0:0:
256,160,5037,1,2,0:0:0:0:
256,160,5131,1,2,0:0:0:0:
256,160,5225,1,2,0:0:0:0:
384,192,5319,1,0,0:0:0:0:
256,160,5600,1,2,0:0:0:0:
416,160,5694,1,0,0:0:0:0:
256,160,5787,1,2,0:0:0:0:
384,192,5881,1,0,0:0:0:0:
320,160,6069,1,2,0:0:0:0:
320,160,6350,1,2,0:0:0:0:
320,160,6631,1,2,0:0:0:0:
384,96,7194,1,0,0:0:0:0:
384,96,7256,1,0,0:0:0:0:
384,96,7319,1,0,0:0:0:0:
192,128,7381,1,2,0:0:0:0:
192,128,7444,1,2,0:0:0:0:
192,128,7506,1,2,0:0:0:0:
192,160,7569,1,0,0:0:0:0:
160,160,7756,1,0,0:0:0:0:
320,128,7944,1,2,0:0:0:0:
160,160,8131,1,0,0:0:0:0:
160,160,8225,1,0,0:0:0:0:
160,160,8319,1,0,0:0:0:0:
160,160,8506,1,0,0:0:0:0:
320,128,8694,1,2,0:0:0:0:
384,128,8881,1,0,0:0:0:0:
320,128,8975,1,2,0:0:0:0:
384,128,9069,1,0,0:0:0:0:
384,128,9256,1,0,0:0:0:0:
416,128,9444,1,2,0:0:0:0:
416,128,9631,1,2,0:0:0:0:
416,128,9725,1,2,0:0:0:0:
288,128,9819,1,0,0:0:0:0:
384,160,10006,1,0,0:0:0:0:
416,128,10194,1,2,0:0:0:0:
320,160,10381,1,0,0:0:0:0:
416,128,10475,1,2,0:0:0:0:
224,160,10569,1,0,0:0:0:0:
224,160,10756,1,0,0:0:0:0:
448,96,10944,1,2,0:0:0:0:
224,160,11131,1,0,0:0:0:0:
224,160,11225,1,0,0:0:0:0:
224,160,11319,1,0,0:0:0:0:
224,160,11506,1,0,0:0:0:0:
448,96,11694,1,2,0:0:0:0:
224,160,11881,1,0,0:0:0:0:
448,96,11975,1,2,0:0:0:0:
288,128,12069,1,2,0:0:0:0:
352,128,12256,1,0,0:0:0:0:
352,128,12444,1,0,0:0:0:0:
352,128,12537,1,0,0:0:0:0:
320,128,12631,1,2,0:0:0:0:
320,128,12725,1,2,0:0:0:0:
320,128,12819,1,2,0:0:0:0:
448,96,13006,1,0,0:0:0:0:
448,96,13100,1,0,0:0:0:0:
384,96,13194,1,2,0:0:0:0:
384,96,13256,1,2,0:0:0:0:
384,96,13319,1,2,0:0:0:0:
384,96,13381,1,2,0:0:0:0:
384,96,13444,1,2,0:0:0:0:
384,96,13506,1,2,0:0:0:0:
96,192,13569,1,0,0:0:0:0:
96,192,13756,1,0,0:0:0:0:
384,128,13944,1,2,0:0:0:0:
96,192,14131,1,0,0:0:0:0:
160,96,14194,1,0,0:0:0:0:
160,96,14256,1,0,0:0:0:0:
96,192,14319,1,0,0:0:0:0:
384,128,14412,1,2,0:0:0:0:
96,192,14506,1,0,0:0:0:0:
96,192,14600,1,0,0:0:0:0:
384,128,14694,1,2,0:0:0:0:
96,192,14881,1,0,0:0:0:0:
384,128,14975,1,2,0:0:0:0:
192,64,15069,1,0,0:0:0:0:
192,64,15256,1,0,0:0:0:0:
320,128,15444,1,2,0:0:0:0:
288,192,15631,1,2,0:0:0:0:
288,192,15694,1,2,0:0:0:0:
288,192,15756,1,2,0:0:0:0:
224,96,15819,1,0,0:0:0:0:
352,128,15912,1,2,0:0:0:0:
288,128,16006,1,0,0:0:0:0:
288,128,16100,1,0,0:0:0:0:
288,128,16194,1,2,0:0:0:0:
288,128,16287,1,0,0:0:0:0:
288,160,16381,1,2,0:0:0:0:
288,128,16475,1,0,0:0:0:0:
288,128,16569,1,0,0:0:0:0:
384,128,16756,1,2,0:0:0:0:
416,96,16944,1,2,0:0:0:0:
416,96,17006,1,2,0:0:0:0:
416,96,17069,1,2,0:0:0:0:
416,96,17131,1,2,0:0:0:0:
416,96,17194,1,2,0:0:0:0:
416,96,17256,1,2,0:0:0:0:
416,96,17319,1,0,0:0:0:0:
96,160,18069,1,0,0:0:0:0:
96,160,18162,1,0,0:0:0:0:
96,160,18256,1,0,0:0:0:0:
96,160,18350,1,0,0:0:0:0:
288,160,18444,1,2,0:0:0:0:
288,160,18537,1,2,0:0:0:0:
288,160,18631,1,2,0:0:0:0:
288,160,18725,1,2,0:0:0:0:
96,160,18819,1,0,0:0:0:0:
96,160,19006,1,0,0:0:0:0:
288,96,19100,1,2,0:0:0:0:
288,96,19287,1,2,0:0:0:0:
384,128,19381,1,0,0:0:0:0:
384,128,19475,1,0,0:0:0:0:
288,96,19569,1,2,0:0:0:0:
192,128,19756,1,0,0:0:0:0:
384,96,19944,1,2,0:0:0:0:
192,128,20131,1,0,0:0:0:0:
192,128,20225,1,0,0:0:0:0:
192,96,20412,1,2,0:0:0:0:
192,96,20475,1,0,0:0:0:0:
192,96,20537,1,0,0:0:0:0:
256,96,20600,1,0,0:0:0:0:
320,128,20694,1,2,0:0:0:0:
352,96,20787,1,0,0:0:0:0:
352,96,20881,1,0,0:0:0:0:
224,128,21069,1,0,0:0:0:0:
224,128,21162,1,0,0:0:0:0:
384,96,21256,1,2,0:0:0:0:
224,128,21350,1,0,0:0:0:0:
384,96,21444,1,2,0:0:0:0:
384,96,21537,1,2,0:0:0:0:
384,96,21631,1,2,0:0:0:0:
384,96,21725,1,2,0:0:0:0:
224,128,21819,1,0,0:0:0:0:
352,96,22006,1,0,0:0:0:0:
352,128,22100,1,2,0:0:0:0:
416,128,22287,1,2,0:0:0:0:
416,128,22381,1,2,0:0:0:0:
320,128,22475,1,0,0:0:0:0:
352,128,22569,1,2,0:0:0:0:
288,160,22756,1,2,0:0:0:0:
416,96,22944,1,0,0:0:0:0:
416,96,23131,1,0,0:0:0:0:
384,128,23225,1,2,0:0:0:0:
288,64,23412,1,2,0:0:0:0:
288,64,23475,1,0,0:0:0:0:
288,64,23537,1,0,0:0:0:0:
384,128,23600,1,0,0:0:0:0:
320,128,23694,1,2,0:0:0:0:
352,128,23787,1,0,0:0:0:0:
352,128,23881,1,2,0:0:0:0:
352,128,23944,1,2,0:0:0:0:
352,128,24006,1,2,0:0:0:0:
320,128,24069,1,0,0:0:0:0:
320,128,24162,1,0,0:0:0:0:
384,96,24256,1,2,0:0:0:0:
384,96,24350,1,2,0:0:0:0:
320,128,24444,1,0,0:0:0:0:
320,128,24537,1,0,0:0:0:0:
384,96,24631,1,2,0:0:0:0:
384,96,24725,1,2,0:0:0:0:
384,128,24819,1,0,0:0:0:0:
160,128,25006,1,0,0:0:0:0:
384,64,25100,1,2,0:0:0:0:
384,64,25287,1,2,0:0:0:0:
288,96,25381,1,0,0:0:0:0:
288,96,25569,1,2,0:0:0:0:
288,96,25756,1,2,0:0:0:0:
416,128,25944,1,0,0:0:0:0:
416,128,26131,1,0,0:0:0:0:
352,128,26225,1,2,0:0:0:0:
416,128,26412,1,2,0:0:0:0:
416,128,26475,1,2,0:0:0:0:
416,128,26537,1,0,0:0:0:0:
416,128,26600,1,0,0:0:0:0:
352,128,26694,1,2,0:0:0:0:
320,160,26787,1,0,0:0:0:0:
320,160,26881,1,0,0:0:0:0:
96,192,27069,1,0,0:0:0:0:
128,160,27162,1,0,0:0:0:0:
96,192,27256,1,0,0:0:0:0:
192,96,27350,1,2,0:0:0:0:
192,96,27444,1,2,0:0:0:0:
192,96,27537,1,2,0:0:0:0:
352,96,27631,1,0,0:0:0:0:
352,96,27725,1,0,0:0:0:0:
288,192,27819,1,2,0:0:0:0:
352,128,27912,1,2,0:0:0:0:
288,192,28006,1,2,0:0:0:0:
352,96,28100,1,0,0:0:0:0:
352,96,28194,1,0,0:0:0:0:
352,96,28287,1,0,0:0:0:0:
192,64,28381,1,2,0:0:0:0:
192,64,28444,1,2,0:0:0:0:
192,64,28506,1,2,0:0:0:0:
384,96,28569,1,0,0:0:0:0:
224,96,28756,1,0,0:0:0:0:
224,96,28944,1,2,0:0:0:0:
192,160,29131,1,0,0:0:0:0:
192,160,29194,1,0,0:0:0:0:
192,160,29256,1,0,0:0:0:0:
192,160,29319,1,0,0:0:0:0:
320,160,29412,1,2,0:0:0:0:
320,96,29506,1,0,0:0:0:0:
352,128,29600,1,2,0:0:0:0:
320,192,29694,1,0,0:0:0:0:
320,160,29756,1,0,0:0:0:0:
320,160,29819,1,0,0:0:0:0:
224,128,29881,1,2,0:0:0:0:
224,128,29944,1,2,0:0:0:0:
224,128,30006,1,2,0:0:0:0:
96,192,30069,1,0,0:0:0:0:
96,192,30256,1,0,0:0:0:0:
384,128,30444,1,2,0:0:0:0:
96,192,30631,1,0,0:0:0:0:
160,96,30694,1,0,0:0:0:0:
160,96,30756,1,0,0:0:0:0:
96,192,30819,1,0,0:0:0:0:
384,128,30912,1,2,0:0:0:0:
96,192,31006,1,0,0:0:0:0:
96,192,31100,1,0,0:0:0:0:
384,128,31194,1,2,0:0:0:0:
96,192,31381,1,0,0:0:0:0:
384,128,31475,1,2,0:0:0:0:
192,64,31569,1,0,0:0:0:0:
192,64,31756,1,0,0:0:0:0:
320,128,31944,1,2,0:0:0:0:
288,192,32131,1,2,0:0:0:0:
288,192,32194,1,2,0:0:0:0:
288,192,32256,1,2,0:0:0:0:
224,96,32319,1,0,0:0:0:0:
352,128,32412,1,2,0:0:0:0:
288,128,32506,1,0,0:0:0:0:
288,128,32600,1,0,0:0:0:0:
288,128,32694,1,2,0:0:0:0:
288,128,32787,1,0,0:0:0:0:
288,160,32881,1,2,0:0:0:0:
288,128,32975,1,0,0:0:0:0:
192,160,33069,1,0,0:0:0:0:
192,160,33256,1,0,0:0:0:0:
96,96,33444,1,2,0:0:0:0:
352,96,33631,1,0,0:0:0:0:
352,96,33694,1,0,0:0:0:0:
352,96,33756,1,0,0:0:0:0:
352,96,33819,1,0,0:0:0:0:
352,160,33912,1,2,0:0:0:0:
416,128,34006,1,0,0:0:0:0:
416,128,34100,1,0,0:0:0:0:
352,160,34194,1,2,0:0:0:0:
224,64,34287,1,0,0:0:0:0:
384,128,34381,1,0,0:0:0:0:
384,128,34444,1,0,0:0:0:0:
384,128,34506,1,0,0:0:0:0:
320,128,34569,1,2,0:0:0:0:
416,128,34756,1,0,0:0:0:0:
416,128,34944,1,0,0:0:0:0:
288,96,35037,1,0,0:0:0:0:
256,160,35131,1,2,0:0:0:0:
256,160,35225,1,2,0:0:0:0:
256,160,35319,1,2,0:0:0:0:
288,128,35412,1,0,0:0:0:0:
288,128,35600,1,0,0:0:0:0:
256,160,35694,1,2,0:0:0:0:
288,128,35787,1,0,0:0:0:0:
288,128,35975,1,0,0:0:0:0:
288,128,36069,1,2,0:0:0:0:
288,128,36162,1,2,0:0:0:0:
288,128,36256,1,2,0:0:0:0:
288,128,36350,1,2,0:0:0:0:
384,160,36444,1,0,0:0:0:0:
288,128,36537,1,2,0:0:0:0:
288,128,36631,1,2,0:0:0:0:
288,128,36725,1,2,0:0:0:0:
384,160,36819,1,0,0:0:0:0:
224,128,37006,1,0,0:0:0:0:
320,128,37100,1,2,0:0:0:0:
320,128,37287,1,2,0:0:0:0:
224,128,37381,1,0,0:0:0:0:
416,128,37475,1,0,0:0:0:0:
320,128,37569,1,2,0:0:0:0:
320,128,37756,1,2,0:0:0:0:
224,160,37944,1,0,0:0:0:0:
224,160,38131,1,0,0:0:0:0:
288,128,38225,1,2,0:0:0:0:
320,128,38412,1,2,0:0:0:0:
320,128,38506,1,0,0:0:0:0:
256,160,38569,1,0,0:0:0:0:
256,160,38631,1,0,0:0:0:0:
320,128,38694,1,2,0:0:0:0:
288,160,38787,1,0,0:0:0:0:
288,160,38881,1,0,0:0:0:0:
320,128,38975,1,2,0:0:0:0:
320,128,39069,1,0,0:0:0:0:
416,96,39162,1,2,0:0:0:0:
320,128,39256,1,0,0:0:0:0:
416,96,39350,1,2,0:0:0:0:
320,128,39444,1,0,0:0:0:0:
416,96,39537,1,2,0:0:0:0:
416,96,39631,1,2,0:0:0:0:
416,96,39725,1,2,0:0:0:0:
320,128,39819,1,0,0:0:0:0:
384,128,40006,1,0,0:0:0:0:
416,128,40100,1,2,0:0:0:0:
384,128,40287,1,0,0:0:0:0:
384,128,40381,1,0,0:0:0:0:
384,128,40475,1,0,0:0:0:0:
352,128,40569,1,2,0:0:0:0:
320,160,40756,1,0,0:0:0:0:
256,192,40944,1,2,0:0:0:0:
256,192,41131,1,2,0:0:0:0:
384,96,41194,5,0,0:0:0:0:
384,96,41256,1,0,0:0:0:0:
96,160,41319,1,0,0:0:0:0:
352,96,41412,1,2,0:0:0:0:
192,160,41506,1,0,0:0:0:0:
192,160,41600,1,0,0:0:0:0:
352,96,41694,1,2,0:0:0:0:
384,128,41756,1,0,0:0:0:0:
384,128,41819,1,0,0:0:0:0:
160,96,41881,1,2,0:0:0:0:
224,96,41975,1,2,0:0:0:0:
288,96,42069,1,0,0:0:0:0:
384,96,42162,1,0,0:0:0:0:
384,96,42256,1,2,0:0:0:0:
384,96,42350,1,2,0:0:0:0:
384,96,42444,1,0,0:0:0:0:
384,96,42537,1,0,0:0:0:0:
384,96,42631,1,2,0:0:0:0:
384,96,42725,1,2,0:0:0:0:
384,96,42819,1,0,0:0:0:0:
256,96,43006,1,0,0:0:0:0:
352,128,43100,1,2,0:0:0:0:
352,128,43287,1,2,0:0:0:0:
384,128,43381,1,0,0:0:0:0:
384,128,43475,1,0,0:0:0:0:
448,128,43569,1,2,0:0:0:0:
448,128,43756,1,2,0:0:0:0:
448,128,43944,1,0,0:0:0:0:
448,128,44131,1,0,0:0:0:0:
384,96,44225,1,2,0:0:0:0:
352,96,44412,1,0,0:0:0:0:
352,96,44506,1,0,0:0:0:0:
352,96,44600,1,0,0:0:0:0:
448,128,44694,1,2,0:0:0:0:
256,128,44756,1,2,0:0:0:0:
256,128,44819,1,2,0:0:0:0:
448,96,44881,1,0,0:0:0:0:
416,128,45069,1,0,0:0:0:0:
416,128,45131,1,0,0:0:0:0:
416,128,45194,1,0,0:0:0:0:
352,128,45256,1,2,0:0:0:0:
352,128,45350,1,0,0:0:0:0:
352,128,45412,1,0,0:0:0:0:
352,128,45475,1,0,0:0:0:0:
352,160,45537,1,2,0:0:0:0:
352,128,45631,1,2,0:0:0:0:
192,160,45819,1,4,0:0:0:0:
317,145,46569,1,4,0:0:0:0:
325,157,46756,1,0,0:0:0:0:
314,124,46944,1,2,0:0:0:0:
224,94,47131,1,0,0:0:0:0:
224,94,47194,1,0,0:0:0:0:
224,94,47256,1,0,0:0:0:0:
224,94,47319,1,0,0:0:0:0:
305,152,47412,1,2,0:0:0:0:
375,157,47506,1,0,0:0:0:0:
375,157,47600,1,0,0:0:0:0:
305,152,47694,1,2,0:0:0:0:
375,157,47787,1,0,0:0:0:0:
375,157,47881,1,0,0:0:0:0:
320,160,48069,1,2,0:0:0:0:
320,160,48131,1,2,0:0:0:0:
320,160,48194,1,2,0:0:0:0:
320,128,48256,1,0,0:0:0:0:
320,160,48444,1,2,0:0:0:0:
320,160,48506,1,2,0:0:0:0:
320,128,48569,1,0,0:0:0:0:
320,128,48631,1,0,0:0:0:0:
320,160,48819,1,2,0:0:0:0:
320,160,48881,1,2,0:0:0:0:
320,160,48944,1,2,0:0:0:0:
320,128,49006,1,0,0:0:0:0:
320,160,49194,1,2,0:0:0:0:
320,160,49256,1,2,0:0:0:0:
320,128,49319,1,0,0:0:0:0:
320,128,49381,1,0,0:0:0:0:
320,160,49569,1,2,0:0:0:0:
320,160,49631,1,2,0:0:0:0:
320,160,49694,1,2,0:0:0:0:
320,128,49756,1,0,0:0:0:0:
320,160,49944,1,2,0:0:0:0:
320,160,50006,1,2,0:0:0:0:
512,128,50069,1,0,0:0:0:0:
512,128,50131,1,0,0:0:0:0:
352,128,50319,1,2,0:0:0:0:
320,128,50412,1,0,0:0:0:0:
320,128,50506,1,0,0:0:0:0:
320,128,50600,1,0,0:0:0:0:
352,128,50694,1,2,0:0:0:0:
288,128,51069,1,2,0:0:0:0:
288,128,51131,1,2,0:0:0:0:
288,128,51194,1,2,0:0:0:0:
448,128,51256,1,0,0:0:0:0:
288,128,51444,1,2,0:0:0:0:
448,128,51506,1,0,0:0:0:0:
448,128,51569,1,0,0:0:0:0:
448,128,51631,1,0,0:0:0:0:
288,128,51819,1,2,0:0:0:0:
288,128,51881,1,2,0:0:0:0:
288,128,51944,1,2,0:0:0:0:
448,128,52006,1,0,0:0:0:0:
288,128,52194,1,2,0:0:0:0:
448,128,52256,1,0,0:0:0:0:
448,128,52319,1,0,0:0:0:0:
448,128,52381,1,0,0:0:0:0:
288,128,52569,1,2,0:0:0:0:
288,128,52631,1,2,0:0:0:0:
288,128,52694,1,2,0:0:0:0:
448,128,52756,1,0,0:0:0:0:
192,160,52850,1,0,0:0:0:0:
288,128,52944,1,2,0:0:0:0:
352,128,53037,1,0,0:0:0:0:
352,128,53131,1,0,0:0:0:0:
352,128,53225,1,0,0:0:0:0:
384,128,53319,1,2,0:0:0:0:
384,128,53506,1,2,0:0:0:0:
384,128,53600,1,2,0:0:0:0:
352,128,53694,1,0,0:0:0:0:
320,128,54069,1,2,0:0:0:0:
320,128,54131,1,2,0:0:0:0:
320,128,54194,1,2,0:0:0:0:
416,128,54256,1,0,0:0:0:0:
256,96,54350,1,0,0:0:0:0:
320,128,54444,1,2,0:0:0:0:
320,128,54506,1,2,0:0:0:0:
320,128,54569,1,0,0:0:0:0:
416,128,54631,1,0,0:0:0:0:
320,128,54819,1,2,0:0:0:0:
320,128,54881,1,2,0:0:0:0:
320,128,54944,1,2,0:0:0:0:
416,128,55006,1,0,0:0:0:0:
256,96,55100,1,0,0:0:0:0:
320,128,55194,1,2,0:0:0:0:
320,128,55256,1,2,0:0:0:0:
320,128,55319,1,0,0:0:0:0:
416,128,55381,1,0,0:0:0:0:
320,128,55569,1,2,0:0:0:0:
320,128,55631,1,2,0:0:0:0:
320,128,55694,1,2,0:0:0:0:
416,128,55756,1,0,0:0:0:0:
256,96,55850,1,0,0:0:0:0:
320,128,55944,1,2,0:0:0:0:
320,128,56006,1,2,0:0:0:0:
320,128,56069,1,0,0:0:0:0:
416,128,56131,1,0,0:0:0:0:
256,96,56225,1,0,0:0:0:0:
256,128,56319,1,2,0:0:0:0:
320,128,56412,1,0,0:0:0:0:
320,128,56506,1,0,0:0:0:0:
320,128,56600,1,0,0:0:0:0:
256,128,56694,1,2,0:0:0:0:
256,160,57069,1,2,0:0:0:0:
256,160,57131,1,2,0:0:0:0:
256,160,57194,1,2,0:0:0:0:
480,128,57256,1,0,0:0:0:0:
224,160,57350,1,0,0:0:0:0:
256,160,57444,1,2,0:0:0:0:
256,160,57506,1,2,0:0:0:0:
256,160,57569,1,0,0:0:0:0:
256,160,57631,1,0,0:0:0:0:
224,160,57725,1,0,0:0:0:0:
256,160,57819,1,2,0:0:0:0:
256,160,57881,1,2,0:0:0:0:
256,160,57944,1,2,0:0:0:0:
256,160,58006,1,0,0:0:0:0:
224,160,58100,1,0,0:0:0:0:
256,160,58194,1,2,0:0:0:0:
256,160,58256,1,2,0:0:0:0:
256,160,58319,1,0,0:0:0:0:
256,160,58381,1,0,0:0:0:0:
224,160,58475,1,0,0:0:0:0:
256,160,58569,1,2,0:0:0:0:
96,160,58662,1,0,0:0:0:0:
256,160,58756,1,0,0:0:0:0:
224,160,58850,1,0,0:0:0:0:
320,160,58944,1,2,0:0:0:0:
320,160,59037,1,2,0:0:0:0:
288,96,59131,1,0,0:0:0:0:
288,96,59225,1,0,0:0:0:0:
256,128,59319,1,2,0:0:0:0:
256,128,59412,1,2,0:0:0:0:
288,96,59506,1,0,0:0:0:0:
288,96,59600,1,0,0:0:0:0:
352,160,59694,1,2,0:0:0:0:
384,128,59787,1,0,0:0:0:0:
384,128,59881,1,0,0:0:0:0:
352,160,60069,1,6,0:0:0:0:
352,160,60350,1,6,0:0:0:0:
352,160,60631,1,6,0:0:0:0:
352,160,60819,1,6,0:0:0:0:
320,160,61006,1,2,0:0:0:0:
384,128,61100,1,2,0:0:0:0:
352,128,61194,1,0,0:0:0:0:
320,160,61256,1,2,0:0:0:0:
320,160,61319,1,2,0:0:0:0:
320,160,61381,1,2,0:0:0:0:
320,160,61444,1,2,0:0:0:0:
320,160,61506,1,2,0:0:0:0:
352,128,61569,1,0,0:0:0:0:
160,128,61756,1,0,0:0:0:0:
416,128,61850,1,2,0:0:0:0:
416,128,62037,1,2,0:0:0:0:
160,128,62131,1,0,0:0:0:0:
416,128,62319,1,2,0:0:0:0:
416,128,62506,1,2,0:0:0:0:
160,128,62600,1,0,0:0:0:0:
160,128,62787,1,0,0:0:0:0:
416,128,62881,1,2,0:0:0:0:
352,160,63069,1,0,0:0:0:0:
352,160,63162,1,0,0:0:0:0:
352,160,63256,1,0,0:0:0:0:
416,96,63350,1,2,0:0:0:0:
384,128,63444,1,2,0:0:0:0:
384,128,63537,1,2,0:0:0:0:
352,160,63631,1,0,0:0:0:0:
384,128,63725,1,2,0:0:0:0:
352,160,63819,1,0,0:0:0:0:
256,96,64006,1,2,0:0:0:0:
256,96,64100,1,2,0:0:0:0:
384,96,64194,1,0,0:0:0:0:
256,96,64287,1,2,0:0:0:0:
384,96,64381,1,0,0:0:0:0:
256,96,64475,1,2,0:0:0:0:
384,96,64569,1,0,0:0:0:0:
384,96,64756,1,0,0:0:0:0:
352,96,64850,1,2,0:0:0:0:
352,96,65037,1,2,0:0:0:0:
384,96,65131,1,0,0:0:0:0:
352,96,65319,1,2,0:0:0:0:
352,96,65506,1,2,0:0:0:0:
384,96,65600,1,0,0:0:0:0:
384,96,65787,1,0,0:0:0:0:
352,96,65881,1,2,0:0:0:0:
224,96,66069,1,2,0:0:0:0:
384,160,66162,1,0,0:0:0:0:
384,160,66256,1,0,0:0:0:0:
224,96,66350,1,2,0:0:0:0:
384,160,66444,1,0,0:0:0:0:
384,160,66537,1,0,0:0:0:0:
224,96,66631,1,2,0:0:0:0:
384,160,66725,1,0,0:0:0:0:
224,96,66819,1,2,0:0:0:0:
192,96,67006,1,0,0:0:0:0:
352,96,67194,1,2,0:0:0:0:
480,96,67287,1,2,0:0:0:0:
192,96,67381,1,0,0:0:0:0:
416,128,67569,1,0,0:0:0:0:
416,128,67662,1,0,0:0:0:0:
416,128,67756,1,0,0:0:0:0:
352,128,67850,1,2,0:0:0:0:
416,128,68037,1,0,0:0:0:0:
320,160,68131,1,2,0:0:0:0:
416,128,68319,1,0,0:0:0:0:
352,128,68412,1,2,0:0:0:0:
352,128,68506,1,2,0:0:0:0:
416,128,68600,1,0,0:0:0:0:
352,128,68787,1,2,0:0:0:0:
416,128,68881,1,0,0:0:0:0:
320,128,69069,1,0,0:0:0:0:
320,128,69162,1,0,0:0:0:0:
320,128,69256,1,0,0:0:0:0:
416,96,69350,1,2,0:0:0:0:
416,160,69537,1,0,0:0:0:0:
416,96,69631,1,2,0:0:0:0:
416,96,69725,1,2,0:0:0:0:
416,160,69819,1,0,0:0:0:0:
352,160,70006,1,0,0:0:0:0:
352,160,70100,1,0,0:0:0:0:
320,128,70194,1,2,0:0:0:0:
352,160,70381,1,0,0:0:0:0:
352,160,70569,1,0,0:0:0:0:
352,96,70662,1,0,0:0:0:0:
352,160,70756,1,0,0:0:0:0:
352,128,70850,1,2,0:0:0:0:
224,96,71037,1,0,0:0:0:0:
384,128,71131,1,2,0:0:0:0:
384,128,71225,1,2,0:0:0:0:
224,96,71319,1,0,0:0:0:0:
224,96,71412,1,0,0:0:0:0:
384,128,71506,1,2,0:0:0:0:
224,96,71600,1,0,0:0:0:0:
320,128,71787,1,2,0:0:0:0:
416,128,71881,1,0,0:0:0:0:
160,128,72069,1,0,0:0:0:0:
160,128,72256,1,0,0:0:0:0:
416,160,72444,1,2,0:0:0:0:
224,128,72631,1,0,0:0:0:0:
224,128,72694,1,0,0:0:0:0:
224,128,72756,1,0,0:0:0:0:
224,128,72819,1,0,0:0:0:0:
416,160,72912,1,2,0:0:0:0:
384,96,73006,1,0,0:0:0:0:
384,96,73100,1,0,0:0:0:0:
416,160,73194,1,2,0:0:0:0:
384,96,73287,1,0,0:0:0:0:
352,160,73381,1,2,0:0:0:0:
352,160,73475,1,2,0:0:0:0:
352,160,73569,1,2,0:0:0:0:
352,160,73662,1,0,0:0:0:0:
352,160,73756,1,2,0:0:0:0:
352,160,73850,1,0,0:0:0:0:
352,160,73944,1,2,0:0:0:0:
352,160,74131,1,2,0:0:0:0:
256,160,74319,1,0,0:0:0:0:
256,160,74506,1,0,0:0:0:0:
256,160,74600,1,0,0:0:0:0:
416,96,74694,1,2,0:0:0:0:
416,96,74881,1,2,0:0:0:0:
416,96,74975,1,2,0:0:0:0:
448,128,75069,1,0,0:0:0:0:
448,128,75162,1,0,0:0:0:0:
448,128,75256,1,0,0:0:0:0:
448,128,75350,1,0,0:0:0:0:
256,96,75444,1,2,0:0:0:0:
256,96,75631,1,2,0:0:0:0:
352,160,75725,1,2,0:0:0:0:
288,128,75819,1,0,0:0:0:0:
352,160,75912,1,2,0:0:0:0:
288,128,76006,1,0,0:0:0:0:
288,128,76100,1,0,0:0:0:0:
352,160,76194,1,2,0:0:0:0:
416,128,76381,1,0,0:0:0:0:
288,160,76475,1,2,0:0:0:0:
416,128,76569,1,2,0:0:0:0:
448,160,76662,1,0,0:0:0:0:
416,128,76756,1,2,0:0:0:0:
448,160,76850,1,0,0:0:0:0:
416,128,76944,1,2,0:0:0:0:
416,128,77131,1,2,0:0:0:0:
288,128,77319,1,0,0:0:0:0:
288,128,77506,1,0,0:0:0:0:
288,128,77600,1,0,0:0:0:0:
384,160,77694,1,2,0:0:0:0:
384,128,77787,1,0,0:0:0:0:
384,128,77881,1,0,0:0:0:0:
245,128,78069,1,6,0:0:0:0:
385,95,78256,1,0,0:0:0:0:
378,118,78350,1,2,0:0:0:0:
357,123,78537,1,0,0:0:0:0:
357,123,78631,1,0,0:0:0:0:
362,126,78725,1,2,0:0:0:0:
203,119,78912,1,2,0:0:0:0:
203,119,78975,1,2,0:0:0:0:
203,119,79037,1,2,0:0:0:0:
203,119,79100,1,2,0:0:0:0:
220,151,79194,1,0,0:0:0:0:
214,156,79287,1,2,0:0:0:0:
214,156,79381,1,2,0:0:0:0:
214,156,79444,1,2,0:0:0:0:
214,156,79506,1,2,0:0:0:0:
96,192,79569,1,0,0:0:0:0:
96,192,79756,1,0,0:0:0:0:
384,128,79944,1,2,0:0:0:0:
96,192,80131,1,0,0:0:0:0:
160,96,80194,1,0,0:0:0:0:
160,96,80256,1,0,0:0:0:0:
96,192,80319,1,0,0:0:0:0:
384,128,80412,1,2,0:0:0:0:
96,192,80506,1,0,0:0:0:0:
96,192,80600,1,0,0:0:0:0:
384,128,80694,1,2,0:0:0:0:
96,192,80881,1,0,0:0:0:0:
384,128,80975,1,2,0:0:0:0:
192,64,81069,1,0,0:0:0:0:
192,64,81256,1,0,0:0:0:0:
320,128,81444,1,2,0:0:0:0:
288,192,81631,1,2,0:0:0:0:
288,192,81694,1,2,0:0:0:0:
288,192,81756,1,2,0:0:0:0:
224,96,81819,1,0,0:0:0:0:
352,128,81912,1,2,0:0:0:0:
288,128,82006,1,0,0:0:0:0:
288,128,82100,1,0,0:0:0:0:
288,128,82194,1,2,0:0:0:0:
358,152,82256,1,0,0:0:0:0:
358,152,82319,1,0,0:0:0:0:
288,160,82381,1,2,0:0:0:0:
288,128,82475,1,0,0:0:0:0:
192,160,82569,1,0,0:0:0:0:
192,160,82756,1,0,0:0:0:0:
96,96,82944,1,2,0:0:0:0:
352,96,83131,1,0,0:0:0:0:
352,96,83194,1,0,0:0:0:0:
352,96,83256,1,0,0:0:0:0:
352,96,83319,1,0,0:0:0:0:
352,160,83412,1,2,0:0:0:0:
416,128,83506,1,0,0:0:0:0:
416,128,83600,1,0,0:0:0:0:
352,160,83694,1,2,0:0:0:0:
224,64,83787,1,0,0:0:0:0:
384,128,83881,1,0,0:0:0:0:
384,128,83944,1,0,0:0:0:0:
384,128,84006,1,0,0:0:0:0:
320,128,84069,1,2,0:0:0:0:
416,128,84256,1,0,0:0:0:0:
416,128,84444,1,0,0:0:0:0:
191,121,84506,1,0,0:0:0:0:
191,121,84569,1,0,0:0:0:0:
256,160,84631,1,2,0:0:0:0:
256,160,84725,1,2,0:0:0:0:
256,160,84819,1,2,0:0:0:0:
288,128,84912,1,0,0:0:0:0:
288,128,85100,1,0,0:0:0:0:
256,160,85194,1,2,0:0:0:0:
288,128,85287,1,0,0:0:0:0:
288,128,85475,1,0,0:0:0:0:
96,192,85569,1,0,0:0:0:0:
96,192,85756,1,0,0:0:0:0:
384,128,85944,1,2,0:0:0:0:
96,192,86131,1,0,0:0:0:0:
160,96,86194,1,0,0:0:0:0:
160,96,86256,1,0,0:0:0:0:
96,192,86319,1,0,0:0:0:0:
384,128,86412,1,2,0:0:0:0:
96,192,86506,1,0,0:0:0:0:
96,192,86600,1,0,0:0:0:0:
384,128,86694,1,2,0:0:0:0:
96,192,86881,1,0,0:0:0:0:
384,128,86975,1,2,0:0:0:0:
192,64,87069,1,0,0:0:0:0:
192,64,87256,1,0,0:0:0:0:
320,128,87444,1,2,0:0:0:0:
288,192,87631,1,2,0:0:0:0:
288,192,87694,1,2,0:0:0:0:
288,192,87756,1,2,0:0:0:0:
224,96,87819,1,0,0:0:0:0:
352,128,87912,1,2,0:0:0:0:
288,128,88006,1,0,0:0:0:0:
288,128,88100,1,0,0:0:0:0:
288,128,88194,1,2,0:0:0:0:
166,148,88256,1,0,0:0:0:0:
166,148,88319,1,0,0:0:0:0:
288,160,88381,1,2,0:0:0:0:
288,128,88475,1,0,0:0:0:0:
192,160,88569,1,0,0:0:0:0:
345,162,88944,1,2,0:0:0:0:
345,162,89694,1,2,0:0:0:0:
345,162,90444,1,2,0:0:0:0:
345,162,91194,1,2,0:0:0:0:
356,122,91569,1,0,0:0:0:0:
356,122,91662,1,0,0:0:0:0:
375,125,91756,1,2,0:0:0:0:
375,125,91819,1,2,0:0:0:0:
375,125,91881,1,2,0:0:0:0:
356,122,91944,1,0,0:0:0:0:
375,125,92037,1,2,0:0:0:0:
375,125,92131,1,2,0:0:0:0:
374,125,92194,1,2,0:0:0:0:
374,125,92256,1,2,0:0:0:0:
223,178,92319,1,0,0:0:0:0:
223,178,92381,1,0,0:0:0:0:
223,178,92444,1,0,0:0:0:0:
312,138,92506,1,2,0:0:0:0:
256,137,92600,1,2,0:0:0:0:
223,178,92694,1,0,0:0:0:0:
312,138,92756,1,0,0:0:0:0:
312,138,92819,1,0,0:0:0:0:
312,138,92881,1,2,0:0:0:0:
361,134,92975,1,2,0:0:0:0:
223,178,93069,1,0,0:0:0:0:
223,178,93131,1,0,0:0:0:0:
223,178,93194,1,0,0:0:0:0:
312,138,93256,1,2,0:0:0:0:
256,137,93350,1,2,0:0:0:0:
223,178,93444,1,0,0:0:0:0:
312,138,93506,1,0,0:0:0:0:
312,138,93569,1,0,0:0:0:0:
312,138,93631,1,2,0:0:0:0:
361,134,93725,1,2,0:0:0:0:
223,178,93819,1,0,0:0:0:0:
223,178,93881,1,0,0:0:0:0:
223,178,93944,1,0,0:0:0:0:
312,138,94006,1,2,0:0:0:0:
256,137,94100,1,2,0:0:0:0:
223,178,94194,1,0,0:0:0:0:
312,138,94256,1,2,0:0:0:0:
312,138,94319,1,2,0:0:0:0:
312,138,94381,1,0,0:0:0:0:
393,167,94475,1,0,0:0:0:0:
308,155,94569,1,2,0:0:0:0:
166,169,94631,1,2,0:0:0:0:
166,169,94694,1,0,0:0:0:0:
166,169,94756,1,2,0:0:0:0:
166,169,94819,1,2,0:0:0:0:
166,169,94881,1,0,0:0:0:0:
308,155,94944,1,2,0:0:0:0:
364,140,95319,1,2,0:0:0:0:
364,140,95381,1,2,0:0:0:0:
364,140,95444,1,2,0:0:0:0:
240,62,95506,1,0,0:0:0:0:
240,62,95600,1,0,0:0:0:0:
364,140,95694,1,2,0:0:0:0:
364,140,95756,1,2,0:0:0:0:
364,140,95819,1,2,0:0:0:0:
346,152,95881,1,0,0:0:0:0:
240,62,95975,1,0,0:0:0:0:
364,140,96069,1,2,0:0:0:0:
364,140,96131,1,2,0:0:0:0:
346,152,96194,1,2,0:0:0:0:
346,152,96256,1,0,0:0:0:0:
240,62,96350,1,0,0:0:0:0:
364,140,96444,1,2,0:0:0:0:
364,140,96506,1,2,0:0:0:0:
346,152,96569,1,2,0:0:0:0:
346,152,96631,1,0,0:0:0:0:
240,62,96725,1,0,0:0:0:0:
364,140,96819,1,2,0:0:0:0:
364,140,96881,1,2,0:0:0:0:
364,140,96944,1,2,0:0:0:0:
345,151,97006,1,0,0:0:0:0:
240,62,97100,1,0,0:0:0:0:
306,128,97194,1,2,0:0:0:0:
362,149,97256,1,2,0:0:0:0:
362,149,97319,1,2,0:0:0:0:
372,95,97381,1,0,0:0:0:0:
372,95,97475,1,0,0:0:0:0:
306,128,97569,1,2,0:0:0:0:
68,136,97631,1,0,0:0:0:0:
68,136,97694,1,0,0:0:0:0:
362,149,97756,1,2,0:0:0:0:
68,136,97819,1,0,0:0:0:0:
68,136,97881,1,0,0:0:0:0:
306,128,97944,1,2,0:0:0:0:
326,114,98319,1,2,0:0:0:0:
326,114,98381,1,2,0:0:0:0:
357,143,98444,1,2,0:0:0:0:
357,143,98506,1,0,0:0:0:0:
215,98,98600,1,0,0:0:0:0:
326,114,98694,1,2,0:0:0:0:
326,114,98756,1,0,0:0:0:0:
326,114,98819,1,0,0:0:0:0:
357,143,98881,1,2,0:0:0:0:
215,98,98975,1,0,0:0:0:0:
326,114,99069,1,2,0:0:0:0:
326,114,99131,1,2,0:0:0:0:
357,143,99194,1,2,0:0:0:0:
357,143,99256,1,0,0:0:0:0:
215,98,99350,1,0,0:0:0:0:
326,114,99444,1,2,0:0:0:0:
326,114,99506,1,0,0:0:0:0:
326,114,99569,1,0,0:0:0:0:
357,143,99631,1,2,0:0:0:0:
215,98,99725,1,0,0:0:0:0:
326,114,99819,1,2,0:0:0:0:
326,114,99881,1,2,0:0:0:0:
357,143,99944,1,2,0:0:0:0:
357,143,100006,1,0,0:0:0:0:
215,98,100100,1,0,0:0:0:0:
352,128,100194,1,2,0:0:0:0:
192,128,100256,1,0,0:0:0:0:
192,128,100319,1,0,0:0:0:0:
352,128,100381,1,2,0:0:0:0:
256,128,100475,1,0,0:0:0:0:
213,113,100569,1,2,0:0:0:0:
213,113,100631,1,2,0:0:0:0:
371,159,100694,1,0,0:0:0:0:
286,144,100756,1,2,0:0:0:0:
213,113,100819,1,2,0:0:0:0:
371,159,100881,1,0,0:0:0:0:
286,144,100944,1,2,0:0:0:0:
225,82,101319,1,2,0:0:0:0:
225,82,101381,1,2,0:0:0:0:
225,82,101444,1,2,0:0:0:0:
201,83,101506,1,0,0:0:0:0:
201,83,101600,1,0,0:0:0:0:
225,82,101694,1,2,0:0:0:0:
325,118,101756,1,0,0:0:0:0:
325,118,101819,1,0,0:0:0:0:
325,118,101881,1,0,0:0:0:0:
201,83,101975,1,0,0:0:0:0:
225,82,102069,1,2,0:0:0:0:
225,82,102131,1,2,0:0:0:0:
225,82,102194,1,2,0:0:0:0:
325,118,102256,1,0,0:0:0:0:
201,83,102350,1,0,0:0:0:0:
225,82,102444,1,2,0:0:0:0:
325,118,102506,1,0,0:0:0:0:
325,118,102569,1,0,0:0:0:0:
325,118,102631,1,0,0:0:0:0:
201,83,102725,1,0,0:0:0:0:
352,123,102819,1,2,0:0:0:0:
352,123,102912,1,2,0:0:0:0:
258,60,103006,1,0,0:0:0:0:
258,60,103100,1,0,0:0:0:0:
352,123,103194,1,2,0:0:0:0:
258,60,103287,1,0,0:0:0:0:
258,60,103381,1,0,0:0:0:0:
258,60,103475,1,0,0:0:0:0:
352,123,103569,1,2,0:0:0:0:
352,123,103662,1,2,0:0:0:0:
258,60,103756,1,0,0:0:0:0:
258,60,103850,1,0,0:0:0:0:
352,123,103944,1,2,0:0:0:0:
258,60,104037,1,0,0:0:0:0:
258,60,104131,1,0,0:0:0:0:
258,60,104225,1,0,0:0:0:0:
351,108,104319,1,2,0:0:0:0:
351,108,104412,1,2,0:0:0:0:
346,120,104506,1,0,0:0:0:0:
346,120,104600,1,0,0:0:0:0:
351,108,104694,1,2,0:0:0:0:
346,120,104787,1,0,0:0:0:0:
346,120,104881,1,0,0:0:0:0:
346,120,104975,1,0,0:0:0:0:
351,108,105069,1,2,0:0:0:0:
351,108,105162,1,2,0:0:0:0:
346,120,105256,1,0,0:0:0:0:
346,120,105350,1,0,0:0:0:0:
351,108,105444,1,2,0:0:0:0:
351,108,105537,1,2,0:0:0:0:
346,120,105631,1,0,0:0:0:0:
301,158,105819,1,6,0:0:0:0:
301,158,106100,1,6,0:0:0:0:
301,158,106381,1,6,0:0:0:0:
301,158,106569,1,6,0:0:0:0:
279,133,106756,1,2,0:0:0:0:
288,51,106944,1,2,0:0:0:0:
162,155,107006,1,2,0:0:0:0:
288,51,107069,1,2,0:0:0:0:
288,51,107131,1,2,0:0:0:0:
288,51,107194,1,2,0:0:0:0:
288,51,107256,1,2,0:0:0:0:
242,95,107319,1,0,0:0:0:0:
108,228,107506,1,0,0:0:0:0:
252,155,107600,1,2,0:0:0:0:
252,155,107787,1,2,0:0:0:0:
209,128,107881,1,0,0:0:0:0:
369,228,108069,1,2,0:0:0:0:
209,128,108256,1,2,0:0:0:0:
303,134,108350,1,0,0:0:0:0:
390,140,108537,1,0,0:0:0:0:
252,155,108631,1,2,0:0:0:0:
264,106,108819,1,0,0:0:0:0:
264,106,108912,1,0,0:0:0:0:
264,106,109006,1,0,0:0:0:0:
336,106,109100,1,2,0:0:0:0:
264,106,109287,1,0,0:0:0:0:
358,107,109381,1,2,0:0:0:0:
453,108,109475,1,2,0:0:0:0:
264,106,109569,1,0,0:0:0:0:
351,100,109756,1,0,0:0:0:0:
358,107,109850,1,0,0:0:0:0:
194,102,109944,1,2,0:0:0:0:
382,93,110131,1,2,0:0:0:0:
476,89,110225,1,2,0:0:0:0:
382,101,110319,1,0,0:0:0:0:
289,114,110412,1,0,0:0:0:0:
289,114,110506,1,0,0:0:0:0:
389,98,110600,1,2,0:0:0:0:
286,91,110787,1,0,0:0:0:0:
382,93,110881,1,2,0:0:0:0:
382,93,110975,1,2,0:0:0:0:
286,91,111069,1,0,0:0:0:0:
286,91,111162,1,0,0:0:0:0:
382,101,111256,1,2,0:0:0:0:
286,91,111350,1,0,0:0:0:0:
100,59,111537,1,2,0:0:0:0:
193,75,111631,1,0,0:0:0:0:
377,116,111819,1,2,0:0:0:0:
398,125,111912,1,0,0:0:0:0:
398,125,112006,1,0,0:0:0:0:
99,60,112100,1,2,0:0:0:0:
191,80,112194,1,0,0:0:0:0:
283,100,112287,1,0,0:0:0:0:
376,115,112381,1,2,0:0:0:0:
462,154,112475,1,0,0:0:0:0:
189,83,112569,1,2,0:0:0:0:
308,228,112756,1,0,0:0:0:0:
229,55,112944,1,2,0:0:0:0:
267,140,113037,1,2,0:0:0:0:
229,53,113131,1,2,0:0:0:0:
254,110,113225,1,2,0:0:0:0:
342,142,113319,1,0,0:0:0:0:
342,142,113412,1,0,0:0:0:0:
342,142,113506,1,0,0:0:0:0:
370,112,113600,1,2,0:0:0:0:
364,144,113787,1,0,0:0:0:0:
381,50,113881,1,2,0:0:0:0:
364,144,114069,1,0,0:0:0:0:
364,144,114162,1,0,0:0:0:0:
370,112,114256,1,2,0:0:0:0:
384,51,114350,1,2,0:0:0:0:
370,112,114537,1,0,0:0:0:0:
370,112,114631,1,2,0:0:0:0:
388,118,114819,1,2,0:0:0:0:
368,101,114912,1,0,0:0:0:0:
370,112,115006,1,0,0:0:0:0:
388,118,115100,1,2,0:0:0:0:
370,112,115194,1,0,0:0:0:0:
370,112,115287,1,0,0:0:0:0:
388,118,115381,1,2,0:0:0:0:
370,112,115475,1,0,0:0:0:0:
388,118,115569,1,2,0:0:0:0:
207,173,115756,1,2,0:0:0:0:
297,144,115850,1,2,0:0:0:0:
324,129,115944,1,0,0:0:0:0:
297,144,116037,1,2,0:0:0:0:
387,117,116131,1,2,0:0:0:0:
296,144,116225,1,2,0:0:0:0:
206,114,116319,1,0,0:0:0:0:
116,84,116412,1,0,0:0:0:0:
205,114,116506,1,0,0:0:0:0:
324,129,116600,1,2,0:0:0:0:
324,129,116694,1,2,0:0:0:0:
324,129,116787,1,2,0:0:0:0:
148,95,116881,1,0,0:0:0:0:
148,95,116975,1,0,0:0:0:0:
324,129,117069,1,2,0:0:0:0:
324,129,117162,1,2,0:0:0:0:
324,129,117256,1,2,0:0:0:0:
421,99,117350,1,0,0:0:0:0:
504,73,117444,1,0,0:0:0:0:
241,96,117537,1,0,0:0:0:0:
240,81,117631,1,2,0:0:0:0:
240,81,117725,1,2,0:0:0:0:
327,117,117819,1,0,0:0:0:0:
152,45,118006,1,0,0:0:0:0:
334,95,118194,1,2,0:0:0:0:
503,177,118381,1,0,0:0:0:0:
209,113,118444,1,0,0:0:0:0:
270,111,118506,1,0,0:0:0:0:
209,114,118569,1,0,0:0:0:0:
302,124,118662,1,2,0:0:0:0:
341,117,118756,1,0,0:0:0:0:
327,117,118850,1,0,0:0:0:0:
414,137,118944,1,2,0:0:0:0:
323,112,119037,1,0,0:0:0:0:
232,87,119131,1,0,0:0:0:0:
302,124,119319,1,2,0:0:0:0:
414,137,119412,1,0,0:0:0:0:
302,124,119506,1,2,0:0:0:0:
414,137,119600,1,0,0:0:0:0:
302,124,119694,1,2,0:0:0:0:
302,124,119881,1,2,0:0:0:0:
414,137,120069,1,0,0:0:0:0:
414,137,120256,1,0,0:0:0:0:
414,137,120350,1,0,0:0:0:0:
323,110,120444,1,2,0:0:0:0:
142,58,120631,1,2,0:0:0:0:
142,58,120819,1,0,0:0:0:0:
353,136,120912,1,0,0:0:0:0:
353,136,121006,1,0,0:0:0:0:
353,136,121100,1,0,0:0:0:0:
240,117,121194,1,2,0:0:0:0:
240,117,121381,1,2,0:0:0:0:
323,110,121475,1,2,0:0:0:0:
290,119,121569,1,0,0:0:0:0:
323,110,121662,1,2,0:0:0:0:
231,134,121756,1,0,0:0:0:0:
140,159,121850,1,0,0:0:0:0:
323,110,121944,1,2,0:0:0:0:
290,119,122131,1,0,0:0:0:0:
372,88,122225,1,2,0:0:0:0:
303,153,122319,1,2,0:0:0:0:
390,104,122412,1,0,0:0:0:0:
303,153,122506,1,2,0:0:0:0:
385,106,122600,1,0,0:0:0:0:
303,153,122694,1,2,0:0:0:0:
303,153,122881,1,2,0:0:0:0:
175,12,123069,1,0,0:0:0:0:
372,88,123162,1,2,0:0:0:0:
301,151,123256,1,0,0:0:0:0:
392,126,123350,1,0,0:0:0:0:
390,104,123444,1,2,0:0:0:0:
296,110,123537,1,0,0:0:0:0:
390,105,123631,1,0,0:0:0:0:
202,128,123819,1,6,0:0:0:0:
390,134,124006,1,0,0:0:0:0:
296,118,124100,1,2,0:0:0:0:
336,294,124287,1,0,0:0:0:0:
315,201,124381,1,0,0:0:0:0:
331,107,124475,1,2,0:0:0:0:
331,107,124662,1,2,0:0:0:0:
331,107,124756,1,2,0:0:0:0:
331,107,124850,1,2,0:0:0:0:
323,151,125319,1,6,0:0:0:0:
495,75,125506,1,0,0:0:0:0:
405,107,125600,1,2,0:0:0:0:
217,132,125787,1,0,0:0:0:0:
217,132,125881,1,0,0:0:0:0:
306,163,125975,1,2,0:0:0:0:
272,66,126162,1,2,0:0:0:0:
214,153,126256,1,2,0:0:0:0:
272,66,126350,1,2,0:0:0:0:
336,135,126444,1,2,0:0:0:0:
336,135,126506,1,2,0:0:0:0:
336,135,126569,1,2,0:0:0:0:
273,136,126631,1,0,0:0:0:0:
303,80,126694,1,0,0:0:0:0:
273,135,126756,1,0,0:0:0:0:
96,192,126819,1,0,0:0:0:0:
96,192,127006,1,0,0:0:0:0:
384,128,127194,1,2,0:0:0:0:
96,192,127381,1,0,0:0:0:0:
160,96,127444,1,0,0:0:0:0:
160,96,127506,1,0,0:0:0:0:
96,192,127569,1,0,0:0:0:0:
384,128,127662,1,2,0:0:0:0:
96,192,127756,1,0,0:0:0:0:
96,192,127850,1,0,0:0:0:0:
384,128,127944,1,2,0:0:0:0:
96,192,128131,1,0,0:0:0:0:
384,128,128225,1,2,0:0:0:0:
192,64,128319,1,0,0:0:0:0:
192,64,128506,1,0,0:0:0:0:
320,128,128694,1,2,0:0:0:0:
288,192,128881,1,2,0:0:0:0:
288,192,128944,1,2,0:0:0:0:
288,192,129006,1,2,0:0:0:0:
224,96,129069,1,0,0:0:0:0:
352,128,129162,1,2,0:0:0:0:
288,128,129256,1,0,0:0:0:0:
288,128,129350,1,0,0:0:0:0:
288,128,129444,1,2,0:0:0:0:
358,152,129506,1,0,0:0:0:0:
358,152,129569,1,0,0:0:0:0:
288,160,129631,1,2,0:0:0:0:
288,128,129725,1,0,0:0:0:0:
192,160,129819,1,0,0:0:0:0:
192,160,130006,1,0,0:0:0:0:
96,96,130194,1,2,0:0:0:0:
352,96,130381,1,0,0:0:0:0:
352,96,130444,1,0,0:0:0:0:
352,96,130506,1,0,0:0:0:0:
352,96,130569,1,0,0:0:0:0:
352,160,130662,1,2,0:0:0:0:
416,128,130756,1,0,0:0:0:0:
416,128,130850,1,0,0:0:0:0:
352,160,130944,1,2,0:0:0:0:
224,64,131037,1,0,0:0:0:0:
384,128,131131,1,0,0:0:0:0:
384,128,131194,1,0,0:0:0:0:
384,128,131256,1,0,0:0:0:0:
320,128,131319,1,2,0:0:0:0:
416,128,131506,1,0,0:0:0:0:
416,128,131694,1,0,0:0:0:0:
191,121,131756,1,0,0:0:0:0:
191,121,131819,1,0,0:0:0:0:
256,160,131881,1,2,0:0:0:0:
256,160,131975,1,2,0:0:0:0:
256,160,132069,1,2,0:0:0:0:
288,128,132162,1,0,0:0:0:0:
288,128,132350,1,0,0:0:0:0:
256,160,132444,1,2,0:0:0:0:
288,128,132537,1,0,0:0:0:0:
288,128,132725,1,0,0:0:0:0:
228,157,132819,1,0,0:0:0:0:
142,138,132912,1,0,0:0:0:0:
228,152,133006,1,2,0:0:0:0:
183,168,133100,1,0,0:0:0:0:
229,157,133194,1,2,0:0:0:0:
268,138,133256,1,2,0:0:0:0:
268,138,133319,1,2,0:0:0:0:
288,128,133381,1,0,0:0:0:0:
224,106,133475,1,0,0:0:0:0:
439,91,133569,1,2,0:0:0:0:
136,164,133631,1,2,0:0:0:0:
179,154,133694,1,2,0:0:0:0:
188,111,133756,1,0,0:0:0:0:
254,116,133850,1,0,0:0:0:0:
351,115,133944,1,2,0:0:0:0:
314,140,134006,1,0,0:0:0:0:
278,165,134069,1,0,0:0:0:0:
242,191,134131,1,2,0:0:0:0:
254,116,134225,1,0,0:0:0:0:
197,65,134319,1,0,0:0:0:0:
183,23,134381,1,0,0:0:0:0:
197,65,134444,1,0,0:0:0:0:
239,74,134506,1,2,0:0:0:0:
254,116,134600,1,0,0:0:0:0:
351,115,134694,1,2,0:0:0:0:
351,115,134756,1,2,0:0:0:0:
351,115,134819,1,2,0:0:0:0:
315,141,134881,1,0,0:0:0:0:
254,116,134975,1,0,0:0:0:0:
351,115,135069,1,2,0:0:0:0:
351,115,135131,1,2,0:0:0:0:
351,115,135194,1,2,0:0:0:0:
315,141,135256,1,0,0:0:0:0:
254,116,135350,1,0,0:0:0:0:
351,115,135444,1,2,0:0:0:0:
315,141,135506,1,0,0:0:0:0:
351,115,135569,1,0,0:0:0:0:
315,141,135631,1,2,0:0:0:0:
254,116,135725,1,0,0:0:0:0:
179,163,135819,1,0,0:0:0:0:
179,163,135881,1,0,0:0:0:0:
179,163,135944,1,0,0:0:0:0:
351,115,136006,1,2,0:0:0:0:
270,150,136100,1,0,0:0:0:0:
408,119,136194,1,2,0:0:0:0:
351,130,136256,1,2,0:0:0:0:
351,130,136319,1,2,0:0:0:0:
313,85,136381,1,0,0:0:0:0:
339,168,136475,1,0,0:0:0:0:
351,130,136569,1,2,0:0:0:0:
351,130,136631,1,2,0:0:0:0:
351,130,136694,1,2,0:0:0:0:
313,85,136756,1,0,0:0:0:0:
339,168,136850,1,0,0:0:0:0:
385,245,136944,1,2,0:0:0:0:
351,130,137006,1,0,0:0:0:0:
351,130,137069,1,0,0:0:0:0:
360,190,137131,1,2,0:0:0:0:
280,152,137225,1,0,0:0:0:0:
192,165,137319,1,0,0:0:0:0:
128,128,137381,1,2,0:0:0:0:
128,128,137444,1,0,0:0:0:0:
190,153,137506,1,2,0:0:0:0:
274,128,137600,1,2,0:0:0:0:
366,136,137694,1,0,0:0:0:0:
320,128,137756,1,2,0:0:0:0:
320,128,137819,1,0,0:0:0:0:
193,164,137881,1,2,0:0:0:0:
275,134,137975,1,2,0:0:0:0:
359,111,138069,1,0,0:0:0:0:
416,109,138131,1,2,0:0:0:0:
416,109,138194,1,2,0:0:0:0:
184,99,138256,1,0,0:0:0:0:
242,103,138319,1,0,0:0:0:0:
416,109,138381,1,2,0:0:0:0:
358,111,138444,1,0,0:0:0:0:
416,109,138506,1,2,0:0:0:0:
474,107,138569,1,2,0:0:0:0:
183,99,138631,1,0,0:0:0:0:
241,103,138694,1,0,0:0:0:0:
299,104,138756,1,2,0:0:0:0:
336,58,138819,1,2,0:0:0:0:
275,134,138912,1,0,0:0:0:0:
228,196,139006,1,2,0:0:0:0:
275,134,139100,1,0,0:0:0:0:
417,32,139287,1,2,0:0:0:0:
345,83,139381,1,2,0:0:0:0:
274,136,139475,1,2,0:0:0:0:
361,128,139569,1,0,0:0:0:0:
399,100,139850,1,2,0:0:0:0:
454,121,139944,1,0,0:0:0:0:
372,89,140037,1,2,0:0:0:0:
454,121,140131,1,0,0:0:0:0:
336,58,140319,1,2,0:0:0:0:
275,134,140412,1,0,0:0:0:0:
228,196,140506,1,2,0:0:0:0:
275,134,140600,1,0,0:0:0:0:
417,32,140787,1,2,0:0:0:0:
345,83,140881,1,2,0:0:0:0:
274,136,140975,1,2,0:0:0:0:
361,128,141069,1,0,0:0:0:0:
399,100,141350,1,2,0:0:0:0:
454,121,141444,1,0,0:0:0:0:
372,89,141537,1,2,0:0:0:0:
454,121,141631,1,0,0:0:0:0:
