osu file format v14

[General]
AudioFilename: audio.mp3
AudioLeadIn: 0
PreviewTime: 92178
Countdown: 1
SampleSet: Soft
StackLeniency: 0.7
Mode: 1
LetterboxInBreaks: 0
WidescreenStoryboard: 0

[Editor]
DistanceSpacing: 1.9
BeatDivisor: 8
GridSize: 32
TimelineZoom: 1.9

[Metadata]
Title:Ishikitakaikei yandere doemushoujoJ
TitleUnicode:意識高い系ヤンデレドM少女J
Artist:Silver forest
ArtistUnicode:Silver forest
Creator:]_p
Version:Joga was playing 1/4
Source:
Tags:
BeatmapID:1308354
BeatmapSetID:620643

[Difficulty]
HPDrainRate:5
CircleSize:5
OverallDifficulty:5
ApproachRate:5
SliderMultiplier:1.5
SliderTickRate:1

[Events]
//Background and Video events
0,0,"maxresdefault[1].jpg",0,0
//Break Periods
//Storyboard Layer 0 (Background)
//Storyboard Layer 1 (Fail)
//Storyboard Layer 2 (Pass)
//Storyboard Layer 3 (Foreground)
//Storyboard Sound Samples

[TimingPoints]
69,375,4,2,0,100,1,0
48069,-83.3333333333333,4,2,0,100,0,1
79569,-100,4,2,0,100,0,0
92319,375,4,2,0,100,1,0
92319,-83.3333333333333,4,2,0,100,0,1
102725,-90.9090909090909,4,2,0,75,0,1
104319,-83.3333333333333,4,2,0,100,0,1
107037,-81.6326530612245,4,2,0,100,0,1
107131,-80,4,2,0,100,0,1
107225,-78.4313725490196,4,2,0,100,0,1
107319,-76.9230769230769,4,2,0,100,0,1
124944,-76.9230769230769,4,2,0,100,0,0
125319,-76.9230769230769,4,2,0,100,0,1
126819,-100,4,2,0,100,0,0

[HitObjects]
320,96,1569,5,2,0:0:0:0:
320,96,1662,1,0,0:0:0:0:
320,96,1756,1,2,0:0:0:0:
320,96,1850,1,0,0:0:0:0:
96,96,2037,1,2,0:3:0:0:
96,96,2131,1,2,0:3:0:0:
96,96,2225,1,2,0:3:0:0:
96,96,2319,1,0,0:3:0:0:
192,128,2600,1,2,0:0:0:0:
192,128,2694,1,0,0:0:0:0:
192,128,2787,1,2,0:0:0:0:
192,128,2881,1,0,0:0:0:0:
320,96,3069,5,2,0:0:0:0:
320,96,3162,1,2,0:0:0:0:
320,96,3256,1,2,0:0:0:0:
320,96,3350,1,0,0:0:0:0:
96,96,3537,1,2,0:3:0:0:
96,96,3631,1,0,0:3:0:0:
96,96,3725,1,2,0:3:0:0:
96,96,3819,1,0,0:3:0:0:
192,128,4100,1,2,0:0:0:0:
192,128,4194,1,2,0:0:0:0:
192,128,4287,1,2,0:0:0:0:
192,128,4381,1,0,0:0:0:0:
320,96,4569,5,2,0:0:0:0:
320,96,4662,1,0,0:0:0:0:
320,96,4756,1,2,0:0:0:0:
320,96,4850,1,0,0:0:0:0:
96,96,5037,1,2,0:3:0:0:
96,96,5131,1,2,0:3:0:0:
96,96,5225,1,2,0:3:0:0:
96,96,5319,1,0,0:3:0:0:
192,128,5600,1,2,0:0:0:0:
192,128,5694,1,0,0:0:0:0:
192,128,5787,1,2,0:0:0:0:
192,128,5881,1,0,0:0:0:0:
288,128,6069,1,2,0:0:0:0:
288,128,6350,1,2,0:0:0:0:
288,128,6631,1,2,0:0:0:0:
352,128,7194,1,0,0:0:0:0:
128,128,7256,1,0,0:0:0:0:
128,128,7319,1,0,0:0:0:0:
320,224,7381,1,2,0:0:0:0:
320,224,7475,1,2,0:0:0:0:
352,128,7569,1,0,0:0:0:0:
352,128,7756,1,0,0:0:0:0:
352,128,7850,1,0,0:0:0:0:
288,128,7944,1,2,0:0:0:0:
352,128,8131,1,0,0:0:0:0:
352,128,8319,1,0,0:0:0:0:
352,128,8412,1,0,0:0:0:0:
352,128,8506,1,0,0:0:0:0:
288,128,8694,1,2,0:0:0:0:
352,128,8881,1,0,0:0:0:0:
448,96,9069,1,0,0:0:0:0:
448,96,9162,1,0,0:0:0:0:
448,96,9256,1,0,0:0:0:0:
448,96,9350,1,0,0:0:0:0:
288,128,9444,1,2,0:0:0:0:
288,128,9631,1,0,0:0:0:0:
288,128,9725,1,2,0:0:0:0:
288,128,9819,1,0,0:0:0:0:
288,128,9912,1,0,0:0:0:0:
288,128,10006,1,0,0:0:0:0:
288,128,10100,1,0,0:0:0:0:
448,96,10194,1,2,0:0:0:0:
448,96,10287,1,2,0:0:0:0:
288,128,10381,1,0,0:0:0:0:
288,128,10569,1,0,0:0:0:0:
288,128,10756,1,0,0:0:0:0:
288,128,10850,1,0,0:0:0:0:
288,128,10944,1,2,0:0:0:0:
288,128,11131,1,0,0:0:0:0:
288,128,11319,1,0,0:0:0:0:
288,128,11412,1,0,0:0:0:0:
288,128,11506,1,0,0:0:0:0:
288,128,11694,1,2,0:0:0:0:
288,128,11787,1,2,0:0:0:0:
288,128,11881,1,0,0:0:0:0:
288,128,11975,1,0,0:0:0:0:
320,96,12069,1,2,0:0:0:0:
320,160,12256,1,0,0:0:0:0:
320,160,12444,1,0,0:0:0:0:
320,160,12537,1,0,0:0:0:0:
384,128,12631,1,2,0:0:0:0:
352,128,12725,1,0,0:0:0:0:
384,128,12819,1,2,0:0:0:0:
352,128,13006,1,0,0:0:0:0:
352,128,13100,1,0,0:0:0:0:
384,96,13194,1,2,0:0:0:0:
384,96,13287,1,2,0:0:0:0:
384,96,13475,1,2,0:0:0:0:
192,128,13569,1,0,0:0:0:0:
192,128,13756,1,0,0:0:0:0:
384,96,13944,1,2,0:0:0:0:
192,128,14131,1,0,0:0:0:0:
192,128,14225,1,0,0:0:0:0:
192,128,14319,1,0,0:0:0:0:
384,96,14412,1,2,0:0:0:0:
192,128,14506,1,0,0:0:0:0:
192,128,14600,1,0,0:0:0:0:
384,96,14694,1,2,0:0:0:0:
192,128,14881,1,0,0:0:0:0:
384,96,14975,1,2,0:0:0:0:
320,160,15069,1,0,0:0:0:0:
320,160,15256,1,0,0:0:0:0:
160,160,15444,1,2,0:0:0:0:
320,160,15631,1,0,0:0:0:0:
320,160,15725,1,0,0:0:0:0:
320,160,15819,1,0,0:0:0:0:
160,160,15912,1,2,0:0:0:0:
320,160,16006,1,0,0:0:0:0:
320,160,16100,1,0,0:0:0:0:
160,160,16194,1,2,0:0:0:0:
320,160,16287,1,0,0:0:0:0:
160,160,16381,1,2,0:0:0:0:
160,160,16475,1,0,0:0:0:0:
320,160,16569,1,0,0:0:0:0:
288,128,16756,1,2,0:0:0:0:
288,128,16944,1,2,0:0:0:0:
288,128,17006,1,2,0:0:0:0:
288,128,17069,1,2,0:0:0:0:
288,128,17131,1,2,0:0:0:0:
288,128,17194,1,2,0:0:0:0:
288,128,17256,1,2,0:0:0:0:
256,160,17319,1,0,0:0:0:0:
106,186,18069,1,0,0:0:0:0:
106,186,18162,1,0,0:0:0:0:
106,186,18256,1,0,0:0:0:0:
106,186,18350,1,0,0:0:0:0:
344,133,18444,1,2,0:0:0:0:
344,133,18537,1,2,0:0:0:0:
344,133,18631,1,2,0:0:0:0:
344,133,18725,1,2,0:0:0:0:
106,186,18819,1,0,0:0:0:0:
106,186,19006,1,0,0:0:0:0:
344,133,19100,1,2,0:0:0:0:
344,133,19287,1,2,0:0:0:0:
106,186,19381,1,0,0:0:0:0:
106,186,19475,1,0,0:0:0:0:
344,133,19569,1,2,0:0:0:0:
262,144,19756,1,2,0:0:0:0:
262,144,19944,1,2,0:0:0:0:
429,118,20037,1,0,0:0:0:0:
262,144,20225,1,2,0:0:0:0:
429,118,20319,1,0,0:0:0:0:
262,144,20412,1,2,0:0:0:0:
429,118,20506,1,0,0:0:0:0:
429,118,20600,1,0,0:0:0:0:
262,144,20694,1,2,0:0:0:0:
429,118,20787,1,0,0:0:0:0:
429,118,20881,1,0,0:0:0:0:
354,141,20975,1,2,0:0:0:0:
417,116,21069,1,0,0:0:0:0:
417,116,21162,1,0,0:0:0:0:
417,116,21256,1,0,0:0:0:0:
417,116,21350,1,0,0:0:0:0:
368,140,21444,1,2,0:0:0:0:
368,140,21537,1,2,0:0:0:0:
368,140,21631,1,2,0:0:0:0:
368,140,21725,1,2,0:0:0:0:
417,116,21819,1,0,0:0:0:0:
311,140,22006,1,2,0:0:0:0:
445,142,22100,1,0,0:0:0:0:
311,140,22287,1,2,0:0:0:0:
445,142,22381,1,0,0:0:0:0:
445,142,22475,1,0,0:0:0:0:
288,197,22569,1,2,0:0:0:0:
252,95,22756,1,0,0:0:0:0:
399,135,22944,1,2,0:0:0:0:
399,135,23131,1,2,0:0:0:0:
399,135,23225,1,2,0:0:0:0:
317,131,23412,1,0,0:0:0:0:
317,131,23506,1,0,0:0:0:0:
317,131,23600,1,0,0:0:0:0:
324,132,23694,1,2,0:0:0:0:
317,131,23787,1,0,0:0:0:0:
317,131,23881,1,0,0:0:0:0:
204,151,24069,1,0,0:0:0:0:
379,120,24162,1,2,0:0:0:0:
379,120,24256,1,2,0:0:0:0:
379,120,24350,1,2,0:0:0:0:
204,151,24444,1,0,0:0:0:0:
379,120,24537,1,2,0:0:0:0:
379,120,24631,1,2,0:0:0:0:
379,120,24725,1,2,0:0:0:0:
204,151,24819,1,0,0:0:0:0:
378,164,25006,1,0,0:0:0:0:
379,120,25100,1,2,0:0:0:0:
379,120,25287,1,2,0:0:0:0:
378,164,25381,1,0,0:0:0:0:
210,146,25475,1,0,0:0:0:0:
409,133,25569,1,2,0:0:0:0:
367,98,25756,1,0,0:0:0:0:
325,136,25944,1,2,0:0:0:0:
367,98,26037,1,0,0:0:0:0:
325,136,26225,1,2,0:0:0:0:
367,98,26319,1,0,0:0:0:0:
325,136,26412,1,2,0:0:0:0:
367,98,26506,1,0,0:0:0:0:
367,98,26600,1,0,0:0:0:0:
325,136,26694,1,2,0:0:0:0:
367,98,26787,1,0,0:0:0:0:
367,98,26881,1,0,0:0:0:0:
232,122,27069,1,0,0:0:0:0:
232,122,27162,1,0,0:0:0:0:
232,122,27256,1,0,0:0:0:0:
435,148,27350,1,2,0:0:0:0:
435,148,27444,1,2,0:0:0:0:
435,148,27537,1,2,0:0:0:0:
232,122,27631,1,0,0:0:0:0:
411,108,27725,1,0,0:0:0:0:
269,138,27819,1,2,0:0:0:0:
269,138,27912,1,2,0:0:0:0:
269,138,28006,1,2,0:0:0:0:
411,108,28100,1,0,0:0:0:0:
411,108,28194,1,0,0:0:0:0:
411,108,28287,1,0,0:0:0:0:
281,165,28381,1,2,0:0:0:0:
281,165,28475,1,2,0:0:0:0:
270,122,28569,1,0,0:0:0:0:
270,122,28756,1,0,0:0:0:0:
487,105,28944,1,2,0:0:0:0:
269,122,29037,1,0,0:0:0:0:
487,105,29225,1,2,0:0:0:0:
269,122,29319,1,0,0:0:0:0:
487,105,29412,1,2,0:0:0:0:
270,122,29506,1,0,0:0:0:0:
270,122,29600,1,0,0:0:0:0:
487,105,29694,1,2,0:0:0:0:
180,131,29756,1,2,0:0:0:0:
180,131,29819,1,2,0:0:0:0:
180,131,29881,1,2,0:0:0:0:
180,131,29944,1,2,0:0:0:0:
180,131,30006,1,2,0:0:0:0:
421,130,30069,1,0,0:0:0:0:
421,130,30256,1,0,0:0:0:0:
286,131,30444,1,2,0:0:0:0:
421,130,30631,1,0,0:0:0:0:
421,130,30725,1,0,0:0:0:0:
421,130,30819,1,0,0:0:0:0:
286,131,30912,1,2,0:0:0:0:
421,130,31006,1,0,0:0:0:0:
421,130,31100,1,0,0:0:0:0:
286,131,31194,1,2,0:0:0:0:
421,130,31287,1,0,0:0:0:0:
421,130,31381,1,0,0:0:0:0:
286,131,31475,1,2,0:0:0:0:
218,125,31569,1,0,0:0:0:0:
218,125,31756,1,0,0:0:0:0:
361,118,31944,1,2,0:0:0:0:
218,125,32131,1,0,0:0:0:0:
211,129,32225,1,2,0:0:0:0:
361,118,32412,1,2,0:0:0:0:
218,125,32506,1,0,0:0:0:0:
218,125,32600,1,0,0:0:0:0:
361,118,32694,1,2,0:0:0:0:
218,125,32787,1,0,0:0:0:0:
218,125,32881,1,0,0:0:0:0:
305,183,33069,1,0,0:0:0:0:
305,183,33256,1,0,0:0:0:0:
444,113,33444,1,2,0:0:0:0:
305,183,33631,1,0,0:0:0:0:
305,183,33725,1,0,0:0:0:0:
305,183,33819,1,0,0:0:0:0:
444,113,33912,1,2,0:0:0:0:
305,183,34006,1,0,0:0:0:0:
305,183,34100,1,0,0:0:0:0:
444,113,34194,1,2,0:0:0:0:
305,183,34287,1,0,0:0:0:0:
444,113,34381,1,2,0:0:0:0:
305,183,34475,1,0,0:0:0:0:
204,137,34569,1,2,0:0:0:0:
366,144,34756,1,0,0:0:0:0:
366,144,34944,1,0,0:0:0:0:
366,144,35037,1,0,0:0:0:0:
239,164,35131,1,2,0:0:0:0:
244,168,35225,1,2,0:0:0:0:
377,126,35319,1,2,0:0:0:0:
401,137,35412,1,0,0:0:0:0:
401,137,35600,1,0,0:0:0:0:
377,126,35694,1,2,0:0:0:0:
401,137,35787,1,0,0:0:0:0:
401,137,35975,1,0,0:0:0:0:
318,136,36069,1,2,0:0:0:0:
318,136,36162,1,2,0:0:0:0:
318,136,36256,1,2,0:0:0:0:
318,136,36350,1,2,0:0:0:0:
401,137,36444,1,0,0:0:0:0:
401,137,36537,1,0,0:0:0:0:
383,130,36631,1,2,0:0:0:0:
383,130,36725,1,2,0:0:0:0:
401,137,36819,1,0,0:0:0:0:
409,128,37006,1,0,0:0:0:0:
145,149,37100,1,2,0:0:0:0:
145,149,37287,1,2,0:0:0:0:
409,129,37381,1,0,0:0:0:0:
409,129,37475,1,0,0:0:0:0:
439,117,37569,1,2,0:0:0:0:
439,117,37756,1,2,0:0:0:0:
398,117,37944,1,0,0:0:0:0:
398,117,38131,1,0,0:0:0:0:
428,140,38225,1,2,0:0:0:0:
398,117,38412,1,0,0:0:0:0:
397,117,38506,1,0,0:0:0:0:
398,117,38600,1,0,0:0:0:0:
428,140,38694,1,2,0:0:0:0:
398,117,38787,1,0,0:0:0:0:
398,117,38881,1,0,0:0:0:0:
352,128,39069,1,2,0:0:0:0:
352,128,39162,1,2,0:0:0:0:
352,128,39256,1,2,0:0:0:0:
352,128,39350,1,2,0:0:0:0:
192,160,39444,1,0,0:0:0:0:
192,160,39537,1,0,0:0:0:0:
352,128,39631,1,2,0:0:0:0:
352,128,39725,1,2,0:0:0:0:
192,160,39819,1,0,0:0:0:0:
416,96,40006,1,0,0:0:0:0:
352,128,40100,1,2,0:0:0:0:
352,128,40287,1,2,0:0:0:0:
416,96,40381,1,0,0:0:0:0:
384,128,40569,1,2,0:0:0:0:
384,128,40756,1,2,0:0:0:0:
448,128,40944,1,0,0:0:0:0:
448,128,41131,1,0,0:0:0:0:
384,128,41225,1,2,0:0:0:0:
320,192,41412,1,2,0:0:0:0:
320,192,41506,1,2,0:0:0:0:
320,192,41600,1,0,0:0:0:0:
320,192,41694,1,2,0:0:0:0:
480,96,41787,1,0,0:0:0:0:
480,96,41881,1,0,0:0:0:0:
480,96,41975,1,0,0:0:0:0:
288,128,42069,1,2,0:0:0:0:
288,128,42162,1,2,0:0:0:0:
288,128,42256,1,2,0:0:0:0:
288,128,42350,1,2,0:0:0:0:
352,160,42444,1,0,0:0:0:0:
288,128,42537,1,2,0:0:0:0:
288,128,42631,1,2,0:0:0:0:
288,128,42725,1,2,0:0:0:0:
352,160,42819,1,0,0:0:0:0:
352,160,43006,1,0,0:0:0:0:
384,128,43100,1,2,0:0:0:0:
384,128,43287,1,2,0:0:0:0:
352,160,43381,1,0,0:0:0:0:
384,128,43569,1,2,0:0:0:0:
384,128,43756,1,2,0:0:0:0:
448,96,43944,1,0,0:0:0:0:
448,96,44131,1,0,0:0:0:0:
384,128,44225,1,2,0:0:0:0:
288,96,44412,1,0,0:0:0:0:
288,96,44506,1,0,0:0:0:0:
288,96,44600,1,0,0:0:0:0:
288,96,44694,1,2,0:0:0:0:
288,96,44787,1,0,0:0:0:0:
288,96,44881,1,0,0:0:0:0:
288,96,45069,1,0,0:0:0:0:
288,96,45162,1,0,0:0:0:0:
320,160,45256,1,0,0:0:0:0:
256,128,45350,1,2,0:0:0:0:
256,128,45444,1,2,0:0:0:0:
256,128,45537,1,2,0:0:0:0:
320,160,45631,1,0,0:0:0:0:
320,160,45819,1,6,0:0:0:0:
352,192,46569,1,4,0:0:0:0:
320,160,46756,1,0,0:0:0:0:
480,96,46944,1,2,0:0:0:0:
320,160,47131,1,0,0:0:0:0:
320,160,47225,1,0,0:0:0:0:
320,160,47319,1,0,0:0:0:0:
480,96,47412,1,2,0:0:0:0:
320,160,47506,1,0,0:0:0:0:
320,160,47600,1,0,0:0:0:0:
480,96,47694,1,2,0:0:0:0:
480,96,47787,1,2,0:0:0:0:
320,160,47881,1,0,0:0:0:0:
352,160,48069,1,2,0:0:0:0:
352,160,48162,1,2,0:0:0:0:
448,96,48256,1,0,0:0:0:0:
352,160,48444,1,2,0:0:0:0:
448,96,48537,1,0,0:0:0:0:
448,96,48631,1,0,0:0:0:0:
352,160,48819,1,2,0:0:0:0:
352,160,48912,1,2,0:0:0:0:
448,96,49006,1,0,0:0:0:0:
352,160,49194,1,2,0:0:0:0:
448,96,49287,1,0,0:0:0:0:
448,96,49381,1,0,0:0:0:0:
352,160,49569,1,2,0:0:0:0:
352,160,49662,1,2,0:0:0:0:
448,96,49756,1,0,0:0:0:0:
352,160,49944,1,2,0:0:0:0:
448,96,50037,1,0,0:0:0:0:
448,96,50131,1,0,0:0:0:0:
352,160,50319,1,2,0:0:0:0:
96,192,50412,1,0,0:0:0:0:
96,192,50506,1,0,0:0:0:0:
96,192,50600,1,0,0:0:0:0:
96,192,50694,1,2,0:0:0:0:
224,160,51069,1,2,0:0:0:0:
224,160,51162,1,2,0:0:0:0:
384,128,51256,1,0,0:0:0:0:
224,160,51350,1,2,0:0:0:0:
224,160,51444,1,2,0:0:0:0:
224,160,51537,1,2,0:0:0:0:
384,128,51631,1,0,0:0:0:0:
384,128,51725,1,0,0:0:0:0:
224,160,51819,1,2,0:0:0:0:
224,160,51912,1,2,0:0:0:0:
384,128,52006,1,0,0:0:0:0:
224,160,52100,1,2,0:0:0:0:
224,160,52194,1,2,0:0:0:0:
224,160,52287,1,2,0:0:0:0:
384,128,52381,1,0,0:0:0:0:
384,128,52475,1,0,0:0:0:0:
384,96,52569,1,2,0:0:0:0:
384,96,52662,1,2,0:0:0:0:
384,128,52756,1,0,0:0:0:0:
384,96,52944,1,2,0:0:0:0:
384,128,53037,1,0,0:0:0:0:
384,128,53131,1,0,0:0:0:0:
384,128,53225,1,0,0:0:0:0:
160,128,53319,1,2,0:0:0:0:
160,128,53506,1,2,0:0:0:0:
160,128,53600,1,2,0:0:0:0:
384,128,53694,1,0,0:0:0:0:
352,160,54069,1,2,0:0:0:0:
352,160,54162,1,2,0:0:0:0:
448,96,54256,1,0,0:0:0:0:
352,160,54444,1,2,0:0:0:0:
448,96,54537,1,0,0:0:0:0:
448,96,54631,1,0,0:0:0:0:
352,160,54819,1,2,0:0:0:0:
352,160,54912,1,2,0:0:0:0:
448,96,55006,1,0,0:0:0:0:
352,160,55194,1,2,0:0:0:0:
448,96,55287,1,0,0:0:0:0:
448,96,55381,1,0,0:0:0:0:
352,160,55569,1,2,0:0:0:0:
352,160,55662,1,2,0:0:0:0:
448,96,55756,1,0,0:0:0:0:
352,160,55944,1,2,0:0:0:0:
448,96,56037,1,0,0:0:0:0:
448,96,56131,1,0,0:0:0:0:
352,160,56319,1,2,0:0:0:0:
96,192,56412,1,0,0:0:0:0:
96,192,56506,1,0,0:0:0:0:
96,192,56600,1,0,0:0:0:0:
96,192,56694,1,2,0:0:0:0:
224,160,57069,1,2,0:0:0:0:
224,160,57162,1,2,0:0:0:0:
384,128,57256,1,0,0:0:0:0:
224,160,57350,1,0,0:0:0:0:
224,160,57444,1,2,0:0:0:0:
224,160,57537,1,0,0:0:0:0:
384,128,57631,1,0,0:0:0:0:
224,160,57819,1,2,0:0:0:0:
224,160,57912,1,2,0:0:0:0:
384,128,58006,1,0,0:0:0:0:
224,160,58100,1,0,0:0:0:0:
224,160,58194,1,2,0:0:0:0:
224,160,58287,1,0,0:0:0:0:
384,128,58381,1,0,0:0:0:0:
384,96,58569,1,2,0:0:0:0:
384,96,58662,1,2,0:0:0:0:
384,128,58756,1,0,0:0:0:0:
384,96,58944,1,2,0:0:0:0:
384,128,59037,1,0,0:0:0:0:
384,128,59131,1,0,0:0:0:0:
384,128,59225,1,0,0:0:0:0:
160,128,59319,1,2,0:0:0:0:
160,128,59506,1,2,0:0:0:0:
160,128,59600,1,2,0:0:0:0:
384,128,59694,1,0,0:0:0:0:
288,96,59787,1,2,0:0:0:0:
64,160,59881,1,0,0:0:0:0:
320,160,60069,1,6,0:0:0:0:
320,160,60350,1,6,0:0:0:0:
320,160,60631,1,6,0:0:0:0:
320,160,60819,1,6,0:0:0:0:
320,128,61006,1,2,0:0:0:0:
320,128,61069,1,2,0:0:0:0:
320,128,61131,1,2,0:0:0:0:
96,128,61194,1,0,0:0:0:0:
448,128,61287,1,2,0:0:0:0:
448,128,61381,1,2,0:0:0:0:
448,128,61475,1,2,0:0:0:0:
192,160,61569,1,0,0:0:0:0:
192,160,61756,1,0,0:0:0:0:
384,128,61850,1,2,0:0:0:0:
384,128,62037,1,2,0:0:0:0:
192,160,62131,1,0,0:0:0:0:
384,128,62319,1,2,0:0:0:0:
384,128,62506,1,2,0:0:0:0:
448,128,62600,1,0,0:0:0:0:
448,128,62787,1,0,0:0:0:0:
384,128,62881,1,2,0:0:0:0:
352,160,63069,1,0,0:0:0:0:
352,160,63162,1,0,0:0:0:0:
352,160,63256,1,0,0:0:0:0:
352,160,63350,1,2,0:0:0:0:
416,128,63444,1,2,0:0:0:0:
416,128,63537,1,2,0:0:0:0:
352,160,63631,1,0,0:0:0:0:
352,160,63725,1,0,0:0:0:0:
416,128,63819,1,2,0:0:0:0:
416,128,64006,1,0,0:0:0:0:
416,128,64100,1,2,0:0:0:0:
416,128,64194,1,0,0:0:0:0:
416,128,64287,1,0,0:0:0:0:
416,128,64381,1,2,0:0:0:0:
416,128,64475,1,2,0:0:0:0:
160,128,64569,1,0,0:0:0:0:
160,128,64756,1,0,0:0:0:0:
384,128,64850,1,2,0:0:0:0:
384,128,65037,1,2,0:0:0:0:
160,160,65131,1,0,0:0:0:0:
384,128,65319,1,2,0:0:0:0:
384,128,65506,1,2,0:0:0:0:
160,160,65600,1,0,0:0:0:0:
160,160,65787,1,0,0:0:0:0:
384,128,65881,1,2,0:0:0:0:
256,160,66069,1,0,0:0:0:0:
384,128,66162,1,0,0:0:0:0:
384,128,66256,1,0,0:0:0:0:
224,160,66350,1,2,0:0:0:0:
288,128,66537,1,0,0:0:0:0:
256,160,66631,1,2,0:0:0:0:
288,128,66725,1,2,0:0:0:0:
256,160,66819,1,0,0:0:0:0:
160,160,67006,1,0,0:0:0:0:
416,128,67100,1,2,0:0:0:0:
160,160,67194,1,0,0:0:0:0:
416,128,67287,1,2,0:0:0:0:
416,128,67381,1,2,0:0:0:0:
416,128,67475,1,2,0:0:0:0:
192,192,67569,1,0,0:0:0:0:
192,192,67662,1,0,0:0:0:0:
192,192,67756,1,0,0:0:0:0:
320,160,67850,1,2,0:0:0:0:
480,128,68037,1,0,0:0:0:0:
320,160,68131,1,2,0:0:0:0:
256,160,68319,1,0,0:0:0:0:
352,128,68412,1,2,0:0:0:0:
352,128,68506,1,2,0:0:0:0:
256,160,68600,1,0,0:0:0:0:
256,160,68787,1,0,0:0:0:0:
352,128,68881,1,2,0:0:0:0:
224,128,69069,1,2,0:0:0:0:
416,128,69162,1,0,0:0:0:0:
416,128,69256,1,0,0:0:0:0:
224,128,69350,1,2,0:0:0:0:
416,128,69537,1,0,0:0:0:0:
224,128,69631,1,2,0:0:0:0:
384,128,69819,1,2,0:0:0:0:
384,160,69912,1,0,0:0:0:0:
384,160,70006,1,0,0:0:0:0:
384,160,70100,1,0,0:0:0:0:
320,128,70194,1,2,0:0:0:0:
320,128,70287,1,2,0:0:0:0:
320,128,70381,1,2,0:0:0:0:
256,192,70569,1,0,0:0:0:0:
256,192,70662,1,0,0:0:0:0:
416,160,70756,1,0,0:0:0:0:
416,128,70850,1,2,0:0:0:0:
416,128,70944,1,2,0:0:0:0:
416,128,71037,1,2,0:0:0:0:
384,128,71131,1,0,0:0:0:0:
384,128,71225,1,0,0:0:0:0:
416,128,71319,1,2,0:0:0:0:
416,128,71412,1,2,0:0:0:0:
416,128,71506,1,2,0:0:0:0:
384,128,71600,1,0,0:0:0:0:
384,128,71694,1,0,0:0:0:0:
384,128,71787,1,0,0:0:0:0:
416,128,71881,1,2,0:0:0:0:
416,128,71975,1,2,0:0:0:0:
416,128,72069,1,0,0:0:0:0:
416,128,72256,1,0,0:0:0:0:
224,160,72444,1,2,0:0:0:0:
416,128,72631,1,0,0:0:0:0:
416,128,72819,1,0,0:0:0:0:
224,160,72912,1,2,0:0:0:0:
416,128,73006,1,0,0:0:0:0:
416,128,73100,1,0,0:0:0:0:
224,160,73194,1,2,0:0:0:0:
224,160,73287,1,2,0:0:0:0:
224,160,73381,1,2,0:0:0:0:
224,160,73475,1,2,0:0:0:0:
384,128,73569,1,2,0:0:0:0:
352,160,73662,1,0,0:0:0:0:
384,128,73756,1,2,0:0:0:0:
352,160,73850,1,0,0:0:0:0:
384,128,73944,1,2,0:0:0:0:
416,128,74131,1,2,0:0:0:0:
384,128,74319,1,0,0:0:0:0:
384,128,74506,1,0,0:0:0:0:
384,128,74600,1,0,0:0:0:0:
384,128,74694,1,2,0:0:0:0:
448,128,74881,1,2,0:0:0:0:
384,128,75069,1,0,0:0:0:0:
384,128,75162,1,0,0:0:0:0:
384,128,75256,1,0,0:0:0:0:
384,128,75350,1,0,0:0:0:0:
448,128,75444,1,2,0:0:0:0:
448,128,75631,1,2,0:0:0:0:
448,128,75725,1,2,0:0:0:0:
384,128,75819,1,0,0:0:0:0:
128,96,76006,5,0,0:0:0:0:
96,128,76100,1,0,0:0:0:0:
416,160,76194,1,2,0:0:0:0:
416,160,76381,1,2,0:0:0:0:
416,160,76569,1,2,0:0:0:0:
384,128,76662,1,0,0:0:0:0:
416,160,76756,1,2,0:0:0:0:
384,128,76850,1,0,0:0:0:0:
416,160,76944,1,2,0:0:0:0:
416,160,77131,1,2,0:0:0:0:
384,128,77319,1,0,0:0:0:0:
384,128,77506,1,0,0:0:0:0:
384,128,77600,1,0,0:0:0:0:
384,128,77694,1,2,0:0:0:0:
384,128,77881,1,2,0:0:0:0:
352,160,78069,5,6,0:0:0:0:
416,96,78256,1,0,0:0:0:0:
448,128,78350,1,2,0:0:0:0:
438,128,78444,1,0,0:0:0:0:
416,96,78537,1,0,0:0:0:0:
448,128,78631,1,2,0:0:0:0:
448,128,78725,1,2,0:0:0:0:
320,160,78912,1,2,0:0:0:0:
320,160,79006,1,2,0:0:0:0:
320,160,79100,1,2,0:0:0:0:
416,128,79194,1,2,0:0:0:0:
416,128,79256,1,2,0:0:0:0:
416,128,79319,1,2,0:0:0:0:
320,96,79381,1,0,0:0:0:0:
421,130,79569,1,0,0:0:0:0:
421,130,79756,1,0,0:0:0:0:
286,131,79944,1,2,0:0:0:0:
421,130,80131,1,0,0:0:0:0:
421,130,80225,1,0,0:0:0:0:
421,130,80319,1,0,0:0:0:0:
286,131,80412,1,2,0:0:0:0:
421,130,80506,1,0,0:0:0:0:
421,130,80600,1,0,0:0:0:0:
286,131,80694,1,2,0:0:0:0:
421,130,80787,1,0,0:0:0:0:
421,130,80881,1,0,0:0:0:0:
286,131,80975,1,2,0:0:0:0:
218,125,81069,1,0,0:0:0:0:
218,125,81256,1,0,0:0:0:0:
361,118,81444,1,2,0:0:0:0:
218,125,81631,1,0,0:0:0:0:
211,129,81725,1,2,0:0:0:0:
361,118,81912,1,2,0:0:0:0:
218,125,82006,1,0,0:0:0:0:
218,125,82100,1,0,0:0:0:0:
361,118,82194,1,2,0:0:0:0:
218,125,82287,1,0,0:0:0:0:
218,125,82381,1,0,0:0:0:0:
305,183,82569,1,0,0:0:0:0:
305,183,82756,1,0,0:0:0:0:
444,113,82944,1,2,0:0:0:0:
305,183,83131,1,0,0:0:0:0:
305,183,83225,1,0,0:0:0:0:
305,183,83319,1,0,0:0:0:0:
444,113,83412,1,2,0:0:0:0:
305,183,83506,1,0,0:0:0:0:
305,183,83600,1,0,0:0:0:0:
444,113,83694,1,2,0:0:0:0:
305,183,83787,1,0,0:0:0:0:
444,113,83881,1,2,0:0:0:0:
305,183,83975,1,0,0:0:0:0:
204,137,84069,1,2,0:0:0:0:
366,144,84256,1,0,0:0:0:0:
366,144,84444,1,0,0:0:0:0:
366,144,84537,1,0,0:0:0:0:
239,164,84631,1,2,0:0:0:0:
244,168,84725,1,2,0:0:0:0:
377,126,84819,1,2,0:0:0:0:
401,137,84912,1,0,0:0:0:0:
401,137,85100,1,0,0:0:0:0:
377,126,85194,1,2,0:0:0:0:
401,137,85287,1,0,0:0:0:0:
401,137,85475,1,0,0:0:0:0:
421,130,85569,1,0,0:0:0:0:
421,130,85756,1,0,0:0:0:0:
286,131,85944,1,2,0:0:0:0:
421,130,86131,1,0,0:0:0:0:
421,130,86225,1,0,0:0:0:0:
421,130,86319,1,0,0:0:0:0:
286,131,86412,1,2,0:0:0:0:
421,130,86506,1,0,0:0:0:0:
421,130,86600,1,0,0:0:0:0:
286,131,86694,1,2,0:0:0:0:
421,130,86787,1,0,0:0:0:0:
421,130,86881,1,0,0:0:0:0:
286,131,86975,1,2,0:0:0:0:
218,125,87069,1,0,0:0:0:0:
218,125,87256,1,0,0:0:0:0:
361,118,87444,1,2,0:0:0:0:
218,125,87631,1,0,0:0:0:0:
211,129,87725,1,2,0:0:0:0:
361,118,87912,1,2,0:0:0:0:
218,125,88006,1,0,0:0:0:0:
218,125,88100,1,0,0:0:0:0:
361,118,88194,1,2,0:0:0:0:
218,125,88287,1,0,0:0:0:0:
218,125,88381,1,0,0:0:0:0:
96,160,88569,1,0,0:0:0:0:
416,128,88944,1,2,0:0:0:0:
416,128,89694,1,2,0:0:0:0:
416,128,90444,1,2,0:0:0:0:
416,128,91194,1,2,0:0:0:0:
384,96,91569,1,0,0:0:0:0:
384,96,91631,1,0,0:0:0:0:
384,96,91694,1,0,0:0:0:0:
128,160,91756,1,2,0:0:0:0:
320,128,91850,1,0,0:0:0:0:
128,160,91944,1,2,0:0:0:0:
128,160,92006,1,2,0:0:0:0:
128,160,92069,1,2,0:0:0:0:
128,160,92131,1,2,0:0:0:0:
128,160,92194,1,2,0:0:0:0:
128,160,92256,1,2,0:0:0:0:
320,128,92319,1,0,0:0:0:0:
320,128,92412,1,0,0:0:0:0:
320,160,92506,1,2,0:0:0:0:
416,128,92694,1,0,0:0:0:0:
320,160,92787,1,2,0:0:0:0:
320,160,92881,1,2,0:0:0:0:
416,128,93069,1,0,0:0:0:0:
416,128,93162,1,0,0:0:0:0:
320,160,93256,1,2,0:0:0:0:
416,128,93444,1,0,0:0:0:0:
320,160,93537,1,2,0:0:0:0:
320,160,93631,1,2,0:0:0:0:
416,128,93819,1,0,0:0:0:0:
416,128,93912,1,0,0:0:0:0:
320,160,94006,1,2,0:0:0:0:
416,128,94194,1,0,0:0:0:0:
320,160,94287,1,2,0:0:0:0:
320,160,94381,1,2,0:0:0:0:
448,128,94569,1,2,0:0:0:0:
192,160,94662,1,0,0:0:0:0:
192,160,94756,1,0,0:0:0:0:
448,128,94850,1,2,0:0:0:0:
448,128,94944,1,2,0:0:0:0:
320,128,95319,1,2,0:0:0:0:
320,128,95413,1,2,0:0:0:0:
384,128,95507,1,0,0:0:0:0:
384,128,95600,1,0,0:0:0:0:
320,128,95694,1,2,0:0:0:0:
384,128,95788,1,0,0:0:0:0:
384,128,95882,1,0,0:0:0:0:
320,128,96069,1,2,0:0:0:0:
320,128,96163,1,2,0:0:0:0:
384,128,96257,1,0,0:0:0:0:
384,128,96350,1,0,0:0:0:0:
320,128,96444,1,2,0:0:0:0:
384,128,96538,1,0,0:0:0:0:
384,128,96632,1,0,0:0:0:0:
320,256,96819,1,2,0:0:0:0:
128,128,96912,1,0,0:0:0:0:
128,128,97006,1,0,0:0:0:0:
128,128,97100,1,0,0:0:0:0:
384,160,97194,1,2,0:0:0:0:
384,160,97287,1,2,0:0:0:0:
128,128,97381,1,0,0:0:0:0:
128,128,97475,1,0,0:0:0:0:
384,160,97569,1,2,0:0:0:0:
128,128,97662,1,0,0:0:0:0:
128,128,97756,1,0,0:0:0:0:
128,128,97850,1,0,0:0:0:0:
384,160,97944,1,2,0:0:0:0:
160,128,98131,1,2,0:0:0:0:
416,128,98225,1,0,0:0:0:0:
416,128,98319,1,2,0:0:0:0:
416,128,98412,1,2,0:0:0:0:
288,160,98506,1,0,0:0:0:0:
288,160,98600,1,0,0:0:0:0:
416,128,98694,1,2,0:0:0:0:
288,160,98787,1,0,0:0:0:0:
288,160,98881,1,0,0:0:0:0:
288,160,98975,1,0,0:0:0:0:
416,128,99069,1,2,0:0:0:0:
416,128,99162,1,2,0:0:0:0:
288,160,99256,1,0,0:0:0:0:
288,160,99350,1,0,0:0:0:0:
416,128,99444,1,2,0:0:0:0:
288,160,99537,1,0,0:0:0:0:
288,160,99631,1,0,0:0:0:0:
288,160,99725,1,0,0:0:0:0:
416,128,99819,1,2,0:0:0:0:
416,128,99912,1,2,0:0:0:0:
288,160,100006,1,0,0:0:0:0:
288,160,100100,1,0,0:0:0:0:
416,128,100194,1,2,0:0:0:0:
288,160,100287,1,0,0:0:0:0:
288,160,100381,1,0,0:0:0:0:
288,160,100475,1,0,0:0:0:0:
352,128,100569,1,2,0:0:0:0:
384,128,100662,1,0,0:0:0:0:
416,128,100756,1,2,0:0:0:0:
384,128,100850,1,0,0:0:0:0:
352,128,100944,1,2,0:0:0:0:
128,160,101319,1,2,0:0:0:0:
128,160,101412,1,2,0:0:0:0:
416,128,101506,1,0,0:0:0:0:
160,160,101694,1,2,0:0:0:0:
416,128,101787,1,0,0:0:0:0:
344,128,101881,1,0,0:0:0:0:
160,160,102069,1,2,0:0:0:0:
160,160,102162,1,2,0:0:0:0:
416,128,102256,1,0,0:0:0:0:
160,160,102444,1,2,0:0:0:0:
416,128,102537,1,0,0:0:0:0:
416,128,102631,1,0,0:0:0:0:
288,128,102819,1,2,0:0:0:0:
288,128,102912,1,2,0:0:0:0:
384,160,103006,1,0,0:0:0:0:
352,96,103100,1,2,0:0:0:0:
384,160,103194,1,0,0:0:0:0:
384,160,103287,1,0,0:0:0:0:
352,96,103381,1,2,0:0:0:0:
352,96,103475,1,2,0:0:0:0:
288,128,103569,1,2,0:0:0:0:
288,128,103662,1,2,0:0:0:0:
384,128,103756,1,0,0:0:0:0:
352,96,103850,1,2,0:0:0:0:
480,128,103944,1,0,0:0:0:0:
384,128,104037,1,0,0:0:0:0:
352,96,104131,1,2,0:0:0:0:
448,96,104225,1,2,0:0:0:0:
288,128,104319,1,2,0:0:0:0:
256,128,104412,1,2,0:0:0:0:
352,128,104506,1,0,0:0:0:0:
352,96,104600,1,2,0:0:0:0:
352,128,104694,1,0,0:0:0:0:
352,128,104787,1,0,0:0:0:0:
352,96,104881,1,2,0:0:0:0:
352,96,104975,1,2,0:0:0:0:
192,96,105069,1,0,0:0:0:0:
192,96,105162,1,0,0:0:0:0:
384,128,105256,1,2,0:0:0:0:
384,128,105350,1,2,0:0:0:0:
192,96,105444,1,0,0:0:0:0:
192,96,105537,1,0,0:0:0:0:
384,128,105631,1,2,0:0:0:0:
352,128,105819,1,6,0:0:0:0:
352,128,106100,1,6,0:0:0:0:
352,128,106381,1,6,0:0:0:0:
352,128,106569,1,6,0:0:0:0:
320,160,106756,1,2,0:0:0:0:
320,160,106819,1,2,0:0:0:0:
320,160,106881,1,2,0:0:0:0:
416,128,106944,1,0,0:0:0:0:
128,96,107037,1,2,0:0:0:0:
128,96,107131,1,2,0:0:0:0:
128,96,107225,1,2,0:0:0:0:
192,160,107319,1,0,0:0:0:0:
192,160,107506,1,0,0:0:0:0:
384,128,107600,1,2,0:0:0:0:
384,128,107787,1,2,0:0:0:0:
192,160,107881,1,0,0:0:0:0:
384,128,108069,1,2,0:0:0:0:
384,128,108256,1,2,0:0:0:0:
448,128,108350,1,0,0:0:0:0:
448,128,108537,1,0,0:0:0:0:
384,128,108631,1,2,0:0:0:0:
352,160,108819,1,0,0:0:0:0:
352,160,108912,1,0,0:0:0:0:
352,160,109006,1,0,0:0:0:0:
352,160,109100,1,2,0:0:0:0:
416,128,109194,1,2,0:0:0:0:
416,128,109287,1,2,0:0:0:0:
352,160,109381,1,0,0:0:0:0:
416,128,109569,1,2,0:0:0:0:
416,128,109756,1,0,0:0:0:0:
416,128,109850,1,2,0:0:0:0:
416,128,109944,1,0,0:0:0:0:
416,128,110037,1,0,0:0:0:0:
416,128,110131,1,2,0:0:0:0:
416,128,110225,1,2,0:0:0:0:
160,128,110319,1,0,0:0:0:0:
160,128,110506,1,0,0:0:0:0:
384,128,110600,1,2,0:0:0:0:
384,128,110787,1,2,0:0:0:0:
160,160,110881,1,0,0:0:0:0:
384,128,111069,1,2,0:0:0:0:
384,128,111256,1,2,0:0:0:0:
160,160,111350,1,0,0:0:0:0:
160,160,111537,1,0,0:0:0:0:
384,128,111631,1,2,0:0:0:0:
256,160,111819,1,0,0:0:0:0:
384,128,111912,1,0,0:0:0:0:
384,128,112006,1,0,0:0:0:0:
224,160,112100,1,2,0:0:0:0:
288,128,112287,1,0,0:0:0:0:
256,160,112381,1,2,0:0:0:0:
288,128,112475,1,2,0:0:0:0:
256,160,112569,1,0,0:0:0:0:
160,160,112756,1,0,0:0:0:0:
416,128,112850,1,2,0:0:0:0:
160,160,112944,1,0,0:0:0:0:
416,128,113037,1,2,0:0:0:0:
416,128,113131,1,2,0:0:0:0:
192,192,113319,1,0,0:0:0:0:
192,192,113412,1,0,0:0:0:0:
192,192,113506,1,0,0:0:0:0:
320,160,113600,1,2,0:0:0:0:
480,128,113787,1,0,0:0:0:0:
320,160,113881,1,2,0:0:0:0:
256,160,114069,1,0,0:0:0:0:
352,128,114162,1,2,0:0:0:0:
352,128,114256,1,2,0:0:0:0:
256,160,114350,1,0,0:0:0:0:
256,160,114537,1,0,0:0:0:0:
352,128,114631,1,2,0:0:0:0:
224,128,114819,1,2,0:0:0:0:
416,128,114912,1,0,0:0:0:0:
416,128,115006,1,0,0:0:0:0:
224,128,115100,1,2,0:0:0:0:
416,128,115287,1,0,0:0:0:0:
224,128,115381,1,2,0:0:0:0:
384,128,115569,1,2,0:0:0:0:
384,160,115662,1,0,0:0:0:0:
384,160,115756,1,0,0:0:0:0:
384,160,115850,1,0,0:0:0:0:
320,128,115944,1,2,0:0:0:0:
320,128,116037,1,2,0:0:0:0:
320,128,116131,1,2,0:0:0:0:
256,192,116319,1,0,0:0:0:0:
256,192,116412,1,0,0:0:0:0:
416,160,116506,1,0,0:0:0:0:
416,128,116600,1,2,0:0:0:0:
416,128,116694,1,2,0:0:0:0:
416,128,116787,1,2,0:0:0:0:
384,128,116881,1,0,0:0:0:0:
416,128,117069,1,2,0:0:0:0:
416,128,117162,1,2,0:0:0:0:
416,128,117256,1,2,0:0:0:0:
384,128,117350,1,0,0:0:0:0:
384,128,117444,1,0,0:0:0:0:
384,128,117537,1,0,0:0:0:0:
416,128,117631,1,2,0:0:0:0:
416,128,117725,1,2,0:0:0:0:
416,128,117819,1,0,0:0:0:0:
416,128,118006,1,0,0:0:0:0:
224,160,118194,1,2,0:0:0:0:
416,128,118381,1,0,0:0:0:0:
416,128,118569,1,0,0:0:0:0:
224,160,118662,1,2,0:0:0:0:
416,128,118756,1,0,0:0:0:0:
416,128,118850,1,0,0:0:0:0:
224,160,118944,1,2,0:0:0:0:
224,160,119037,1,2,0:0:0:0:
224,160,119131,1,2,0:0:0:0:
384,128,119319,1,2,0:0:0:0:
352,160,119412,1,0,0:0:0:0:
384,128,119506,1,2,0:0:0:0:
352,160,119600,1,0,0:0:0:0:
384,128,119694,1,2,0:0:0:0:
416,128,119881,1,2,0:0:0:0:
384,128,120069,1,0,0:0:0:0:
384,128,120256,1,0,0:0:0:0:
384,128,120350,1,0,0:0:0:0:
384,128,120444,1,2,0:0:0:0:
448,128,120631,1,2,0:0:0:0:
384,128,120819,1,0,0:0:0:0:
384,128,120912,1,0,0:0:0:0:
384,128,121006,1,0,0:0:0:0:
384,128,121100,1,0,0:0:0:0:
448,128,121194,1,2,0:0:0:0:
448,128,121381,1,2,0:0:0:0:
448,128,121475,1,2,0:0:0:0:
384,128,121569,1,0,0:0:0:0:
128,96,121756,5,0,0:0:0:0:
96,128,121850,1,0,0:0:0:0:
416,160,121944,1,2,0:0:0:0:
320,160,122037,1,0,0:0:0:0:
416,160,122131,1,2,0:0:0:0:
416,160,122319,1,2,0:0:0:0:
384,128,122412,1,0,0:0:0:0:
416,160,122506,1,2,0:0:0:0:
384,128,122600,1,0,0:0:0:0:
416,160,122694,1,2,0:0:0:0:
416,160,122881,1,2,0:0:0:0:
384,128,123069,1,0,0:0:0:0:
384,128,123256,1,0,0:0:0:0:
384,128,123350,1,0,0:0:0:0:
384,128,123444,1,2,0:0:0:0:
384,128,123631,1,2,0:0:0:0:
352,160,123819,5,6,0:0:0:0:
416,96,124006,1,0,0:0:0:0:
448,128,124100,1,2,0:0:0:0:
438,128,124194,1,0,0:0:0:0:
416,96,124287,1,0,0:0:0:0:
448,128,124381,1,2,0:0:0:0:
448,128,124475,1,2,0:0:0:0:
320,160,124662,1,2,0:0:0:0:
320,160,124756,1,2,0:0:0:0:
320,160,124850,1,2,0:0:0:0:
352,160,125319,5,6,0:0:0:0:
416,96,125506,1,0,0:0:0:0:
448,128,125600,1,2,0:0:0:0:
438,128,125694,1,0,0:0:0:0:
416,96,125787,1,0,0:0:0:0:
448,128,125881,1,2,0:0:0:0:
448,128,125975,1,2,0:0:0:0:
320,160,126162,1,2,0:0:0:0:
320,160,126256,1,2,0:0:0:0:
320,160,126350,1,2,0:0:0:0:
320,160,126444,1,2,0:0:0:0:
320,160,126506,1,2,0:0:0:0:
320,160,126569,1,2,0:0:0:0:
256,160,126631,1,0,0:0:0:0:
421,130,126819,1,0,0:0:0:0:
421,130,127006,1,0,0:0:0:0:
286,131,127194,1,2,0:0:0:0:
421,130,127381,1,0,0:0:0:0:
421,130,127475,1,0,0:0:0:0:
421,130,127569,1,0,0:0:0:0:
286,131,127662,1,2,0:0:0:0:
421,130,127756,1,0,0:0:0:0:
421,130,127850,1,0,0:0:0:0:
286,131,127944,1,2,0:0:0:0:
421,130,128037,1,0,0:0:0:0:
421,130,128131,1,0,0:0:0:0:
286,131,128225,1,2,0:0:0:0:
218,125,128319,1,0,0:0:0:0:
218,125,128506,1,0,0:0:0:0:
361,118,128694,1,2,0:0:0:0:
218,125,128881,1,0,0:0:0:0:
211,129,128975,1,2,0:0:0:0:
361,118,129162,1,2,0:0:0:0:
218,125,129256,1,0,0:0:0:0:
218,125,129350,1,0,0:0:0:0:
361,118,129444,1,2,0:0:0:0:
218,125,129537,1,0,0:0:0:0:
218,125,129631,1,0,0:0:0:0:
305,183,129819,1,0,0:0:0:0:
305,183,130006,1,0,0:0:0:0:
444,113,130194,1,2,0:0:0:0:
305,183,130381,1,0,0:0:0:0:
305,183,130475,1,0,0:0:0:0:
305,183,130569,1,0,0:0:0:0:
444,113,130662,1,2,0:0:0:0:
305,183,130756,1,0,0:0:0:0:
305,183,130850,1,0,0:0:0:0:
444,113,130944,1,2,0:0:0:0:
305,183,131037,1,0,0:0:0:0:
444,113,131131,1,2,0:0:0:0:
305,183,131225,1,0,0:0:0:0:
204,137,131319,1,2,0:0:0:0:
366,144,131506,1,0,0:0:0:0:
366,144,131694,1,0,0:0:0:0:
366,144,131787,1,0,0:0:0:0:
239,164,131881,1,2,0:0:0:0:
244,168,131975,1,2,0:0:0:0:
377,126,132069,1,2,0:0:0:0:
401,137,132162,1,0,0:0:0:0:
401,137,132350,1,0,0:0:0:0:
377,126,132444,1,2,0:0:0:0:
401,137,132537,1,0,0:0:0:0:
401,137,132725,1,0,0:0:0:0:
128,160,132819,1,0,0:0:0:0:
128,160,133006,1,0,0:0:0:0:
320,96,133194,1,2,0:0:0:0:
384,128,133287,1,0,0:0:0:0:
384,128,133381,1,0,0:0:0:0:
384,128,133475,1,0,0:0:0:0:
352,128,133569,1,2,0:0:0:0:
352,128,133662,1,2,0:0:0:0:
384,128,133756,1,0,0:0:0:0:
384,128,133850,1,0,0:0:0:0:
352,128,133944,1,2,0:0:0:0:
384,128,134037,1,0,0:0:0:0:
384,128,134131,1,0,0:0:0:0:
384,128,134225,1,0,0:0:0:0:
352,192,134319,1,2,0:0:0:0:
352,128,134412,1,2,0:0:0:0:
384,128,134506,1,0,0:0:0:0:
384,128,134600,1,0,0:0:0:0:
352,128,134694,1,2,0:0:0:0:
384,128,134787,1,0,0:0:0:0:
384,128,134881,1,0,0:0:0:0:
384,128,134975,1,0,0:0:0:0:
320,128,135069,1,2,0:0:0:0:
320,128,135162,1,2,0:0:0:0:
352,128,135256,1,0,0:0:0:0:
320,128,135444,1,2,0:0:0:0:
352,128,135537,1,0,0:0:0:0:
352,128,135631,1,0,0:0:0:0:
352,160,135819,1,0,0:0:0:0:
352,160,136006,1,0,0:0:0:0:
352,160,136194,1,2,0:0:0:0:
384,128,136287,1,0,0:0:0:0:
384,128,136381,1,0,0:0:0:0:
384,128,136475,1,0,0:0:0:0:
352,160,136569,1,2,0:0:0:0:
384,128,136662,1,0,0:0:0:0:
352,160,136756,1,2,0:0:0:0:
384,128,136850,1,0,0:0:0:0:
352,160,136944,1,2,0:0:0:0:
384,128,137037,1,0,0:0:0:0:
384,128,137131,1,0,0:0:0:0:
384,128,137225,1,0,0:0:0:0:
352,160,137319,1,2,0:0:0:0:
352,160,137412,1,2,0:0:0:0:
352,160,137506,1,2,0:0:0:0:
352,160,137600,1,2,0:0:0:0:
352,160,137694,1,2,0:0:0:0:
352,160,137787,1,2,0:0:0:0:
352,160,137881,1,2,0:0:0:0:
352,160,137975,1,2,0:0:0:0:
288,128,138069,1,2,0:0:0:0:
288,128,138131,1,2,0:0:0:0:
288,128,138194,1,2,0:0:0:0:
288,128,138256,1,2,0:0:0:0:
288,128,138319,1,2,0:0:0:0:
288,128,138381,1,2,0:0:0:0:
288,128,138444,1,2,0:0:0:0:
288,128,138506,1,2,0:0:0:0:
288,128,138569,1,2,0:0:0:0:
288,128,138631,1,2,0:0:0:0:
288,128,138694,1,2,0:0:0:0:
288,128,138756,1,2,0:0:0:0:
288,128,138819,1,2,0:0:0:0:
320,128,138912,1,0,0:0:0:0:
288,128,139006,1,2,0:0:0:0:
320,128,139100,1,0,0:0:0:0:
288,128,139287,1,2,0:0:0:0:
288,128,139381,1,2,0:0:0:0:
288,128,139475,1,2,0:0:0:0:
320,128,139569,1,0,0:0:0:0:
288,128,139850,1,2,0:0:0:0:
320,128,139944,1,0,0:0:0:0:
288,128,140037,1,2,0:0:0:0:
320,128,140131,1,0,0:0:0:0:
320,128,140319,1,2,0:0:0:0:
320,128,140412,1,2,0:0:0:0:
320,128,140506,1,2,0:0:0:0:
384,128,140600,1,0,0:0:0:0:
320,128,140787,1,2,0:0:0:0:
384,128,140881,1,0,0:0:0:0:
320,128,140975,1,2,0:0:0:0:
384,128,141069,1,0,0:0:0:0:
320,128,141350,1,2,0:0:0:0:
480,96,141444,1,2,0:0:0:0:
320,128,141537,1,2,0:0:0:0:
384,128,141631,1,0,0:0:0:0:
