osu file format v14

[General]
AudioFilename: Yami.mp3
AudioLeadIn: 1500
PreviewTime: 51695
Countdown: 0
SampleSet: Normal
StackLeniency: 0.7
Mode: 1
LetterboxInBreaks: 0
WidescreenStoryboard: 1

[Editor]
DistanceSpacing: 0.8
BeatDivisor: 4
GridSize: 32
TimelineZoom: 2.3

[Metadata]
Title:Yami no Mahou Shoujo
TitleUnicode:闇の魔法少女
Artist:Silver Forest feat.Aki
ArtistUnicode:Silver Forest feat.アキ
Creator:-Maruk-
Version:oni
Source:太鼓の達人
Tags:Taiko no Tatsujin Namco Original Kanzaki Ranko
BeatmapID:750247
BeatmapSetID:339091

[Difficulty]
HPDrainRate:5
CircleSize:4
OverallDifficulty:5
ApproachRate:5
SliderMultiplier:1.4
SliderTickRate:1

[Events]
//Background and Video events
0,0,"BG.jpg",0,0
//Break Periods
//Storyboard Layer 0 (Background)
//Storyboard Layer 1 (Fail)
//Storyboard Layer 2 (Pass)
//Storyboard Layer 3 (Foreground)
//Storyboard Sound Samples

[TimingPoints]
170,300,4,1,0,70,1,0
2570,-100,4,1,0,70,0,1
12170,-100,4,1,0,70,0,0
51770,-100,4,1,0,70,0,1
61370,-100,4,1,0,70,0,0
66170,-200,4,1,0,70,0,0
75770,-100,4,1,0,70,0,0
80570,-66.6666666666667,4,1,0,70,0,1
85370,-50,4,1,0,70,0,1
90170,-100,4,1,0,70,0,0
110570,-100,4,1,0,70,0,1
129770,-100,4,1,0,70,0,0
134570,-100,4,1,0,70,0,1
144170,-100,4,1,0,70,0,0

[Colours]
Combo1 : 128,255,255
Combo2 : 255,128,128
Combo3 : 255,255,128
Combo4 : 128,255,128

[HitObjects]
256,192,170,5,12,0:0:0:0:
256,192,320,1,0,0:0:0:0:
256,192,470,1,0,0:0:0:0:
256,192,620,1,12,0:0:0:0:
256,192,770,1,0,0:0:0:0:
256,192,920,1,0,0:0:0:0:
256,192,1070,1,12,0:0:0:0:
256,192,1220,1,0,0:0:0:0:
256,192,1370,1,0,0:0:0:0:
256,192,1520,1,12,0:0:0:0:
256,192,1670,1,0,0:0:0:0:
256,192,1820,1,0,0:0:0:0:
256,192,1970,1,12,0:0:0:0:
256,192,2120,1,12,0:0:0:0:
256,192,2270,1,12,0:0:0:0:
256,192,2570,1,0,0:0:0:0:
256,192,2720,1,0,0:0:0:0:
256,192,2795,1,0,0:0:0:0:
256,192,2870,1,8,0:0:0:0:
256,192,3020,1,0,0:0:0:0:
256,192,3170,1,0,0:0:0:0:
256,192,3320,1,0,0:0:0:0:
256,192,3395,1,0,0:0:0:0:
256,192,3470,1,8,0:0:0:0:
256,192,3620,1,0,0:0:0:0:
256,192,3695,1,0,0:0:0:0:
256,192,3770,1,0,0:0:0:0:
256,192,3920,1,0,0:0:0:0:
256,192,3995,1,0,0:0:0:0:
256,192,4070,1,8,0:0:0:0:
256,192,4220,1,0,0:0:0:0:
256,192,4295,1,0,0:0:0:0:
256,192,4370,1,8,0:0:0:0:
256,192,4520,1,0,0:0:0:0:
256,192,4595,1,0,0:0:0:0:
256,192,4670,1,8,0:0:0:0:
256,192,4970,1,0,0:0:0:0:
256,192,5120,1,0,0:0:0:0:
256,192,5195,1,0,0:0:0:0:
256,192,5270,1,8,0:0:0:0:
256,192,5420,1,0,0:0:0:0:
256,192,5570,1,0,0:0:0:0:
256,192,5720,1,0,0:0:0:0:
256,192,5795,1,0,0:0:0:0:
256,192,5870,1,8,0:0:0:0:
256,192,6020,1,0,0:0:0:0:
256,192,6095,1,0,0:0:0:0:
256,192,6170,1,0,0:0:0:0:
256,192,6320,1,0,0:0:0:0:
256,192,6395,1,0,0:0:0:0:
256,192,6470,1,8,0:0:0:0:
256,192,6620,1,0,0:0:0:0:
256,192,6695,1,0,0:0:0:0:
256,192,6770,1,8,0:0:0:0:
256,192,6920,1,0,0:0:0:0:
256,192,6995,1,0,0:0:0:0:
256,192,7070,1,8,0:0:0:0:
256,192,7145,1,8,0:0:0:0:
256,192,7220,1,8,0:0:0:0:
256,192,7370,1,0,0:0:0:0:
256,192,7520,1,8,0:0:0:0:
256,192,7595,1,8,0:0:0:0:
256,192,7670,1,0,0:0:0:0:
256,192,7820,1,8,0:0:0:0:
256,192,7970,1,0,0:0:0:0:
256,192,8120,1,8,0:0:0:0:
256,192,8195,1,8,0:0:0:0:
256,192,8270,1,0,0:0:0:0:
256,192,8420,1,8,0:0:0:0:
256,192,8570,1,0,0:0:0:0:
256,192,8720,1,8,0:0:0:0:
256,192,8795,1,8,0:0:0:0:
256,192,8870,1,0,0:0:0:0:
256,192,9020,1,8,0:0:0:0:
256,192,9095,1,8,0:0:0:0:
256,192,9170,1,0,0:0:0:0:
256,192,9320,1,8,0:0:0:0:
256,192,9395,1,8,0:0:0:0:
256,192,9470,1,0,0:0:0:0:
256,192,9770,1,0,0:0:0:0:
256,192,9920,1,8,0:0:0:0:
256,192,9995,1,8,0:0:0:0:
256,192,10070,1,0,0:0:0:0:
256,192,10220,1,8,0:0:0:0:
256,192,10370,1,0,0:0:0:0:
256,192,10520,1,8,0:0:0:0:
256,192,10595,1,8,0:0:0:0:
256,192,10670,1,0,0:0:0:0:
256,192,10820,1,8,0:0:0:0:
256,192,10970,1,0,0:0:0:0:
256,192,11045,1,0,0:0:0:0:
256,192,11195,1,0,0:0:0:0:
256,192,11270,1,8,0:0:0:0:
256,192,11345,1,8,0:0:0:0:
256,192,11420,1,0,0:0:0:0:
256,192,11570,1,0,0:0:0:0:
256,192,11645,1,0,0:0:0:0:
256,192,11720,1,8,0:0:0:0:
256,192,11795,1,8,0:0:0:0:
256,192,11870,1,0,0:0:0:0:
256,192,11945,1,0,0:0:0:0:
256,192,12020,1,8,0:0:0:0:
256,192,12095,1,8,0:0:0:0:
256,192,12170,1,0,0:0:0:0:
256,192,12320,1,0,0:0:0:0:
256,192,12395,1,0,0:0:0:0:
256,192,12470,1,0,0:0:0:0:
256,192,12620,1,0,0:0:0:0:
256,192,12695,1,0,0:0:0:0:
256,192,12770,1,0,0:0:0:0:
256,192,12920,1,0,0:0:0:0:
256,192,13070,1,8,0:0:0:0:
256,192,13220,1,0,0:0:0:0:
256,192,13295,1,0,0:0:0:0:
256,192,13370,1,0,0:0:0:0:
256,192,13520,1,0,0:0:0:0:
256,192,13595,1,0,0:0:0:0:
256,192,13670,1,0,0:0:0:0:
256,192,13820,1,0,0:0:0:0:
256,192,13970,1,0,0:0:0:0:
256,192,14120,1,0,0:0:0:0:
256,192,14195,1,0,0:0:0:0:
256,192,14270,1,8,0:0:0:0:
256,192,14420,1,0,0:0:0:0:
256,192,14495,1,0,0:0:0:0:
256,192,14570,1,0,0:0:0:0:
256,192,14720,1,0,0:0:0:0:
256,192,14870,1,8,0:0:0:0:
256,192,14945,1,0,0:0:0:0:
256,192,15020,1,0,0:0:0:0:
256,192,15170,1,0,0:0:0:0:
256,192,15320,1,0,0:0:0:0:
256,192,15395,1,0,0:0:0:0:
256,192,15470,1,8,0:0:0:0:
256,192,15620,1,0,0:0:0:0:
256,192,15770,1,0,0:0:0:0:
256,192,15920,1,0,0:0:0:0:
256,192,16070,1,8,0:0:0:0:
256,192,16145,1,0,0:0:0:0:
256,192,16220,1,0,0:0:0:0:
256,192,16370,1,0,0:0:0:0:
256,192,16520,1,12,0:0:0:0:
256,192,16670,1,12,0:0:0:0:
256,192,16970,1,0,0:0:0:0:
256,192,17120,1,0,0:0:0:0:
256,192,17195,1,0,0:0:0:0:
256,192,17270,1,0,0:0:0:0:
256,192,17420,1,0,0:0:0:0:
256,192,17495,1,0,0:0:0:0:
256,192,17570,1,0,0:0:0:0:
256,192,17720,1,0,0:0:0:0:
256,192,17870,1,8,0:0:0:0:
256,192,18020,1,0,0:0:0:0:
256,192,18095,1,0,0:0:0:0:
256,192,18170,1,0,0:0:0:0:
256,192,18320,1,0,0:0:0:0:
256,192,18395,1,0,0:0:0:0:
256,192,18470,1,0,0:0:0:0:
256,192,18620,1,0,0:0:0:0:
256,192,18770,1,0,0:0:0:0:
256,192,18920,1,0,0:0:0:0:
256,192,18995,1,0,0:0:0:0:
256,192,19070,1,8,0:0:0:0:
256,192,19220,1,0,0:0:0:0:
256,192,19295,1,0,0:0:0:0:
256,192,19370,1,0,0:0:0:0:
256,192,19520,1,0,0:0:0:0:
256,192,19670,1,8,0:0:0:0:
256,192,19745,1,0,0:0:0:0:
256,192,19820,1,0,0:0:0:0:
256,192,19970,1,0,0:0:0:0:
256,192,20120,1,0,0:0:0:0:
256,192,20195,1,0,0:0:0:0:
256,192,20270,1,8,0:0:0:0:
256,192,20420,1,0,0:0:0:0:
256,192,20495,1,0,0:0:0:0:
256,192,20570,1,0,0:0:0:0:
256,192,20720,1,0,0:0:0:0:
256,192,20870,1,8,0:0:0:0:
256,192,20945,1,0,0:0:0:0:
256,192,21020,1,0,0:0:0:0:
256,192,21170,1,0,0:0:0:0:
256,192,21320,1,12,0:0:0:0:
256,192,21470,1,12,0:0:0:0:
256,192,21770,1,0,0:0:0:0:
256,192,21920,1,0,0:0:0:0:
256,192,21995,1,0,0:0:0:0:
256,192,22070,1,8,0:0:0:0:
256,192,22220,1,0,0:0:0:0:
256,192,22295,1,0,0:0:0:0:
256,192,22370,1,0,0:0:0:0:
256,192,22520,1,0,0:0:0:0:
256,192,22670,1,8,0:0:0:0:
256,192,22820,1,0,0:0:0:0:
256,192,22895,1,0,0:0:0:0:
256,192,22970,1,0,0:0:0:0:
256,192,23120,1,0,0:0:0:0:
256,192,23195,1,0,0:0:0:0:
256,192,23270,1,8,0:0:0:0:
256,192,23420,1,0,0:0:0:0:
256,192,23570,1,0,0:0:0:0:
256,192,23720,1,0,0:0:0:0:
256,192,23795,1,0,0:0:0:0:
256,192,23870,1,8,0:0:0:0:
256,192,24020,1,0,0:0:0:0:
256,192,24095,1,0,0:0:0:0:
256,192,24170,1,0,0:0:0:0:
256,192,24320,1,0,0:0:0:0:
256,192,24470,1,8,0:0:0:0:
256,192,24545,1,0,0:0:0:0:
256,192,24620,1,0,0:0:0:0:
256,192,24770,1,0,0:0:0:0:
256,192,24920,1,0,0:0:0:0:
256,192,24995,1,0,0:0:0:0:
256,192,25070,1,8,0:0:0:0:
256,192,25220,1,0,0:0:0:0:
256,192,25295,1,0,0:0:0:0:
256,192,25370,1,0,0:0:0:0:
256,192,25520,1,12,0:0:0:0:
256,192,25670,1,12,0:0:0:0:
256,192,25820,1,12,0:0:0:0:
256,192,25970,1,4,0:0:0:0:
256,192,26120,1,12,0:0:0:0:
256,192,26270,1,4,0:0:0:0:
256,192,26420,1,12,0:0:0:0:
256,192,26570,1,0,0:0:0:0:
256,192,26720,1,0,0:0:0:0:
256,192,26795,1,0,0:0:0:0:
256,192,26870,1,8,0:0:0:0:
256,192,27020,1,0,0:0:0:0:
256,192,27095,1,0,0:0:0:0:
256,192,27170,1,0,0:0:0:0:
256,192,27320,1,0,0:0:0:0:
256,192,27470,1,8,0:0:0:0:
256,192,27620,1,0,0:0:0:0:
256,192,27695,1,0,0:0:0:0:
256,192,27770,1,0,0:0:0:0:
256,192,27920,1,0,0:0:0:0:
256,192,27995,1,0,0:0:0:0:
256,192,28070,1,8,0:0:0:0:
256,192,28220,1,0,0:0:0:0:
256,192,28370,1,0,0:0:0:0:
256,192,28520,1,0,0:0:0:0:
256,192,28595,1,0,0:0:0:0:
256,192,28670,1,8,0:0:0:0:
256,192,28820,1,0,0:0:0:0:
256,192,28895,1,0,0:0:0:0:
256,192,28970,1,0,0:0:0:0:
256,192,29120,1,0,0:0:0:0:
256,192,29270,1,8,0:0:0:0:
256,192,29345,1,0,0:0:0:0:
256,192,29420,1,0,0:0:0:0:
256,192,29570,1,0,0:0:0:0:
256,192,29720,1,0,0:0:0:0:
256,192,29795,1,0,0:0:0:0:
256,192,29870,1,8,0:0:0:0:
256,192,30020,1,0,0:0:0:0:
256,192,30095,1,0,0:0:0:0:
256,192,30170,1,0,0:0:0:0:
256,192,30320,1,0,0:0:0:0:
256,192,30470,1,8,0:0:0:0:
256,192,30545,1,0,0:0:0:0:
256,192,30620,1,0,0:0:0:0:
256,192,30770,1,0,0:0:0:0:
256,192,30920,1,12,0:0:0:0:
256,192,31070,1,12,0:0:0:0:
256,192,31370,1,0,0:0:0:0:
256,192,31520,1,0,0:0:0:0:
256,192,31595,1,0,0:0:0:0:
256,192,31670,1,8,0:0:0:0:
256,192,31820,1,0,0:0:0:0:
256,192,32120,1,0,0:0:0:0:
256,192,32195,1,0,0:0:0:0:
256,192,32270,1,8,0:0:0:0:
256,192,32345,1,8,0:0:0:0:
256,192,32420,1,0,0:0:0:0:
256,192,32570,1,0,0:0:0:0:
256,192,32720,1,0,0:0:0:0:
256,192,32795,1,0,0:0:0:0:
256,192,32870,1,8,0:0:0:0:
256,192,33020,1,0,0:0:0:0:
256,192,33320,1,0,0:0:0:0:
256,192,33395,1,0,0:0:0:0:
256,192,33470,1,8,0:0:0:0:
256,192,33545,1,8,0:0:0:0:
256,192,33620,1,0,0:0:0:0:
256,192,33770,1,0,0:0:0:0:
256,192,33920,1,0,0:0:0:0:
256,192,33995,1,0,0:0:0:0:
256,192,34070,1,8,0:0:0:0:
256,192,34220,1,0,0:0:0:0:
256,192,34520,1,8,0:0:0:0:
256,192,34595,1,8,0:0:0:0:
256,192,34670,1,0,0:0:0:0:
256,192,34745,1,0,0:0:0:0:
256,192,34820,1,8,0:0:0:0:
256,192,34895,1,8,0:0:0:0:
256,192,34970,1,0,0:0:0:0:
256,192,35120,1,0,0:0:0:0:
256,192,35195,1,0,0:0:0:0:
256,192,35270,1,8,0:0:0:0:
256,192,35420,1,0,0:0:0:0:
256,192,35570,1,8,0:0:0:0:
256,192,35645,1,8,0:0:0:0:
256,192,35720,1,0,0:0:0:0:
256,192,35870,1,0,0:0:0:0:
256,192,36020,1,8,0:0:0:0:
256,192,36095,1,8,0:0:0:0:
256,192,36170,1,0,0:0:0:0:
256,192,36320,1,0,0:0:0:0:
256,192,36395,1,0,0:0:0:0:
256,192,36470,1,8,0:0:0:0:
256,192,36620,1,0,0:0:0:0:
256,192,36920,1,0,0:0:0:0:
256,192,36995,1,0,0:0:0:0:
256,192,37070,1,8,0:0:0:0:
256,192,37145,1,8,0:0:0:0:
256,192,37220,1,0,0:0:0:0:
256,192,37370,1,0,0:0:0:0:
256,192,37520,1,8,0:0:0:0:
256,192,37595,1,8,0:0:0:0:
256,192,37670,1,0,0:0:0:0:
256,192,37820,1,8,0:0:0:0:
256,192,37970,1,0,0:0:0:0:
256,192,38120,1,8,0:0:0:0:
256,192,38195,1,8,0:0:0:0:
256,192,38270,1,0,0:0:0:0:
256,192,38420,1,8,0:0:0:0:
256,192,38570,1,0,0:0:0:0:
256,192,38720,1,0,0:0:0:0:
256,192,38795,1,0,0:0:0:0:
256,192,38870,1,8,0:0:0:0:
256,192,39020,1,0,0:0:0:0:
256,192,39320,1,0,0:0:0:0:
256,192,39395,1,0,0:0:0:0:
256,192,39470,1,8,0:0:0:0:
256,192,39620,1,0,0:0:0:0:
256,192,39920,1,0,0:0:0:0:
256,192,39995,1,0,0:0:0:0:
256,192,40070,1,8,0:0:0:0:
256,192,40220,1,0,0:0:0:0:
256,192,40370,1,0,0:0:0:0:
256,192,40445,1,0,0:0:0:0:
256,192,40520,1,8,0:0:0:0:
256,192,40670,1,0,0:0:0:0:
256,192,40745,1,0,0:0:0:0:
256,192,40820,1,8,0:0:0:0:
256,192,40895,1,8,0:0:0:0:
256,192,40970,1,0,0:0:0:0:
256,192,41120,1,0,0:0:0:0:
256,192,41195,1,0,0:0:0:0:
256,192,41270,1,8,0:0:0:0:
256,192,41420,1,0,0:0:0:0:
256,192,41570,1,8,0:0:0:0:
256,192,41720,1,0,0:0:0:0:
256,192,41870,1,8,0:0:0:0:
256,192,41945,1,8,0:0:0:0:
256,192,42020,1,0,0:0:0:0:
256,192,42095,1,0,0:0:0:0:
256,192,42170,1,0,0:0:0:0:
256,192,42320,1,0,0:0:0:0:
256,192,42395,1,0,0:0:0:0:
256,192,42470,1,8,0:0:0:0:
256,192,42620,1,0,0:0:0:0:
256,192,42770,1,8,0:0:0:0:
256,192,42920,1,0,0:0:0:0:
256,192,43070,1,8,0:0:0:0:
256,192,43145,1,8,0:0:0:0:
256,192,43220,1,0,0:0:0:0:
256,192,43295,1,0,0:0:0:0:
256,192,43370,1,0,0:0:0:0:
256,192,43520,1,0,0:0:0:0:
256,192,43595,1,0,0:0:0:0:
256,192,43670,1,8,0:0:0:0:
256,192,43820,1,0,0:0:0:0:
256,192,43970,1,8,0:0:0:0:
256,192,44120,1,0,0:0:0:0:
256,192,44270,1,8,0:0:0:0:
256,192,44345,1,8,0:0:0:0:
256,192,44420,1,0,0:0:0:0:
256,192,44495,1,0,0:0:0:0:
256,192,44570,1,0,0:0:0:0:
256,192,44720,1,0,0:0:0:0:
256,192,44795,1,0,0:0:0:0:
256,192,44870,1,8,0:0:0:0:
256,192,45020,1,0,0:0:0:0:
256,192,45170,1,0,0:0:0:0:
256,192,45245,1,0,0:0:0:0:
256,192,45320,1,0,0:0:0:0:
256,192,45395,1,0,0:0:0:0:
256,192,45470,1,8,0:0:0:0:
256,192,45770,1,0,0:0:0:0:
256,192,45845,1,0,0:0:0:0:
256,192,45920,1,0,0:0:0:0:
256,192,46070,1,8,0:0:0:0:
256,192,46220,1,0,0:0:0:0:
256,192,46295,1,0,0:0:0:0:
256,192,46370,1,0,0:0:0:0:
256,192,46520,1,0,0:0:0:0:
256,192,46670,1,8,0:0:0:0:
256,192,46745,1,0,0:0:0:0:
256,192,46820,1,0,0:0:0:0:
256,192,46970,1,0,0:0:0:0:
256,192,47045,1,0,0:0:0:0:
256,192,47120,1,0,0:0:0:0:
256,192,47270,1,8,0:0:0:0:
256,192,47420,1,0,0:0:0:0:
256,192,47495,1,0,0:0:0:0:
256,192,47570,1,8,0:0:0:0:
256,192,47720,1,0,0:0:0:0:
256,192,47795,1,0,0:0:0:0:
256,192,47870,1,8,0:0:0:0:
256,192,48170,1,0,0:0:0:0:
256,192,48320,1,8,0:0:0:0:
256,192,48395,1,8,0:0:0:0:
256,192,48470,1,0,0:0:0:0:
256,192,48620,1,8,0:0:0:0:
256,192,48695,1,8,0:0:0:0:
256,192,48770,1,0,0:0:0:0:
256,192,48920,1,8,0:0:0:0:
256,192,48995,1,8,0:0:0:0:
256,192,49070,1,0,0:0:0:0:
256,192,49145,1,8,0:0:0:0:
256,192,49220,1,8,0:0:0:0:
256,192,49295,1,8,0:0:0:0:
256,192,49370,1,0,0:0:0:0:
256,192,49520,1,8,0:0:0:0:
256,192,49595,1,8,0:0:0:0:
256,192,49670,1,0,0:0:0:0:
256,192,49820,1,8,0:0:0:0:
256,192,49895,1,8,0:0:0:0:
256,192,49970,1,8,0:0:0:0:
256,192,50045,1,8,0:0:0:0:
256,192,50120,1,8,0:0:0:0:
256,192,50195,1,8,0:0:0:0:
256,192,50270,1,0,0:0:0:0:
256,192,50420,1,8,0:0:0:0:
256,192,50495,1,8,0:0:0:0:
256,192,50570,1,0,0:0:0:0:
256,192,50870,1,4,0:0:0:0:
256,192,51170,1,4,0:0:0:0:
256,192,51470,1,12,0:0:0:0:
256,192,51770,1,0,0:0:0:0:
256,192,51920,1,0,0:0:0:0:
256,192,51995,1,0,0:0:0:0:
256,192,52070,1,8,0:0:0:0:
256,192,52220,1,0,0:0:0:0:
256,192,52370,1,8,0:0:0:0:
256,192,52520,1,0,0:0:0:0:
256,192,52670,1,8,0:0:0:0:
256,192,52745,1,8,0:0:0:0:
256,192,52820,1,0,0:0:0:0:
256,192,52970,1,0,0:0:0:0:
256,192,53120,1,0,0:0:0:0:
256,192,53195,1,0,0:0:0:0:
256,192,53270,1,8,0:0:0:0:
256,192,53420,1,0,0:0:0:0:
256,192,53570,1,8,0:0:0:0:
256,192,53720,1,0,0:0:0:0:
256,192,53795,1,0,0:0:0:0:
256,192,53870,1,8,0:0:0:0:
256,192,53945,1,8,0:0:0:0:
256,192,54020,1,0,0:0:0:0:
256,192,54095,1,0,0:0:0:0:
256,192,54170,1,0,0:0:0:0:
256,192,54320,1,0,0:0:0:0:
256,192,54395,1,0,0:0:0:0:
256,192,54470,1,8,0:0:0:0:
256,192,54620,1,0,0:0:0:0:
256,192,54770,1,8,0:0:0:0:
256,192,54920,1,0,0:0:0:0:
256,192,55070,1,8,0:0:0:0:
256,192,55145,1,8,0:0:0:0:
256,192,55220,1,0,0:0:0:0:
256,192,55370,1,0,0:0:0:0:
256,192,55520,1,0,0:0:0:0:
256,192,55595,1,0,0:0:0:0:
256,192,55670,1,8,0:0:0:0:
256,192,55820,1,0,0:0:0:0:
256,192,55970,1,8,0:0:0:0:
256,192,56045,1,8,0:0:0:0:
256,192,56120,1,0,0:0:0:0:
256,192,56270,1,8,0:0:0:0:
256,192,56345,1,8,0:0:0:0:
256,192,56420,1,0,0:0:0:0:
256,192,56570,1,0,0:0:0:0:
256,192,56720,1,0,0:0:0:0:
256,192,56795,1,0,0:0:0:0:
256,192,56870,1,8,0:0:0:0:
256,192,57020,1,0,0:0:0:0:
256,192,57170,1,8,0:0:0:0:
256,192,57320,1,0,0:0:0:0:
256,192,57470,1,8,0:0:0:0:
256,192,57545,1,8,0:0:0:0:
256,192,57620,1,0,0:0:0:0:
256,192,57770,1,0,0:0:0:0:
256,192,57920,1,0,0:0:0:0:
256,192,57995,1,0,0:0:0:0:
256,192,58070,1,8,0:0:0:0:
256,192,58220,1,0,0:0:0:0:
256,192,58370,1,8,0:0:0:0:
256,192,58520,1,0,0:0:0:0:
256,192,58595,1,0,0:0:0:0:
256,192,58670,1,8,0:0:0:0:
256,192,58745,1,8,0:0:0:0:
256,192,58820,1,0,0:0:0:0:
256,192,58895,1,0,0:0:0:0:
256,192,58970,1,0,0:0:0:0:
256,192,59120,1,0,0:0:0:0:
256,192,59195,1,0,0:0:0:0:
256,192,59270,1,8,0:0:0:0:
256,192,59420,1,0,0:0:0:0:
256,192,59570,1,8,0:0:0:0:
256,192,59720,1,0,0:0:0:0:
256,192,59870,1,8,0:0:0:0:
256,192,59945,1,8,0:0:0:0:
256,192,60020,1,0,0:0:0:0:
256,192,60170,1,0,0:0:0:0:
256,192,60320,1,8,0:0:0:0:
256,192,60395,1,8,0:0:0:0:
256,192,60470,1,0,0:0:0:0:
256,192,60545,1,8,0:0:0:0:
256,192,60620,1,8,0:0:0:0:
256,192,60695,1,8,0:0:0:0:
256,192,60770,1,0,0:0:0:0:
256,192,60845,1,8,0:0:0:0:
256,192,60920,1,8,0:0:0:0:
256,192,60995,1,8,0:0:0:0:
256,192,61070,1,0,0:0:0:0:
256,192,61370,8,0,61670,0:0:0:0:
256,192,61820,8,0,62120,0:0:0:0:
256,192,62270,8,0,62570,0:0:0:0:
256,192,62720,8,0,63020,0:0:0:0:
256,192,63170,5,8,0:0:0:0:
256,192,63245,1,8,0:0:0:0:
256,192,63320,1,8,0:0:0:0:
256,192,63395,1,8,0:0:0:0:
256,192,63470,1,0,0:0:0:0:
256,192,63770,8,0,64070,0:0:0:0:
256,192,64220,8,0,64520,0:0:0:0:
256,192,64670,8,0,64970,0:0:0:0:
256,192,65120,8,0,65420,0:0:0:0:
256,192,65570,5,4,0:0:0:0:
256,192,65720,1,4,0:0:0:0:
256,192,65870,1,4,0:0:0:0:
256,192,66170,1,0,0:0:0:0:
256,192,66770,1,8,0:0:0:0:
256,192,67370,1,0,0:0:0:0:
256,192,67670,1,0,0:0:0:0:
256,192,67970,1,8,0:0:0:0:
256,192,68570,1,0,0:0:0:0:
256,192,69020,1,0,0:0:0:0:
256,192,69170,1,8,0:0:0:0:
256,192,69770,1,0,0:0:0:0:
256,192,70070,1,0,0:0:0:0:
256,192,70370,1,8,0:0:0:0:
256,192,70520,1,8,0:0:0:0:
256,192,70670,1,0,0:0:0:0:
256,192,70970,1,0,0:0:0:0:
256,192,71420,1,0,0:0:0:0:
256,192,71570,1,8,0:0:0:0:
256,192,72170,1,0,0:0:0:0:
256,192,72620,1,0,0:0:0:0:
256,192,72770,1,8,0:0:0:0:
256,192,73070,1,0,0:0:0:0:
256,192,73370,1,0,0:0:0:0:
256,192,73820,1,0,0:0:0:0:
256,192,73970,1,8,0:0:0:0:
256,192,74270,1,0,0:0:0:0:
256,192,74570,1,0,0:0:0:0:
256,192,74720,1,0,0:0:0:0:
256,192,74870,1,8,0:0:0:0:
256,192,75170,1,0,0:0:0:0:
256,192,75320,1,0,0:0:0:0:
256,192,75470,1,8,0:0:0:0:
256,192,75770,1,0,0:0:0:0:
256,192,76070,1,8,0:0:0:0:
256,192,76370,1,0,0:0:0:0:
256,192,76520,1,0,0:0:0:0:
256,192,76670,1,8,0:0:0:0:
256,192,76970,1,0,0:0:0:0:
256,192,77270,1,8,0:0:0:0:
256,192,77570,1,0,0:0:0:0:
256,192,77720,1,0,0:0:0:0:
256,192,77870,1,8,0:0:0:0:
256,192,78170,1,0,0:0:0:0:
256,192,78470,1,8,0:0:0:0:
256,192,78770,1,0,0:0:0:0:
256,192,78920,1,0,0:0:0:0:
256,192,79070,1,8,0:0:0:0:
256,192,79370,1,0,0:0:0:0:
256,192,79520,1,0,0:0:0:0:
256,192,79670,1,8,0:0:0:0:
256,192,79970,1,0,0:0:0:0:
256,192,80120,1,0,0:0:0:0:
256,192,80270,1,8,0:0:0:0:
256,192,80420,1,8,0:0:0:0:
256,192,80570,1,0,0:0:0:0:
256,192,80870,1,8,0:0:0:0:
256,192,81020,1,8,0:0:0:0:
256,192,81095,1,8,0:0:0:0:
256,192,81170,1,0,0:0:0:0:
256,192,81470,1,8,0:0:0:0:
256,192,81620,1,8,0:0:0:0:
256,192,81695,1,8,0:0:0:0:
256,192,81770,1,0,0:0:0:0:
256,192,82070,1,8,0:0:0:0:
256,192,82220,1,8,0:0:0:0:
256,192,82295,1,8,0:0:0:0:
256,192,82370,1,0,0:0:0:0:
256,192,82670,1,8,0:0:0:0:
256,192,82820,1,8,0:0:0:0:
256,192,82895,1,8,0:0:0:0:
256,192,82970,1,0,0:0:0:0:
256,192,83120,1,0,0:0:0:0:
256,192,83270,1,8,0:0:0:0:
256,192,83420,1,8,0:0:0:0:
256,192,83570,1,0,0:0:0:0:
256,192,83720,1,0,0:0:0:0:
256,192,83870,1,8,0:0:0:0:
256,192,84020,1,8,0:0:0:0:
256,192,84170,1,0,0:0:0:0:
256,192,84320,1,8,0:0:0:0:
256,192,84470,1,0,0:0:0:0:
256,192,84620,1,8,0:0:0:0:
256,192,84695,1,8,0:0:0:0:
256,192,84770,1,0,0:0:0:0:
256,192,84920,1,8,0:0:0:0:
256,192,85070,1,0,0:0:0:0:
256,192,85220,1,8,0:0:0:0:
256,192,85295,1,8,0:0:0:0:
256,192,85370,1,0,0:0:0:0:
256,192,85520,1,8,0:0:0:0:
256,192,85670,1,0,0:0:0:0:
256,192,85820,1,8,0:0:0:0:
256,192,85895,1,8,0:0:0:0:
256,192,85970,1,0,0:0:0:0:
256,192,86120,1,8,0:0:0:0:
256,192,86270,1,0,0:0:0:0:
256,192,86420,1,8,0:0:0:0:
256,192,86495,1,8,0:0:0:0:
256,192,86570,1,0,0:0:0:0:
256,192,86720,1,8,0:0:0:0:
256,192,86870,1,0,0:0:0:0:
256,192,87020,1,8,0:0:0:0:
256,192,87095,1,8,0:0:0:0:
256,192,87170,1,0,0:0:0:0:
256,192,87320,1,8,0:0:0:0:
256,192,87470,1,0,0:0:0:0:
256,192,87620,1,8,0:0:0:0:
256,192,87695,1,8,0:0:0:0:
256,192,87770,1,0,0:0:0:0:
256,192,87920,1,8,0:0:0:0:
256,192,87995,1,8,0:0:0:0:
256,192,88070,1,0,0:0:0:0:
256,192,88145,1,0,0:0:0:0:
256,192,88220,1,8,0:0:0:0:
256,192,88295,1,8,0:0:0:0:
256,192,88370,1,0,0:0:0:0:
256,192,88445,1,0,0:0:0:0:
256,192,88520,1,8,0:0:0:0:
256,192,88595,1,8,0:0:0:0:
256,192,88670,1,0,0:0:0:0:
256,192,88970,1,4,0:0:0:0:
256,192,89270,1,4,0:0:0:0:
256,192,89570,1,12,0:0:0:0:
256,192,90170,1,0,0:0:0:0:
256,192,90320,1,0,0:0:0:0:
256,192,90395,1,0,0:0:0:0:
256,192,90470,1,8,0:0:0:0:
256,192,90620,1,0,0:0:0:0:
256,192,90920,1,0,0:0:0:0:
256,192,90995,1,0,0:0:0:0:
256,192,91070,1,8,0:0:0:0:
256,192,91145,1,8,0:0:0:0:
256,192,91220,1,0,0:0:0:0:
256,192,91370,1,0,0:0:0:0:
256,192,91520,1,0,0:0:0:0:
256,192,91595,1,0,0:0:0:0:
256,192,91670,1,8,0:0:0:0:
256,192,91820,1,0,0:0:0:0:
256,192,92120,1,0,0:0:0:0:
256,192,92195,1,0,0:0:0:0:
256,192,92270,1,8,0:0:0:0:
256,192,92345,1,8,0:0:0:0:
256,192,92420,1,0,0:0:0:0:
256,192,92570,1,0,0:0:0:0:
256,192,92720,1,0,0:0:0:0:
256,192,92795,1,0,0:0:0:0:
256,192,92870,1,8,0:0:0:0:
256,192,93020,1,0,0:0:0:0:
256,192,93320,1,8,0:0:0:0:
256,192,93395,1,8,0:0:0:0:
256,192,93470,1,0,0:0:0:0:
256,192,93545,1,0,0:0:0:0:
256,192,93620,1,8,0:0:0:0:
256,192,93695,1,8,0:0:0:0:
256,192,93770,1,0,0:0:0:0:
256,192,93920,1,0,0:0:0:0:
256,192,93995,1,0,0:0:0:0:
256,192,94070,1,8,0:0:0:0:
256,192,94220,1,0,0:0:0:0:
256,192,94370,1,8,0:0:0:0:
256,192,94445,1,8,0:0:0:0:
256,192,94520,1,0,0:0:0:0:
256,192,94670,1,0,0:0:0:0:
256,192,94820,1,8,0:0:0:0:
256,192,94895,1,8,0:0:0:0:
256,192,94970,1,0,0:0:0:0:
256,192,95120,1,0,0:0:0:0:
256,192,95195,1,0,0:0:0:0:
256,192,95270,1,8,0:0:0:0:
256,192,95420,1,0,0:0:0:0:
256,192,95720,1,0,0:0:0:0:
256,192,95795,1,0,0:0:0:0:
256,192,95870,1,8,0:0:0:0:
256,192,95945,1,8,0:0:0:0:
256,192,96020,1,0,0:0:0:0:
256,192,96170,1,0,0:0:0:0:
256,192,96320,1,8,0:0:0:0:
256,192,96395,1,8,0:0:0:0:
256,192,96470,1,0,0:0:0:0:
256,192,96620,1,8,0:0:0:0:
256,192,96770,1,0,0:0:0:0:
256,192,96920,1,8,0:0:0:0:
256,192,96995,1,8,0:0:0:0:
256,192,97070,1,0,0:0:0:0:
256,192,97220,1,8,0:0:0:0:
256,192,97370,1,0,0:0:0:0:
256,192,97520,1,0,0:0:0:0:
256,192,97595,1,0,0:0:0:0:
256,192,97670,1,8,0:0:0:0:
256,192,97820,1,0,0:0:0:0:
256,192,98120,1,0,0:0:0:0:
256,192,98195,1,0,0:0:0:0:
256,192,98270,1,8,0:0:0:0:
256,192,98420,1,0,0:0:0:0:
256,192,98720,1,0,0:0:0:0:
256,192,98795,1,0,0:0:0:0:
256,192,98870,1,8,0:0:0:0:
256,192,99020,1,0,0:0:0:0:
256,192,99170,1,0,0:0:0:0:
256,192,99245,1,0,0:0:0:0:
256,192,99320,1,8,0:0:0:0:
256,192,99470,1,0,0:0:0:0:
256,192,99545,1,0,0:0:0:0:
256,192,99620,1,8,0:0:0:0:
256,192,99695,1,8,0:0:0:0:
256,192,99770,1,0,0:0:0:0:
256,192,99920,1,0,0:0:0:0:
256,192,99995,1,0,0:0:0:0:
256,192,100070,1,8,0:0:0:0:
256,192,100145,1,8,0:0:0:0:
256,192,100220,1,0,0:0:0:0:
256,192,100370,1,8,0:0:0:0:
256,192,100520,1,0,0:0:0:0:
256,192,100670,1,8,0:0:0:0:
256,192,100745,1,8,0:0:0:0:
256,192,100820,1,0,0:0:0:0:
256,192,100895,1,0,0:0:0:0:
256,192,100970,1,0,0:0:0:0:
256,192,101120,1,0,0:0:0:0:
256,192,101195,1,0,0:0:0:0:
256,192,101270,1,8,0:0:0:0:
256,192,101345,1,8,0:0:0:0:
256,192,101420,1,0,0:0:0:0:
256,192,101570,1,8,0:0:0:0:
256,192,101720,1,0,0:0:0:0:
256,192,101870,1,8,0:0:0:0:
256,192,101945,1,8,0:0:0:0:
256,192,102020,1,0,0:0:0:0:
256,192,102095,1,0,0:0:0:0:
256,192,102170,1,0,0:0:0:0:
256,192,102320,1,0,0:0:0:0:
256,192,102395,1,0,0:0:0:0:
256,192,102470,1,8,0:0:0:0:
256,192,102545,1,8,0:0:0:0:
256,192,102620,1,0,0:0:0:0:
256,192,102770,1,8,0:0:0:0:
256,192,102920,1,0,0:0:0:0:
256,192,103070,1,8,0:0:0:0:
256,192,103145,1,8,0:0:0:0:
256,192,103220,1,0,0:0:0:0:
256,192,103295,1,0,0:0:0:0:
256,192,103370,1,0,0:0:0:0:
256,192,103520,1,0,0:0:0:0:
256,192,103595,1,0,0:0:0:0:
256,192,103670,1,8,0:0:0:0:
256,192,103745,1,8,0:0:0:0:
256,192,103820,1,0,0:0:0:0:
256,192,103970,1,0,0:0:0:0:
256,192,104045,1,0,0:0:0:0:
256,192,104120,1,0,0:0:0:0:
256,192,104270,1,8,0:0:0:0:
256,192,104570,1,0,0:0:0:0:
256,192,104645,1,0,0:0:0:0:
256,192,104720,1,0,0:0:0:0:
256,192,104870,1,8,0:0:0:0:
256,192,105020,1,0,0:0:0:0:
256,192,105095,1,0,0:0:0:0:
256,192,105170,1,0,0:0:0:0:
256,192,105320,1,0,0:0:0:0:
256,192,105470,1,8,0:0:0:0:
256,192,105545,1,0,0:0:0:0:
256,192,105620,1,0,0:0:0:0:
256,192,105770,1,0,0:0:0:0:
256,192,105845,1,0,0:0:0:0:
256,192,105920,1,0,0:0:0:0:
256,192,106070,1,8,0:0:0:0:
256,192,106220,1,0,0:0:0:0:
256,192,106295,1,0,0:0:0:0:
256,192,106370,1,8,0:0:0:0:
256,192,106520,1,0,0:0:0:0:
256,192,106595,1,0,0:0:0:0:
256,192,106670,1,8,0:0:0:0:
256,192,106970,1,0,0:0:0:0:
256,192,107120,1,8,0:0:0:0:
256,192,107195,1,8,0:0:0:0:
256,192,107270,1,0,0:0:0:0:
256,192,107420,1,8,0:0:0:0:
256,192,107495,1,8,0:0:0:0:
256,192,107570,1,0,0:0:0:0:
256,192,107720,1,8,0:0:0:0:
256,192,107795,1,8,0:0:0:0:
256,192,107870,1,0,0:0:0:0:
256,192,107945,1,8,0:0:0:0:
256,192,108020,1,8,0:0:0:0:
256,192,108095,1,8,0:0:0:0:
256,192,108170,1,0,0:0:0:0:
256,192,108320,1,8,0:0:0:0:
256,192,108395,1,8,0:0:0:0:
256,192,108470,1,0,0:0:0:0:
256,192,108620,1,8,0:0:0:0:
256,192,108695,1,8,0:0:0:0:
256,192,108770,1,8,0:0:0:0:
256,192,108845,1,8,0:0:0:0:
256,192,108920,1,8,0:0:0:0:
256,192,108995,1,8,0:0:0:0:
256,192,109070,1,0,0:0:0:0:
256,192,109220,1,8,0:0:0:0:
256,192,109295,1,8,0:0:0:0:
256,192,109370,1,0,0:0:0:0:
256,192,109670,1,4,0:0:0:0:
256,192,109970,1,4,0:0:0:0:
256,192,110270,1,12,0:0:0:0:
256,192,110570,1,0,0:0:0:0:
256,192,110720,1,0,0:0:0:0:
256,192,110795,1,0,0:0:0:0:
256,192,110870,1,8,0:0:0:0:
256,192,111020,1,0,0:0:0:0:
256,192,111170,1,8,0:0:0:0:
256,192,111320,1,0,0:0:0:0:
256,192,111470,1,8,0:0:0:0:
256,192,111545,1,8,0:0:0:0:
256,192,111620,1,0,0:0:0:0:
256,192,111770,1,0,0:0:0:0:
256,192,111920,1,0,0:0:0:0:
256,192,111995,1,0,0:0:0:0:
256,192,112070,1,8,0:0:0:0:
256,192,112220,1,0,0:0:0:0:
256,192,112370,1,8,0:0:0:0:
256,192,112520,1,0,0:0:0:0:
256,192,112595,1,0,0:0:0:0:
256,192,112670,1,8,0:0:0:0:
256,192,112745,1,8,0:0:0:0:
256,192,112820,1,0,0:0:0:0:
256,192,112895,1,0,0:0:0:0:
256,192,112970,1,0,0:0:0:0:
256,192,113120,1,0,0:0:0:0:
256,192,113195,1,0,0:0:0:0:
256,192,113270,1,8,0:0:0:0:
256,192,113420,1,0,0:0:0:0:
256,192,113570,1,8,0:0:0:0:
256,192,113720,1,0,0:0:0:0:
256,192,113870,1,8,0:0:0:0:
256,192,113945,1,8,0:0:0:0:
256,192,114020,1,0,0:0:0:0:
256,192,114170,1,0,0:0:0:0:
256,192,114320,1,0,0:0:0:0:
256,192,114395,1,0,0:0:0:0:
256,192,114470,1,8,0:0:0:0:
256,192,114620,1,0,0:0:0:0:
256,192,114770,1,8,0:0:0:0:
256,192,114845,1,8,0:0:0:0:
256,192,114920,1,0,0:0:0:0:
256,192,115070,1,8,0:0:0:0:
256,192,115145,1,8,0:0:0:0:
256,192,115220,1,0,0:0:0:0:
256,192,115370,1,0,0:0:0:0:
256,192,115520,1,0,0:0:0:0:
256,192,115595,1,0,0:0:0:0:
256,192,115670,1,8,0:0:0:0:
256,192,115820,1,0,0:0:0:0:
256,192,115970,1,8,0:0:0:0:
256,192,116120,1,0,0:0:0:0:
256,192,116270,1,8,0:0:0:0:
256,192,116345,1,8,0:0:0:0:
256,192,116420,1,0,0:0:0:0:
256,192,116570,1,0,0:0:0:0:
256,192,116720,1,0,0:0:0:0:
256,192,116795,1,0,0:0:0:0:
256,192,116870,1,8,0:0:0:0:
256,192,117020,1,0,0:0:0:0:
256,192,117170,1,8,0:0:0:0:
256,192,117320,1,0,0:0:0:0:
256,192,117395,1,0,0:0:0:0:
256,192,117470,1,8,0:0:0:0:
256,192,117545,1,8,0:0:0:0:
256,192,117620,1,0,0:0:0:0:
256,192,117695,1,0,0:0:0:0:
256,192,117770,1,0,0:0:0:0:
256,192,117920,1,0,0:0:0:0:
256,192,117995,1,0,0:0:0:0:
256,192,118070,1,8,0:0:0:0:
256,192,118220,1,0,0:0:0:0:
256,192,118370,1,8,0:0:0:0:
256,192,118520,1,0,0:0:0:0:
256,192,118670,1,8,0:0:0:0:
256,192,118745,1,8,0:0:0:0:
256,192,118820,1,0,0:0:0:0:
256,192,118970,1,0,0:0:0:0:
256,192,119045,1,8,0:0:0:0:
256,192,119120,1,8,0:0:0:0:
256,192,119195,1,8,0:0:0:0:
256,192,119270,1,0,0:0:0:0:
256,192,119345,1,8,0:0:0:0:
256,192,119420,1,8,0:0:0:0:
256,192,119495,1,8,0:0:0:0:
256,192,119570,1,0,0:0:0:0:
256,192,119720,1,0,0:0:0:0:
256,192,119795,1,0,0:0:0:0:
256,192,119870,1,8,0:0:0:0:
256,192,120170,1,0,0:0:0:0:
256,192,120320,1,0,0:0:0:0:
256,192,120395,1,0,0:0:0:0:
256,192,120470,1,8,0:0:0:0:
256,192,120620,1,0,0:0:0:0:
256,192,120770,1,8,0:0:0:0:
256,192,120845,1,0,0:0:0:0:
256,192,120920,1,0,0:0:0:0:
256,192,120995,1,0,0:0:0:0:
256,192,121070,1,8,0:0:0:0:
256,192,121220,1,0,0:0:0:0:
256,192,121370,1,0,0:0:0:0:
256,192,121520,1,12,0:0:0:0:
256,192,121670,1,12,0:0:0:0:
256,192,121820,1,12,0:0:0:0:
256,192,121970,1,4,0:0:0:0:
256,192,122120,1,12,0:0:0:0:
256,192,122270,1,4,0:0:0:0:
256,192,122420,1,12,0:0:0:0:
256,192,122570,1,0,0:0:0:0:
256,192,122720,1,0,0:0:0:0:
256,192,122795,1,0,0:0:0:0:
256,192,122870,1,8,0:0:0:0:
256,192,123020,1,0,0:0:0:0:
256,192,123095,1,0,0:0:0:0:
256,192,123170,1,8,0:0:0:0:
256,192,123245,1,0,0:0:0:0:
256,192,123320,1,0,0:0:0:0:
256,192,123470,1,8,0:0:0:0:
256,192,123545,1,0,0:0:0:0:
256,192,123620,1,0,0:0:0:0:
256,192,123695,1,0,0:0:0:0:
256,192,123770,1,0,0:0:0:0:
256,192,123920,1,12,0:0:0:0:
256,192,124070,1,12,0:0:0:0:
256,192,124220,1,12,0:0:0:0:
256,192,124370,1,4,0:0:0:0:
256,192,124520,1,12,0:0:0:0:
256,192,124670,1,4,0:0:0:0:
256,192,124820,1,12,0:0:0:0:
256,192,124970,1,0,0:0:0:0:
256,192,125120,1,0,0:0:0:0:
256,192,125195,1,0,0:0:0:0:
256,192,125270,1,8,0:0:0:0:
256,192,125420,1,0,0:0:0:0:
256,192,125570,1,8,0:0:0:0:
256,192,125645,1,0,0:0:0:0:
256,192,125720,1,0,0:0:0:0:
256,192,125795,1,0,0:0:0:0:
256,192,125870,1,8,0:0:0:0:
256,192,126020,1,0,0:0:0:0:
256,192,126170,1,0,0:0:0:0:
256,192,126320,1,12,0:0:0:0:
256,192,126470,1,12,0:0:0:0:
256,192,126620,1,12,0:0:0:0:
256,192,126770,1,4,0:0:0:0:
256,192,126920,1,12,0:0:0:0:
256,192,127070,1,4,0:0:0:0:
256,192,127220,1,12,0:0:0:0:
256,192,127370,1,0,0:0:0:0:
256,192,127520,1,0,0:0:0:0:
256,192,127595,1,0,0:0:0:0:
256,192,127670,1,8,0:0:0:0:
256,192,127820,1,0,0:0:0:0:
256,192,127895,1,0,0:0:0:0:
256,192,127970,1,8,0:0:0:0:
256,192,128045,1,0,0:0:0:0:
256,192,128120,1,0,0:0:0:0:
256,192,128270,1,8,0:0:0:0:
256,192,128345,1,0,0:0:0:0:
256,192,128420,1,0,0:0:0:0:
256,192,128495,1,0,0:0:0:0:
256,192,128570,1,0,0:0:0:0:
256,192,128720,1,8,0:0:0:0:
256,192,128795,1,8,0:0:0:0:
256,192,128870,1,0,0:0:0:0:
256,192,129020,1,8,0:0:0:0:
256,192,129095,1,8,0:0:0:0:
256,192,129170,1,0,0:0:0:0:
256,192,129320,1,0,0:0:0:0:
256,192,129395,1,0,0:0:0:0:
256,192,129470,1,8,0:0:0:0:
256,192,129770,1,12,0:0:0:0:
256,192,129920,1,0,0:0:0:0:
256,192,130070,1,0,0:0:0:0:
256,192,130220,1,12,0:0:0:0:
256,192,130370,1,0,0:0:0:0:
256,192,130520,1,0,0:0:0:0:
256,192,130670,1,12,0:0:0:0:
256,192,130820,1,0,0:0:0:0:
256,192,130970,1,0,0:0:0:0:
256,192,131120,1,12,0:0:0:0:
256,192,131270,1,0,0:0:0:0:
256,192,131420,1,0,0:0:0:0:
256,192,131570,1,8,0:0:0:0:
256,192,131645,1,8,0:0:0:0:
256,192,131720,1,8,0:0:0:0:
256,192,131795,1,8,0:0:0:0:
256,192,131870,1,0,0:0:0:0:
256,192,132170,1,12,0:0:0:0:
256,192,132320,1,0,0:0:0:0:
256,192,132470,1,0,0:0:0:0:
256,192,132620,1,12,0:0:0:0:
256,192,132770,1,0,0:0:0:0:
256,192,132920,1,0,0:0:0:0:
256,192,133070,1,12,0:0:0:0:
256,192,133220,1,0,0:0:0:0:
256,192,133370,1,0,0:0:0:0:
256,192,133520,1,12,0:0:0:0:
256,192,133670,1,0,0:0:0:0:
256,192,133820,1,0,0:0:0:0:
256,192,133970,1,12,0:0:0:0:
256,192,134120,1,12,0:0:0:0:
256,192,134270,1,12,0:0:0:0:
256,192,134570,1,0,0:0:0:0:
256,192,134720,1,8,0:0:0:0:
256,192,134795,1,8,0:0:0:0:
256,192,134870,1,0,0:0:0:0:
256,192,135020,1,8,0:0:0:0:
256,192,135170,1,0,0:0:0:0:
256,192,135320,1,8,0:0:0:0:
256,192,135395,1,8,0:0:0:0:
256,192,135470,1,0,0:0:0:0:
256,192,135620,1,8,0:0:0:0:
256,192,135695,1,8,0:0:0:0:
256,192,135770,1,0,0:0:0:0:
256,192,135845,1,0,0:0:0:0:
256,192,135920,1,8,0:0:0:0:
256,192,135995,1,8,0:0:0:0:
256,192,136070,1,0,0:0:0:0:
256,192,136145,1,0,0:0:0:0:
256,192,136220,1,8,0:0:0:0:
256,192,136295,1,8,0:0:0:0:
256,192,136370,1,0,0:0:0:0:
256,192,136445,1,0,0:0:0:0:
256,192,136520,1,8,0:0:0:0:
256,192,136595,1,8,0:0:0:0:
256,192,136670,1,0,0:0:0:0:
256,192,136745,1,0,0:0:0:0:
256,192,136820,1,8,0:0:0:0:
256,192,136895,1,8,0:0:0:0:
256,192,136970,1,0,0:0:0:0:
256,192,137120,1,8,0:0:0:0:
256,192,137195,1,8,0:0:0:0:
256,192,137270,1,0,0:0:0:0:
256,192,137420,1,8,0:0:0:0:
256,192,137570,1,0,0:0:0:0:
256,192,137720,1,8,0:0:0:0:
256,192,137795,1,8,0:0:0:0:
256,192,137870,1,0,0:0:0:0:
256,192,138020,1,8,0:0:0:0:
256,192,138095,1,8,0:0:0:0:
256,192,138170,1,0,0:0:0:0:
256,192,138245,1,0,0:0:0:0:
256,192,138320,1,8,0:0:0:0:
256,192,138395,1,8,0:0:0:0:
256,192,138470,1,0,0:0:0:0:
256,192,138545,1,0,0:0:0:0:
256,192,138620,1,8,0:0:0:0:
256,192,138695,1,8,0:0:0:0:
256,192,138770,1,0,0:0:0:0:
256,192,138845,1,0,0:0:0:0:
256,192,138920,1,8,0:0:0:0:
256,192,138995,1,8,0:0:0:0:
256,192,139070,1,0,0:0:0:0:
256,192,139145,1,0,0:0:0:0:
256,192,139220,1,8,0:0:0:0:
256,192,139295,1,8,0:0:0:0:
256,192,139370,1,0,0:0:0:0:
256,192,139520,1,8,0:0:0:0:
256,192,139595,1,8,0:0:0:0:
256,192,139670,1,0,0:0:0:0:
256,192,139820,1,8,0:0:0:0:
256,192,139970,1,0,0:0:0:0:
256,192,140120,1,8,0:0:0:0:
256,192,140195,1,8,0:0:0:0:
256,192,140270,1,0,0:0:0:0:
256,192,140420,1,8,0:0:0:0:
256,192,140495,1,8,0:0:0:0:
256,192,140570,1,0,0:0:0:0:
256,192,140645,1,0,0:0:0:0:
256,192,140720,1,8,0:0:0:0:
256,192,140795,1,8,0:0:0:0:
256,192,140870,1,0,0:0:0:0:
256,192,140945,1,0,0:0:0:0:
256,192,141020,1,8,0:0:0:0:
256,192,141095,1,8,0:0:0:0:
256,192,141170,1,0,0:0:0:0:
256,192,141245,1,0,0:0:0:0:
256,192,141320,1,8,0:0:0:0:
256,192,141395,1,8,0:0:0:0:
256,192,141470,1,0,0:0:0:0:
256,192,141545,1,0,0:0:0:0:
256,192,141620,1,8,0:0:0:0:
256,192,141695,1,8,0:0:0:0:
256,192,141770,1,0,0:0:0:0:
256,192,141920,1,8,0:0:0:0:
256,192,141995,1,8,0:0:0:0:
256,192,142070,1,0,0:0:0:0:
256,192,142220,1,8,0:0:0:0:
256,192,142370,1,0,0:0:0:0:
256,192,142520,1,8,0:0:0:0:
256,192,142595,1,8,0:0:0:0:
256,192,142670,1,0,0:0:0:0:
256,192,142820,1,8,0:0:0:0:
256,192,142895,1,8,0:0:0:0:
256,192,142970,1,0,0:0:0:0:
256,192,143045,1,0,0:0:0:0:
256,192,143195,1,0,0:0:0:0:
256,192,143270,1,8,0:0:0:0:
256,192,143345,1,8,0:0:0:0:
256,192,143420,1,0,0:0:0:0:
256,192,143495,1,0,0:0:0:0:
256,192,143570,1,8,0:0:0:0:
256,192,143645,1,8,0:0:0:0:
256,192,143720,1,0,0:0:0:0:
256,192,143795,1,0,0:0:0:0:
256,192,143870,1,0,0:0:0:0:
256,192,144170,1,12,0:0:0:0:
256,192,144320,1,0,0:0:0:0:
256,192,144470,1,0,0:0:0:0:
256,192,144620,1,12,0:0:0:0:
256,192,144770,1,0,0:0:0:0:
256,192,144920,1,0,0:0:0:0:
256,192,145070,1,12,0:0:0:0:
256,192,145220,1,0,0:0:0:0:
256,192,145370,1,0,0:0:0:0:
256,192,145520,1,12,0:0:0:0:
256,192,145670,1,0,0:0:0:0:
256,192,145820,1,0,0:0:0:0:
256,192,145970,1,12,0:0:0:0:
256,192,146120,1,12,0:0:0:0:
256,192,146270,1,12,0:0:0:0:
256,192,146420,1,12,0:0:0:0:
