osu file format v14

[General]
AudioFilename: Yami.mp3
AudioLeadIn: 1500
PreviewTime: 51695
Countdown: 0
SampleSet: None
StackLeniency: 0.7
Mode: 0
LetterboxInBreaks: 0
WidescreenStoryboard: 1

[Editor]
DistanceSpacing: 1.2
BeatDivisor: 2
GridSize: 4
TimelineZoom: 1

[Metadata]
Title:Yami no Mahou Shoujo
TitleUnicode:闇の魔法少女
Artist:Silver Forest feat.Aki
ArtistUnicode:Silver Forest feat.アキ
Creator:-Maruk-
Version:Medium
Source:太鼓の達人
Tags:Taiko no Tatsujin Namco Original Kanzaki Ranko
BeatmapID:1134546
BeatmapSetID:339091

[Difficulty]
HPDrainRate:4
CircleSize:3
OverallDifficulty:4
ApproachRate:6
SliderMultiplier:1.2
SliderTickRate:1

[Events]
//Background and Video events
0,0,"BG.jpg",0,0
//Break Periods
2,66370,74570
//Storyboard Layer 0 (Background)
//Storyboard Layer 1 (Fail)
//Storyboard Layer 2 (Pass)
//Storyboard Layer 3 (Foreground)
//Storyboard Sound Samples

[TimingPoints]
170,300,4,1,1,60,1,0
2570,-100,4,1,1,60,0,1
12170,-100,4,1,1,50,0,0
51470,-100,4,2,2,70,0,0
51770,-100,4,2,2,80,0,1
51845,-100,4,1,1,60,0,1
61370,-100,4,1,1,70,0,0
75770,-100,4,1,1,50,0,0
89870,-100,4,2,2,80,0,0
90170,-100,4,1,1,50,0,0
110270,-100,4,2,2,80,0,0
110570,-100,4,2,2,80,0,1
110645,-100,4,1,1,50,0,1
129770,-100,4,1,1,70,0,0
134570,-100,4,2,2,80,0,1
134645,-100,4,1,1,50,0,1
136970,-100,4,2,2,80,0,1
137045,-100,4,1,1,50,0,1
139370,-100,4,2,2,80,0,1
139445,-100,4,1,1,50,0,1
141770,-100,4,2,2,80,0,1
141845,-100,4,1,1,50,0,1
144170,-100,4,1,1,70,0,0
146420,-100,4,2,2,60,0,0

[Colours]
Combo1 : 128,255,255
Combo2 : 255,128,128
Combo3 : 255,255,128
Combo4 : 128,255,128

[HitObjects]
40,224,170,6,0,P|16:172|24:100,1,120,4|0,0:0|0:0,0:0:0:0:
56,48,620,2,0,P|108:68|180:68,1,120,4|0,0:0|0:0,0:0:0:0:
228,24,1070,2,0,P|287:24|343:45,1,120,4|0,0:0|0:0,0:0:0:0:
404,84,1520,2,0,P|398:142|361:189,1,120,4|0,0:0|0:0,0:0:0:0:
308,236,1970,2,0,P|313:294|350:341,1,120,4|0,0:0|0:0,0:0:0:0:
496,340,2570,6,0,P|490:281|453:234,1,120,4|8,0:0|0:0,0:0:0:0:
332,157,3170,1,0,0:0:0:0:
210,234,3470,2,0,P|186:186|194:110,1,120,8|0,0:0|0:0,0:0:0:0:
311,44,4070,2,0,P|335:92|327:168,1,120,4|4,0:0|0:0,0:0:0:0:
284,292,4670,1,4,0:0:0:0:
156,360,4970,6,0,P|100:352|56:308,1,120,4|8,0:0|0:0,0:0:0:0:
28,168,5570,1,0,0:0:0:0:
168,128,5870,2,0,P|188:80|179:0,1,120,8|0,0:0|0:0,0:0:0:0:
44,53,6470,2,0,P|22:108|27:167,1,120,4|4,0:0|0:0,0:0:0:0:
120,276,7070,1,4,0:0:0:0:
236,188,7370,6,0,P|300:196|348:236,1,120,4|8,0:0|0:0,0:0:0:0:
396,364,7970,1,0,0:0:0:0:
488,252,8270,2,0,P|500:192|488:128,1,120,8|0,0:0|0:0,0:0:0:0:
360,71,8870,2,0,P|348:130|357:189,1,120,4|4,0:0|0:0,0:0:0:0:
488,252,9470,1,4,0:0:0:0:
384,352,9770,6,0,P|320:352|252:316,1,120,4|8,0:0|0:0,0:0:0:0:
184,212,10370,1,0,0:0:0:0:
148,72,10670,2,0,P|88:72|20:100,1,120,8|0,0:0|0:0,0:0:0:0:
112,212,11270,2,0,P|172:212|240:184,1,120,4|4,0:0|0:0,0:0:0:0:
324,84,11870,1,4,0:0:0:0:
436,172,12170,6,0,P|464:112|460:36,1,120,4|8,0:0|0:0,0:0:0:0:
324,84,12770,2,0,P|297:137|294:196,1,120,0|8,0:0|0:0,0:0:0:0:
320,264,13220,2,0,P|378:273|444:256,1,120
484,204,13670,2,0,P|488:260|468:324,1,120,8|0,0:0|0:0,0:0:0:0:
332,368,14270,1,8,0:0:0:0:
204,300,14570,6,0,P|144:296|80:320,1,120,0|8,0:0|0:0,0:0:0:0:
20,188,15170,2,0,P|24:124|48:68,1,120,0|8,0:0|0:0,0:0:0:0:
164,156,15770,2,0,P|224:160|288:136,1,120,0|8,0:0|0:0,0:0:0:0:
360,20,16370,2,0,P|420:40|456:88,1,120,0|2,0:0|0:0,0:0:0:0:
396,216,16970,6,0,P|400:280|432:340,1,120,0|8,0:0|0:0,0:0:0:0:
284,368,17570,2,0,P|280:304|248:244,1,120,0|8,0:0|0:0,0:0:0:0:
212,196,18020,2,0,P|152:204|92:244,1,120
52,288,18470,2,0,P|36:236|40:160,1,120,8|0,0:0|0:0,0:0:0:0:
128,60,19070,1,8,0:0:0:0:
220,172,19370,6,0,P|276:164|336:120,1,120,0|8,0:0|0:0,0:0:0:0:
428,28,19970,2,0,P|460:80|464:144,1,120,0|8,0:0|0:0,0:0:0:0:
364,240,20570,2,0,P|360:300|374:359,1,120,0|8,0:0|0:0,0:0:0:0:
500,288,21170,2,0,P|504:228|489:168,1,120,0|2,0:0|0:0,0:0:0:0:
364,240,21770,6,0,P|296:236|248:208,1,120,0|8,0:0|0:0,0:0:0:0:
168,92,22370,2,0,P|100:96|52:124,1,120,0|8,0:0|0:0,0:0:0:0:
16,180,22820,2,0,P|16:240|44:296,1,120
108,268,23270,2,0,P|168:264|232:280,1,120,8|0,0:0|0:0,0:0:0:0:
336,368,23870,1,8,0:0:0:0:
476,328,24170,6,0,P|500:268|496:212,1,120,0|8,0:0|0:0,0:0:0:0:
452,76,24770,2,0,P|392:80|328:44,1,120,0|8,0:0|0:0,0:0:0:0:
260,176,25370,2,0,P|206:150|147:154,1,120,0|8,0:0|0:0,0:0:0:0:
88,196,25820,1,0,0:0:0:0:
28,236,25970,2,0,P|8:184|20:100,1,120,0|8,0:0|0:0,0:0:0:0:
40,56,26420,1,0,0:0:0:0:
104,20,26570,6,0,P|156:16|224:36,1,120,0|8,0:0|0:0,0:0:0:0:
260,176,27170,2,0,P|265:242|272:304,1,120,0|8,0:0|0:0,0:0:0:0:
336,268,27620,2,0,P|404:280|460:320,1,120
496,360,28070,2,0,L|500:228,1,120,8|0,0:0|0:0,0:0:0:0:
476,100,28670,1,8,0:0:0:0:
348,168,28970,6,0,P|280:168|232:132,1,120,0|8,0:0|0:0,0:0:0:0:
152,24,29570,2,0,P|84:48|44:88,1,120,0|8,0:0|0:0,0:0:0:0:
16,220,30170,2,0,P|16:288|48:344,1,120,0|8,0:0|0:0,0:0:0:0:
160,252,30770,2,0,P|208:252|276:288,1,120,0|8,0:0|0:0,0:0:0:0:
380,380,31370,6,0,P|456:352|432:208,1,240,4|0,0:0|0:0,0:0:0:0:
420,148,32120,2,0,L|432:72,1,60,0|8,0:0|0:0,0:0:0:0:
300,28,32570,2,0,L|312:104,1,60
320,232,33020,2,0,P|262:243|192:212,1,120
160,168,33470,1,8,0:0:0:0:
96,40,33770,6,0,P|31:95|49:249,1,240,2|0,0:0|0:0,0:0:0:0:
92,292,34520,2,0,L|80:352,1,60,0|8,0:0|0:0,0:0:0:0:
224,348,34970,2,0,L|208:272,1,60
184,148,35420,2,0,P|248:152|308:184,1,120
404,364,36170,6,0,P|472:340|464:192,1,240,2|0,0:0|0:0,0:0:0:0:
404,164,36920,1,0,0:0:0:0:
340,128,37070,2,0,P|344:68|376:8,1,120,8|0,0:0|0:0,0:0:0:0:
236,72,37670,2,0,P|232:131|205:184,1,120,8|0,0:0|0:0,0:0:0:0:
92,96,38270,1,8,0:0:0:0:
16,220,38570,6,0,P|19:279|46:332,1,120,0|8,0:0|0:0,0:0:0:0:
116,308,39020,2,0,P|152:300|248:324,1,120
292,352,39470,1,8,0:0:0:0:
428,304,39770,2,0,P|456:248|460:180,1,120,0|8,0:0|0:0,0:0:0:0:
360,88,40370,2,0,P|332:144|328:212,1,120,0|8,0:0|0:0,0:0:0:0:
428,304,40970,6,0,P|308:344|208:284,1,240,4|0,0:0|0:0,0:0:0:0:
172,232,41720,2,0,L|112:244,1,60,0|8,0:0|0:0,0:0:0:0:
48,116,42170,2,0,L|106:127,1,60
248,160,42620,2,0,P|292:128|312:56,1,120
456,228,43370,6,0,P|436:348|336:332,1,240,2|0,0:0|0:0,0:0:0:0:
296,284,44120,2,0,L|232:304,1,60,0|8,0:0|0:0,0:0:0:0:
108,364,44570,2,0,L|50:347,1,60
28,204,45020,2,0,L|162:245,1,120
360,232,45770,6,0,P|368:180|352:104,1,120,4|8,0:0|0:0,0:0:0:0:
288,137,46220,2,0,P|228:136|164:105,1,120
136,52,46670,1,8,0:0:0:0:
40,160,46970,2,0,P|28:224|36:279,1,120,4|8,0:0|0:0,0:0:0:0:
72,340,47420,2,0,P|112:352|200:336,1,120
252,312,47870,1,8,0:0:0:0:
348,204,48170,6,0,P|408:204|484:236,1,120,4|4,0:0|0:0,0:0:0:0:
384,344,48770,2,0,P|324:344|248:312,1,120,4|4,0:0|0:0,0:0:0:0:
140,256,49370,2,0,P|76:260|16:280,1,120,4|8,0:0|0:0,0:0:0:0:
4,132,49970,2,0,P|61:149|120:152,1,120,0|8,0:0|0:0,0:0:0:0:
264,124,50570,6,0,P|288:72|288:8,1,120,4|8,0:0|0:0,0:0:0:0:
145,38,51170,2,0,P|120:92|120:151,1,120,4|8,0:0|0:0,0:0:0:0:
176,284,51770,6,0,P|232:296|304:272,1,120,4|0,0:0|0:0,0:0:0:0:
332,220,52220,2,0,P|392:216|460:240,1,120
508,276,52670,1,8,0:0:0:0:
508,132,52970,2,0,P|496:72|448:32,1,120,0|8,0:0|0:0,0:0:0:0:
324,100,53570,2,0,P|272:124|208:120,1,120,0|8,0:0|0:0,0:0:0:0:
88,48,54170,6,0,P|72:106|79:167,1,120,0|8,0:0|0:0,0:0:0:0:
64,308,54770,1,0,0:0:0:0:
196,248,55070,1,8,0:0:0:0:
296,352,55370,2,0,P|332:360|416:332,1,120,0|8,0:0|0:0,0:0:0:0:
484,212,55970,2,0,P|496:160|488:88,1,120,0|4,0:0|0:0,0:0:0:0:
360,32,56570,6,0,P|347:90|354:149,1,120,0|8,0:0|0:0,0:0:0:0:
388,212,57020,2,0,P|332:236|268:232,1,120
204,212,57470,1,8,0:0:0:0:
80,140,57770,2,0,P|76:84|96:12,1,120,0|8,0:0|0:0,0:0:0:0:
215,94,58370,2,0,P|219:150|199:222,1,120,0|8,0:0|0:0,0:0:0:0:
64,248,58970,6,0,P|56:316|92:384,1,120,0|8,0:0|0:0,0:0:0:0:
200,296,59570,2,0,P|264:296|332:320,1,120,0|8,0:0|0:0,0:0:0:0:
448,376,60170,2,0,P|462:322|448:248,1,120,0|8,0:0|0:0,0:0:0:0:
364,144,60770,1,0,0:0:0:0:
424,12,61070,1,8,0:0:0:0:
468,148,61370,6,0,P|452:202|388:247,1,120,4|0,0:0|0:0,0:0:0:0:
336,220,61820,2,0,P|276:220|212:252,1,120,4|0,0:0|0:0,0:0:0:0:
168,288,62270,2,0,P|100:276|68:240,1,120,4|0,0:0|0:0,0:0:0:0:
32,176,62720,2,0,P|12:127|19:54,1,120,4|0,0:0|0:0,0:0:0:0:
336,220,63770,6,0,P|341:279|320:334,1,120,4|0,0:0|0:0,0:0:0:0:
256,372,64220,2,0,P|196:364|148:324,1,120,4|0,0:0|0:0,0:0:0:0:
108,272,64670,2,0,P|96:216|100:140,1,120,4|0,0:0|0:0,0:0:0:0:
124,84,65120,2,0,P|184:80|256:100,1,120,4|0,0:0|0:0,0:0:0:0:
300,136,65570,1,0,0:0:0:0:
408,232,65870,6,0,P|437:178|437:106,1,120,0|4,0:0|0:0,0:0:0:0:
432,164,75770,6,0,P|456:224|452:288,1,120,4|8,0:0|0:0,0:0:0:0:
336,364,76370,2,0,P|312:304|316:240,1,120,0|8,0:0|0:0,0:0:0:0:
384,124,76970,2,0,P|408:64|404:0,2,120,4|8|0,0:0|0:0|0:0,0:0:0:0:
313,249,77870,1,8,0:0:0:0:
192,328,78170,6,0,P|136:344|68:340,1,120,4|8,0:0|0:0,0:0:0:0:
0,220,78770,2,0,P|56:204|124:208,1,120,0|8,0:0|0:0,0:0:0:0:
244,136,79370,2,0,P|264:80|256:20,2,120,4|8|0,0:0|0:0|0:0,0:0:0:0:
117,206,80270,1,8,0:0:0:0:
192,328,80570,6,0,P|248:344|316:340,1,120,4|8,0:0|0:0,0:0:0:0:
452,324,81170,2,0,P|464:276|452:188,1,120,0|8,0:0|0:0,0:0:0:0:
340,120,81770,2,0,P|328:72|340:-16,2,120,4|8|0,0:0|0:0|0:0,0:0:0:0:
458,206,82670,1,8,0:0:0:0:
336,284,82970,6,0,P|272:274|216:232,1,120,4|8,0:0|0:0,0:0:0:0:
216,100,83570,2,0,P|152:110|96:152,1,120,0|8,0:0|0:0,0:0:0:0:
24,260,84170,2,0,P|16:320|32:380,2,120,4|8|0,0:0|0:0|0:0,0:0:0:0:
106,140,85070,1,8,0:0:0:0:
196,252,85370,6,0,P|248:280|324:280,1,120,4|8,0:0|0:0,0:0:0:0:
428,204,85970,2,0,P|452:264|445:324,1,120,0|8,0:0|0:0,0:0:0:0:
307,283,86570,2,0,P|283:223|290:163,2,120,4|8|0,0:0|0:0|0:0,0:0:0:0:
447,318,87470,1,8,0:0:0:0:
488,180,87770,6,0,P|480:120|448:64,1,120,4|8,0:0|0:0,0:0:0:0:
344,164,88370,2,0,P|264:160|220:140,1,120,0|8,0:0|0:0,0:0:0:0:
120,52,88970,2,0,P|57:45|-4:56,2,120,4|8|0,0:0|0:0|0:0,0:0:0:0:
228,144,89870,1,8,0:0:0:0:
288,276,90170,6,0,P|364:320|472:212,1,240,4|0,0:0|0:0,0:0:0:0:
476,164,90920,2,0,L|464:88,1,60,0|8,0:0|0:0,0:0:0:0:
336,44,91370,2,0,L|324:120,1,60
292,244,91820,2,0,P|234:255|164:224,1,120
124,188,92270,1,8,0:0:0:0:
56,60,92570,6,0,P|152:48|262:140,1,240,2|0,0:0|0:0,0:0:0:0:
272,204,93320,2,0,L|284:264,1,60,0|8,0:0|0:0,0:0:0:0:
144,292,93770,2,0,L|160:216,1,60
258,132,94220,2,0,P|322:136|382:168,1,120
468,352,94970,6,0,P|360:360|284:260,1,240,2|0,0:0|0:0,0:0:0:0:
288,192,95720,1,0,0:0:0:0:
312,124,95870,2,0,P|320:68|312:4,1,120,8|0,0:0|0:0,0:0:0:0:
180,64,96470,2,0,P|117:67|47:97,1,120,8|0,0:0|0:0,0:0:0:0:
12,220,97070,1,8,0:0:0:0:
76,348,97370,6,0,P|139:345|209:315,1,120,0|8,0:0|0:0,0:0:0:0:
236,268,97820,2,0,P|296:264|364:292,1,120
408,328,98270,1,8,0:0:0:0:
488,208,98570,2,0,P|492:148|480:88,1,120,0|8,0:0|0:0,0:0:0:0:
348,32,99170,2,0,P|336:90|340:150,1,120,0|4,0:0|0:0,0:0:0:0:
388,288,99770,6,0,P|268:328|168:268,1,240,2|0,0:0|0:0,0:0:0:0:
136,216,100520,2,0,L|76:228,1,60,0|8,0:0|0:0,0:0:0:0:
24,96,100970,2,0,L|82:107,1,60
220,148,101420,2,0,P|280:156|352:132,1,120
456,320,102170,6,0,P|380:296|220:344,1,240,2|0,0:0|0:0,0:0:0:0:
168,372,102920,2,0,L|157:306,1,60,0|8,0:0|0:0,0:0:0:0:
24,264,103370,2,0,L|16:324,1,60
128,232,103820,2,0,P|190:233|257:239,1,120
452,316,104570,6,0,P|475:259|465:192,1,120,4|8,0:0|0:0,0:0:0:0:
396,200,105020,2,0,P|336:208|268:176,1,120
236,132,105470,1,8,0:0:0:0:
144,24,105770,2,0,P|88:52|60:116,1,120,4|8,0:0|0:0,0:0:0:0:
52,172,106220,2,0,P|60:248|72:300,1,120
96,360,106670,1,8,0:0:0:0:
216,284,106970,6,0,P|272:280|352:312,1,120,4|8,0:0|0:0,0:0:0:0:
460,364,107570,2,0,P|472:308|464:240,1,120,4|8,0:0|0:0,0:0:0:0:
432,104,108170,2,0,P|368:104|308:144,1,120,4|8,0:0|0:0,0:0:0:0:
208,220,108770,2,0,P|148:221|96:193,1,120,0|8,0:0|0:0,0:0:0:0:
68,52,109370,6,0,P|127:50|179:78,1,120,4|8,0:0|0:0,0:0:0:0:
256,204,109970,2,0,P|249:280|244:336,1,120,4|8,0:0|0:0,0:0:0:0:
388,324,110570,6,0,P|382:264|377:204,1,120,4|8,0:0|0:0,0:0:0:0:
368,144,111020,2,0,P|312:136|240:160,1,120
192,196,111470,1,8,0:0:0:0:
64,264,111770,2,0,P|40:216|48:132,1,120,0|8,0:0|0:0,0:0:0:0:
169,82,112370,2,0,P|193:130|185:214,1,120,0|8,0:0|0:0,0:0:0:0:
100,308,112970,6,0,P|144:336|219:338,1,120,0|8,0:0|0:0,0:0:0:0:
348,300,113570,1,0,0:0:0:0:
248,196,113870,1,8,0:0:0:0:
340,84,114170,2,0,P|400:88|456:116,1,120,0|8,0:0|0:0,0:0:0:0:
496,252,114770,2,0,P|492:324|468:368,1,120,0|4,0:0|0:0,0:0:0:0:
356,276,115370,6,0,P|292:276|236:296,1,120,0|8,0:0|0:0,0:0:0:0:
184,340,115820,2,0,P|120:340|64:320,1,120
16,272,116270,1,8,0:0:0:0:
100,156,116570,2,0,P|117:96|108:32,1,120,0|8,0:0|0:0,0:0:0:0:
256,40,117170,2,0,P|249:99|266:156,1,120,0|8,0:0|0:0,0:0:0:0:
396,92,117770,6,0,P|452:92|516:132,1,120,4|8,0:0|0:0,0:0:0:0:
420,236,118370,2,0,P|368:265|309:266,1,120,0|8,0:0|0:0,0:0:0:0:
224,152,118970,2,0,P|164:128|92:136,1,120,0|8,0:0|0:0,0:0:0:0:
8,232,119570,1,0,0:0:0:0:
84,356,119870,1,4,0:0:0:0:
212,288,120170,6,0,P|272:288|344:316,1,120,4|8,0:0|0:0,0:0:0:0:
384,356,120620,2,0,P|436:320|456:256,1,120
456,196,121070,1,8,0:0:0:0:
424,56,121370,2,0,P|364:56|300:92,1,120,0|8,0:0|0:0,0:0:0:0:
208,184,121970,2,0,P|172:136|168:64,1,120,0|8,0:0|0:0,0:0:0:0:
311,81,122570,6,0,P|347:129|351:201,1,120,0|8,0:0|0:0,0:0:0:0:
336,328,123170,1,0,0:0:0:0:
196,356,123470,1,8,0:0:0:0:
56,320,123770,2,0,P|32:268|36:200,1,120,0|8,0:0|0:0,0:0:0:0:
92,76,124370,2,0,P|152:108|216:104,1,120,0|4,0:0|0:0,0:0:0:0:
316,20,124970,6,0,P|375:21|426:51,1,120,0|8,0:0|0:0,0:0:0:0:
460,116,125420,2,0,P|464:176|464:236,1,120
456,308,125870,1,8,0:0:0:0:
324,364,126170,2,0,P|268:364|200:328,1,120,0|8,0:0|0:0,0:0:0:0:
148,208,126770,2,0,P|92:208|24:244,1,120,0|8,0:0|0:0,0:0:0:0:
97,364,127370,6,0,P|153:364|221:328,1,120,0|8,0:0|0:0,0:0:0:0:
292,220,127970,2,0,P|296:164|280:96,1,120,0|8,0:0|0:0,0:0:0:0:
144,56,128570,2,0,P|140:112|156:180,1,120,0|8,0:0|0:0,0:0:0:0:
244,284,129170,1,0,0:0:0:0:
100,308,129470,1,4,0:0:0:0:
153,173,129770,6,0,P|204:152|268:156,1,120,4|0,0:0|0:0,0:0:0:0:
328,200,130220,2,0,P|348:140|340:76,1,120,4|0,0:0|0:0,0:0:0:0:
340,12,130670,2,0,P|408:16|464:56,1,120,4|0,0:0|0:0,0:0:0:0:
480,108,131120,2,0,P|475:167|494:223,1,120,4|0,0:0|0:0,0:0:0:0:
164,364,132170,6,0,P|183:307|178:248,1,120,4|0,0:0|0:0,0:0:0:0:
124,200,132620,2,0,P|68:208|4:240,1,120,4|0,0:0|0:0,0:0:0:0:
0,164,133070,2,0,P|0:96|32:40,1,120,4|0,0:0|0:0,0:0:0:0:
76,100,133520,2,0,P|132:112|196:80,1,120,4|0,0:0|0:0,0:0:0:0:
236,36,133970,2,0,P|291:31|360:52,1,120,4|0,0:0|0:0,0:0:0:0:
496,44,134570,6,0,P|490:103|453:150,1,120,4|8,0:0|0:0,0:0:0:0:
332,227,135170,1,0,0:0:0:0:
210,150,135470,2,0,P|186:198|194:274,1,120,8|0,0:0|0:0,0:0:0:0:
311,340,136070,2,0,P|335:292|327:216,1,120,4|4,0:0|0:0,0:0:0:0:
284,92,136670,1,4,0:0:0:0:
156,24,136970,6,0,P|100:32|56:76,1,120,4|8,0:0|0:0,0:0:0:0:
28,216,137570,1,0,0:0:0:0:
168,256,137870,2,0,P|188:304|179:384,1,120,8|0,0:0|0:0,0:0:0:0:
44,331,138470,2,0,P|22:276|27:217,1,120,4|4,0:0|0:0,0:0:0:0:
120,108,139070,1,4,0:0:0:0:
236,196,139370,6,0,P|300:188|348:148,1,120,4|8,0:0|0:0,0:0:0:0:
396,20,139970,1,0,0:0:0:0:
488,132,140270,2,0,P|500:192|488:256,1,120,8|0,0:0|0:0,0:0:0:0:
360,313,140870,2,0,P|348:254|357:195,1,120,4|4,0:0|0:0,0:0:0:0:
488,132,141470,1,4,0:0:0:0:
384,32,141770,6,0,P|320:32|252:68,1,120,4|8,0:0|0:0,0:0:0:0:
184,172,142370,1,0,0:0:0:0:
148,312,142670,2,0,P|88:312|20:284,1,120,8|0,0:0|0:0,0:0:0:0:
112,172,143270,2,0,P|172:172|240:200,1,120,4|4,0:0|0:0,0:0:0:0:
324,300,143870,1,4,0:0:0:0:
440,212,144170,6,0,P|448:144|440:80,1,120,4|0,0:0|0:0,0:0:0:0:
396,40,144620,2,0,P|336:48|284:84,1,120,4|0,0:0|0:0,0:0:0:0:
244,136,145070,2,0,P|176:124|132:84,1,120,4|0,0:0|0:0,0:0:0:0:
100,28,145520,2,0,P|80:104|72:168,1,120,4|0,0:0|0:0,0:0:0:0:
64,216,145970,1,4,0:0:0:0:
140,340,146270,2,0,L|206:332,1,60,0|8,0:0|0:0,0:0:0:0:
