osu file format v14

[General]
AudioFilename: Yami.mp3
AudioLeadIn: 1500
PreviewTime: 51695
Countdown: 0
SampleSet: Normal
StackLeniency: 0.7
Mode: 1
LetterboxInBreaks: 0
WidescreenStoryboard: 1

[Editor]
DistanceSpacing: 0.7
BeatDivisor: 4
GridSize: 32
TimelineZoom: 2.3

[Metadata]
Title:Yami no Mahou Shoujo
TitleUnicode:闇の魔法少女
Artist:Silver Forest feat.Aki
ArtistUnicode:Silver Forest feat.アキ
Creator:-Maruk-
Version:Kantan
Source:太鼓の達人
Tags:Taiko no Tatsujin Namco Original Kanzaki Ranko
BeatmapID:750245
BeatmapSetID:339091

[Difficulty]
HPDrainRate:4
CircleSize:4
OverallDifficulty:4
ApproachRate:4
SliderMultiplier:1.4
SliderTickRate:1

[Events]
//Background and Video events
0,0,"BG.jpg",0,0
//Break Periods
//Storyboard Layer 0 (Background)
//Storyboard Layer 1 (Fail)
//Storyboard Layer 2 (Pass)
//Storyboard Layer 3 (Foreground)
//Storyboard Sound Samples

[TimingPoints]
170,300,4,1,0,70,1,0
2570,-100,4,1,0,70,0,1
12170,-100,4,1,0,70,0,0
51770,-100,4,1,0,70,0,1
61370,-100,4,1,0,70,0,0
80570,-100,4,1,0,70,0,1
90170,-100,4,1,0,70,0,0
110570,-100,4,1,0,70,0,1
129770,-100,4,1,0,70,0,0
134570,-100,4,1,0,70,0,1
144170,-100,4,1,0,70,0,0

[Colours]
Combo1 : 128,255,255
Combo2 : 255,128,128
Combo3 : 255,255,128
Combo4 : 128,255,128

[HitObjects]
256,192,170,5,4,0:0:0:0:
256,192,620,1,4,0:0:0:0:
256,192,1070,1,4,0:0:0:0:
256,192,1520,1,4,0:0:0:0:
256,192,1970,1,4,0:0:0:0:
256,192,2270,1,4,0:0:0:0:
256,192,2570,1,0,0:0:0:0:
256,192,3170,1,0,0:0:0:0:
256,192,3770,1,0,0:0:0:0:
256,192,4070,1,0,0:0:0:0:
256,192,4370,1,0,0:0:0:0:
256,192,4970,1,0,0:0:0:0:
256,192,5570,1,0,0:0:0:0:
256,192,6170,1,0,0:0:0:0:
256,192,6470,1,0,0:0:0:0:
256,192,6770,1,0,0:0:0:0:
256,192,7370,1,8,0:0:0:0:
256,192,7970,1,8,0:0:0:0:
256,192,8570,1,8,0:0:0:0:
256,192,8870,1,8,0:0:0:0:
256,192,9170,1,8,0:0:0:0:
256,192,9770,1,8,0:0:0:0:
256,192,10370,1,8,0:0:0:0:
256,192,10970,1,8,0:0:0:0:
256,192,11270,1,8,0:0:0:0:
256,192,11570,1,8,0:0:0:0:
256,192,12170,1,0,0:0:0:0:
256,192,12770,1,0,0:0:0:0:
256,192,13370,1,0,0:0:0:0:
256,192,13970,1,0,0:0:0:0:
256,192,14270,2,0,B|256:23|256:23|176:24,2,245
256,192,16970,1,0,0:0:0:0:
256,192,17570,1,0,0:0:0:0:
256,192,18170,1,0,0:0:0:0:
256,192,18770,1,0,0:0:0:0:
256,192,19070,2,0,L|256:8,2,175
256,192,20120,2,0,B|255:16|255:16|152:16,2,280
256,192,21770,1,0,0:0:0:0:
256,192,22370,1,0,0:0:0:0:
256,192,22970,1,0,0:0:0:0:
256,192,23570,1,0,0:0:0:0:
256,192,23870,2,0,B|256:16|256:16|168:16,2,245
256,192,26570,1,0,0:0:0:0:
256,192,27170,1,0,0:0:0:0:
256,192,27770,1,0,0:0:0:0:
256,192,28370,1,0,0:0:0:0:
256,192,28670,2,0,L|256:16,2,175
256,192,29720,2,0,B|256:8|256:8|160:8,2,280
256,192,31370,1,0,0:0:0:0:
256,192,31670,1,0,0:0:0:0:
256,192,32270,1,0,0:0:0:0:
256,192,32570,1,0,0:0:0:0:
256,192,32870,1,0,0:0:0:0:
256,192,33470,1,0,0:0:0:0:
256,192,33770,1,0,0:0:0:0:
256,192,34070,1,0,0:0:0:0:
256,192,34670,1,0,0:0:0:0:
256,192,34970,1,0,0:0:0:0:
256,192,35570,1,0,0:0:0:0:
256,192,36170,1,8,0:0:0:0:
256,192,36470,1,8,0:0:0:0:
256,192,37070,1,8,0:0:0:0:
256,192,37370,1,8,0:0:0:0:
256,192,37670,1,8,0:0:0:0:
256,192,38270,1,8,0:0:0:0:
256,192,38570,1,8,0:0:0:0:
256,192,38870,1,8,0:0:0:0:
256,192,39470,1,8,0:0:0:0:
256,192,39770,1,8,0:0:0:0:
256,192,40370,1,8,0:0:0:0:
256,192,40970,1,0,0:0:0:0:
256,192,41270,1,0,0:0:0:0:
256,192,41870,1,0,0:0:0:0:
256,192,42170,1,0,0:0:0:0:
256,192,42470,1,0,0:0:0:0:
256,192,43070,1,0,0:0:0:0:
256,192,43370,1,0,0:0:0:0:
256,192,43670,1,0,0:0:0:0:
256,192,44270,1,0,0:0:0:0:
256,192,44570,1,0,0:0:0:0:
256,192,45170,1,0,0:0:0:0:
256,192,45770,1,0,0:0:0:0:
256,192,46070,1,0,0:0:0:0:
256,192,46370,1,0,0:0:0:0:
256,192,46970,1,8,0:0:0:0:
256,192,47270,1,8,0:0:0:0:
256,192,47570,1,8,0:0:0:0:
256,192,48170,1,0,0:0:0:0:
256,192,48470,1,0,0:0:0:0:
256,192,48770,1,0,0:0:0:0:
256,192,49070,1,0,0:0:0:0:
256,192,49370,2,0,B|256:16|256:16|16:15|16:15|16:64,2,455
256,192,51770,1,0,0:0:0:0:
256,192,52070,1,0,0:0:0:0:
256,192,52670,1,0,0:0:0:0:
256,192,52970,1,0,0:0:0:0:
256,192,53720,2,0,B|256:16|256:16|192:16,2,210
256,192,54920,2,0,B|256:8|256:8|152:8,2,280
256,192,56570,1,8,0:0:0:0:
256,192,56870,1,8,0:0:0:0:
256,192,57470,1,8,0:0:0:0:
256,192,57770,1,8,0:0:0:0:
256,192,58520,2,0,B|256:8|256:8|216:8,2,210
256,192,59720,2,0,B|255:16|255:16|144:16,2,280
256,192,61370,1,4,0:0:0:0:
256,192,61820,1,4,0:0:0:0:
256,192,62270,1,4,0:0:0:0:
256,192,62720,1,4,0:0:0:0:
256,192,63770,1,4,0:0:0:0:
256,192,64220,1,4,0:0:0:0:
256,192,64670,1,4,0:0:0:0:
256,192,65120,1,4,0:0:0:0:
256,192,65570,1,4,0:0:0:0:
256,192,65870,1,4,0:0:0:0:
256,192,66770,1,8,0:0:0:0:
256,192,67970,1,8,0:0:0:0:
256,192,69170,1,8,0:0:0:0:
256,192,69770,1,8,0:0:0:0:
256,192,70070,1,8,0:0:0:0:
256,192,70370,1,8,0:0:0:0:
256,192,71570,1,8,0:0:0:0:
256,192,72770,1,8,0:0:0:0:
256,192,73970,1,8,0:0:0:0:
256,192,74570,1,8,0:0:0:0:
256,192,74870,1,8,0:0:0:0:
256,192,75170,1,8,0:0:0:0:
256,192,75770,1,0,0:0:0:0:
256,192,76370,1,0,0:0:0:0:
256,192,76970,1,0,0:0:0:0:
256,192,77270,1,0,0:0:0:0:
256,192,77570,1,0,0:0:0:0:
256,192,78170,1,0,0:0:0:0:
256,192,78770,1,0,0:0:0:0:
256,192,79370,1,0,0:0:0:0:
256,192,79670,1,0,0:0:0:0:
256,192,79970,1,0,0:0:0:0:
256,192,80570,1,0,0:0:0:0:
256,192,80870,1,0,0:0:0:0:
256,192,81170,1,0,0:0:0:0:
256,192,81770,1,0,0:0:0:0:
256,192,82070,1,0,0:0:0:0:
256,192,82370,1,0,0:0:0:0:
256,192,82970,1,0,0:0:0:0:
256,192,83270,1,0,0:0:0:0:
256,192,83570,1,0,0:0:0:0:
256,192,83870,1,0,0:0:0:0:
256,192,84170,1,8,0:0:0:0:
256,192,84470,1,8,0:0:0:0:
256,192,84770,1,8,0:0:0:0:
256,192,85370,1,0,0:0:0:0:
256,192,85670,1,0,0:0:0:0:
256,192,85970,1,0,0:0:0:0:
256,192,86570,1,0,0:0:0:0:
256,192,86870,1,0,0:0:0:0:
256,192,87170,1,0,0:0:0:0:
256,192,87770,1,0,0:0:0:0:
256,192,88070,1,8,0:0:0:0:
256,192,88370,1,0,0:0:0:0:
256,192,88670,1,8,0:0:0:0:
256,192,88970,1,4,0:0:0:0:
256,192,89270,1,4,0:0:0:0:
256,192,89570,1,12,0:0:0:0:
256,192,90170,1,0,0:0:0:0:
256,192,90470,1,0,0:0:0:0:
256,192,91070,1,0,0:0:0:0:
256,192,91370,1,0,0:0:0:0:
256,192,91670,1,0,0:0:0:0:
256,192,92270,1,0,0:0:0:0:
256,192,92570,1,0,0:0:0:0:
256,192,92870,1,0,0:0:0:0:
256,192,93470,1,0,0:0:0:0:
256,192,93770,1,0,0:0:0:0:
256,192,94370,1,0,0:0:0:0:
256,192,94970,1,8,0:0:0:0:
256,192,95270,1,8,0:0:0:0:
256,192,95870,1,8,0:0:0:0:
256,192,96170,1,8,0:0:0:0:
256,192,96470,1,8,0:0:0:0:
256,192,97070,1,8,0:0:0:0:
256,192,97370,1,8,0:0:0:0:
256,192,97670,1,8,0:0:0:0:
256,192,98270,1,8,0:0:0:0:
256,192,98570,1,8,0:0:0:0:
256,192,99170,1,8,0:0:0:0:
256,192,99770,1,0,0:0:0:0:
256,192,100070,1,0,0:0:0:0:
256,192,100670,1,0,0:0:0:0:
256,192,100970,1,0,0:0:0:0:
256,192,101270,1,0,0:0:0:0:
256,192,101870,1,0,0:0:0:0:
256,192,102170,1,0,0:0:0:0:
256,192,102470,1,0,0:0:0:0:
256,192,103070,1,0,0:0:0:0:
256,192,103370,1,0,0:0:0:0:
256,192,103970,1,0,0:0:0:0:
256,192,104570,1,0,0:0:0:0:
256,192,104870,1,0,0:0:0:0:
256,192,105170,1,0,0:0:0:0:
256,192,105770,1,8,0:0:0:0:
256,192,106070,1,8,0:0:0:0:
256,192,106370,1,8,0:0:0:0:
256,192,106970,1,0,0:0:0:0:
256,192,107270,1,0,0:0:0:0:
256,192,107570,1,0,0:0:0:0:
256,192,107870,1,0,0:0:0:0:
256,192,108170,2,0,B|255:14|255:14|15:16|15:16|16:56,2,455
256,192,110570,1,0,0:0:0:0:
256,192,110870,1,0,0:0:0:0:
256,192,111470,1,0,0:0:0:0:
256,192,111770,1,0,0:0:0:0:
256,192,112520,2,0,B|256:16|256:16|192:16,2,210
256,192,113720,2,0,B|256:16|256:16|144:16,2,280
256,192,115370,1,8,0:0:0:0:
256,192,115670,1,8,0:0:0:0:
256,192,116270,1,8,0:0:0:0:
256,192,116570,1,8,0:0:0:0:
256,192,117320,2,0,B|256:8|256:8|208:8,2,210
256,192,118520,2,0,B|256:16|256:16|152:16,2,280
256,192,120170,1,0,0:0:0:0:
256,192,120470,1,0,0:0:0:0:
256,192,121070,1,0,0:0:0:0:
256,192,121370,1,0,0:0:0:0:
256,192,121670,1,12,0:0:0:0:
256,192,121970,1,12,0:0:0:0:
256,192,122270,1,12,0:0:0:0:
256,192,122570,1,0,0:0:0:0:
256,192,122870,1,0,0:0:0:0:
256,192,123470,1,0,0:0:0:0:
256,192,123770,1,0,0:0:0:0:
256,192,124070,1,12,0:0:0:0:
256,192,124370,1,12,0:0:0:0:
256,192,124670,1,12,0:0:0:0:
256,192,124970,1,0,0:0:0:0:
256,192,125270,1,0,0:0:0:0:
256,192,125870,1,0,0:0:0:0:
256,192,126170,1,0,0:0:0:0:
256,192,126470,1,12,0:0:0:0:
256,192,126770,1,12,0:0:0:0:
256,192,127070,1,12,0:0:0:0:
256,192,127370,1,0,0:0:0:0:
256,192,127670,1,0,0:0:0:0:
256,192,128120,2,0,B|256:8|256:8|144:8,2,280
256,192,129770,1,4,0:0:0:0:
256,192,130220,1,4,0:0:0:0:
256,192,130670,1,4,0:0:0:0:
256,192,131120,1,4,0:0:0:0:
256,192,132170,1,4,0:0:0:0:
256,192,132620,1,4,0:0:0:0:
256,192,133070,1,4,0:0:0:0:
256,192,133520,1,4,0:0:0:0:
256,192,133970,1,4,0:0:0:0:
256,192,134270,1,4,0:0:0:0:
256,192,134570,2,0,L|256:8,2,175
256,192,135770,1,4,0:0:0:0:
256,192,136070,1,4,0:0:0:0:
256,192,136370,1,4,0:0:0:0:
256,192,136670,1,4,0:0:0:0:
256,192,136970,2,0,L|256:8,2,175
256,192,138170,1,4,0:0:0:0:
256,192,138470,1,4,0:0:0:0:
256,192,138770,1,4,0:0:0:0:
256,192,139070,1,4,0:0:0:0:
256,192,139370,2,0,L|256:8,2,175
256,192,140570,1,12,0:0:0:0:
256,192,140870,1,12,0:0:0:0:
256,192,141170,1,12,0:0:0:0:
256,192,141470,1,12,0:0:0:0:
256,192,141770,2,0,B|256:8|256:8|24:8|24:8|24:56,2,455
256,192,144170,1,4,0:0:0:0:
256,192,144620,1,4,0:0:0:0:
256,192,145070,1,4,0:0:0:0:
256,192,145520,1,4,0:0:0:0:
256,192,145970,1,4,0:0:0:0:
256,192,146270,1,4,0:0:0:0:
