osu file format v14

[General]
AudioFilename: Yami.mp3
AudioLeadIn: 1500
PreviewTime: 51695
Countdown: 0
SampleSet: Normal
StackLeniency: 0.7
Mode: 1
LetterboxInBreaks: 0
WidescreenStoryboard: 1

[Editor]
DistanceSpacing: 0.8
BeatDivisor: 4
GridSize: 32
TimelineZoom: 2.2

[Metadata]
Title:Yami no Mahou Shoujo
TitleUnicode:闇の魔法少女
Artist:Silver Forest feat.Aki
ArtistUnicode:Silver Forest feat.アキ
Creator:-Maruk-
Version:Futsuu
Source:太鼓の達人
Tags:Taiko no Tatsujin Namco Original Kanzaki Ranko
BeatmapID:750243
BeatmapSetID:339091

[Difficulty]
HPDrainRate:4
CircleSize:4
OverallDifficulty:4
ApproachRate:4
SliderMultiplier:1.4
SliderTickRate:1

[Events]
//Background and Video events
0,0,"BG.jpg",0,0
//Break Periods
//Storyboard Layer 0 (Background)
//Storyboard Layer 1 (Fail)
//Storyboard Layer 2 (Pass)
//Storyboard Layer 3 (Foreground)
//Storyboard Sound Samples

[TimingPoints]
170,300,4,1,0,70,1,0
2570,-100,4,1,0,70,0,1
12170,-100,4,1,0,70,0,0
51770,-100,4,1,0,70,0,1
61370,-100,4,1,0,70,0,0
80570,-100,4,1,0,70,0,1
90170,-100,4,1,0,70,0,0
110570,-100,4,1,0,70,0,1
129770,-100,4,1,0,70,0,0
134570,-100,4,1,0,70,0,1
144170,-100,4,1,0,70,0,0

[Colours]
Combo1 : 128,255,255
Combo2 : 255,128,128
Combo3 : 255,255,128
Combo4 : 128,255,128

[HitObjects]
256,192,170,5,4,0:0:0:0:
256,192,620,1,4,0:0:0:0:
256,192,1070,1,4,0:0:0:0:
256,192,1520,1,4,0:0:0:0:
256,192,1970,1,12,0:0:0:0:
256,192,2270,1,12,0:0:0:0:
256,192,2570,1,0,0:0:0:0:
256,192,2870,1,0,0:0:0:0:
256,192,3170,1,0,0:0:0:0:
256,192,3470,1,8,0:0:0:0:
256,192,3770,1,0,0:0:0:0:
256,192,4070,1,8,0:0:0:0:
256,192,4370,1,0,0:0:0:0:
256,192,4970,1,0,0:0:0:0:
256,192,5270,1,0,0:0:0:0:
256,192,5570,1,0,0:0:0:0:
256,192,5870,1,0,0:0:0:0:
256,192,6170,1,0,0:0:0:0:
256,192,6470,1,8,0:0:0:0:
256,192,6770,1,0,0:0:0:0:
256,192,7370,1,0,0:0:0:0:
256,192,7670,1,0,0:0:0:0:
256,192,7970,1,0,0:0:0:0:
256,192,8270,1,0,0:0:0:0:
256,192,8570,1,0,0:0:0:0:
256,192,8870,1,8,0:0:0:0:
256,192,9170,1,0,0:0:0:0:
256,192,9770,1,0,0:0:0:0:
256,192,10070,1,0,0:0:0:0:
256,192,10370,1,0,0:0:0:0:
256,192,10670,1,0,0:0:0:0:
256,192,10970,1,0,0:0:0:0:
256,192,11270,1,8,0:0:0:0:
256,192,11570,1,0,0:0:0:0:
256,192,12170,1,0,0:0:0:0:
256,192,12470,1,0,0:0:0:0:
256,192,12770,1,0,0:0:0:0:
256,192,12920,1,0,0:0:0:0:
256,192,13070,1,0,0:0:0:0:
256,192,13370,1,0,0:0:0:0:
256,192,13520,1,0,0:0:0:0:
256,192,13670,1,0,0:0:0:0:
256,192,13970,1,0,0:0:0:0:
256,192,14270,1,0,0:0:0:0:
256,192,14570,2,0,L|256:8,2,175
256,192,16970,1,0,0:0:0:0:
256,192,17270,1,0,0:0:0:0:
256,192,17570,1,0,0:0:0:0:
256,192,17720,1,0,0:0:0:0:
256,192,17870,1,0,0:0:0:0:
256,192,18170,1,0,0:0:0:0:
256,192,18470,1,0,0:0:0:0:
256,192,18620,1,0,0:0:0:0:
256,192,18770,1,0,0:0:0:0:
256,192,19070,1,0,0:0:0:0:
256,192,19220,1,0,0:0:0:0:
256,192,19670,1,0,0:0:0:0:
256,192,19820,1,0,0:0:0:0:
256,192,20120,2,0,B|256:0|256:0|152:0,2,280
256,192,21770,1,0,0:0:0:0:
256,192,22070,1,0,0:0:0:0:
256,192,22370,1,0,0:0:0:0:
256,192,22520,1,0,0:0:0:0:
256,192,22670,1,0,0:0:0:0:
256,192,22970,1,0,0:0:0:0:
256,192,23120,1,0,0:0:0:0:
256,192,23270,1,0,0:0:0:0:
256,192,23570,1,0,0:0:0:0:
256,192,23870,1,0,0:0:0:0:
256,192,24170,2,0,L|256:16,2,175
256,192,25370,1,8,0:0:0:0:
256,192,25520,1,8,0:0:0:0:
256,192,25670,1,8,0:0:0:0:
256,192,25970,1,8,0:0:0:0:
256,192,26120,1,8,0:0:0:0:
256,192,26270,1,8,0:0:0:0:
256,192,26570,1,0,0:0:0:0:
256,192,26870,1,0,0:0:0:0:
256,192,27020,1,0,0:0:0:0:
256,192,27170,1,0,0:0:0:0:
256,192,27470,1,0,0:0:0:0:
256,192,27770,1,0,0:0:0:0:
256,192,27920,1,0,0:0:0:0:
256,192,28070,1,0,0:0:0:0:
256,192,28370,1,0,0:0:0:0:
256,192,28670,1,0,0:0:0:0:
256,192,28820,1,0,0:0:0:0:
256,192,29270,1,0,0:0:0:0:
256,192,29420,1,0,0:0:0:0:
256,192,29720,2,0,B|256:8|256:8|152:8,2,280
256,192,31370,1,0,0:0:0:0:
256,192,31670,1,0,0:0:0:0:
256,192,31820,1,0,0:0:0:0:
256,192,32120,1,0,0:0:0:0:
256,192,32270,1,0,0:0:0:0:
256,192,32570,1,0,0:0:0:0:
256,192,32870,1,0,0:0:0:0:
256,192,33020,1,0,0:0:0:0:
256,192,33320,1,0,0:0:0:0:
256,192,33470,1,0,0:0:0:0:
256,192,33770,1,0,0:0:0:0:
256,192,34070,1,0,0:0:0:0:
256,192,34220,1,0,0:0:0:0:
256,192,34520,1,0,0:0:0:0:
256,192,34670,1,0,0:0:0:0:
256,192,34970,1,0,0:0:0:0:
256,192,35270,1,0,0:0:0:0:
256,192,35570,1,8,0:0:0:0:
256,192,36170,1,0,0:0:0:0:
256,192,36470,1,0,0:0:0:0:
256,192,36620,1,0,0:0:0:0:
256,192,36920,1,0,0:0:0:0:
256,192,37070,1,0,0:0:0:0:
256,192,37370,1,0,0:0:0:0:
256,192,37670,1,8,0:0:0:0:
256,192,37970,1,0,0:0:0:0:
256,192,38120,1,0,0:0:0:0:
256,192,38270,1,8,0:0:0:0:
256,192,38570,1,0,0:0:0:0:
256,192,38870,1,0,0:0:0:0:
256,192,39020,1,0,0:0:0:0:
256,192,39320,1,0,0:0:0:0:
256,192,39470,1,0,0:0:0:0:
256,192,39770,1,0,0:0:0:0:
256,192,40070,1,0,0:0:0:0:
256,192,40370,1,8,0:0:0:0:
256,192,40970,1,8,0:0:0:0:
256,192,41270,1,8,0:0:0:0:
256,192,41420,1,8,0:0:0:0:
256,192,41720,1,8,0:0:0:0:
256,192,41870,1,8,0:0:0:0:
256,192,42170,1,8,0:0:0:0:
256,192,42470,1,8,0:0:0:0:
256,192,42620,1,8,0:0:0:0:
256,192,42920,1,8,0:0:0:0:
256,192,43070,1,8,0:0:0:0:
256,192,43370,1,8,0:0:0:0:
256,192,43670,1,8,0:0:0:0:
256,192,43820,1,8,0:0:0:0:
256,192,44120,1,8,0:0:0:0:
256,192,44270,1,8,0:0:0:0:
256,192,44570,1,8,0:0:0:0:
256,192,44870,1,8,0:0:0:0:
256,192,45170,1,8,0:0:0:0:
256,192,45770,1,0,0:0:0:0:
256,192,45920,1,0,0:0:0:0:
256,192,46220,1,0,0:0:0:0:
256,192,46370,1,0,0:0:0:0:
256,192,46670,1,0,0:0:0:0:
256,192,46970,1,8,0:0:0:0:
256,192,47120,1,8,0:0:0:0:
256,192,47420,1,8,0:0:0:0:
256,192,47570,1,8,0:0:0:0:
256,192,47870,1,8,0:0:0:0:
256,192,48170,1,0,0:0:0:0:
256,192,48470,1,0,0:0:0:0:
256,192,48770,1,0,0:0:0:0:
256,192,49070,1,0,0:0:0:0:
256,192,49370,2,0,B|256:8|256:8|184:8,2,245
256,192,50570,1,4,0:0:0:0:
256,192,50870,1,4,0:0:0:0:
256,192,51170,1,4,0:0:0:0:
256,192,51470,1,12,0:0:0:0:
256,192,51770,1,0,0:0:0:0:
256,192,51920,1,0,0:0:0:0:
256,192,52070,1,0,0:0:0:0:
256,192,52220,1,0,0:0:0:0:
256,192,52520,1,0,0:0:0:0:
256,192,52670,1,0,0:0:0:0:
256,192,52970,1,0,0:0:0:0:
256,192,53270,1,0,0:0:0:0:
256,192,53420,1,0,0:0:0:0:
256,192,53720,1,0,0:0:0:0:
256,192,53870,1,0,0:0:0:0:
256,192,54170,1,0,0:0:0:0:
256,192,54470,1,0,0:0:0:0:
256,192,54620,1,0,0:0:0:0:
256,192,54920,1,0,0:0:0:0:
256,192,55070,1,0,0:0:0:0:
256,192,55370,1,0,0:0:0:0:
256,192,55670,1,0,0:0:0:0:
256,192,55970,1,0,0:0:0:0:
256,192,56570,1,0,0:0:0:0:
256,192,56720,1,0,0:0:0:0:
256,192,56870,1,0,0:0:0:0:
256,192,57020,1,0,0:0:0:0:
256,192,57320,1,0,0:0:0:0:
256,192,57470,1,0,0:0:0:0:
256,192,57770,1,0,0:0:0:0:
256,192,58070,1,0,0:0:0:0:
256,192,58220,1,0,0:0:0:0:
256,192,58520,1,0,0:0:0:0:
256,192,58670,1,0,0:0:0:0:
256,192,58970,1,0,0:0:0:0:
256,192,59270,1,0,0:0:0:0:
256,192,59420,1,0,0:0:0:0:
256,192,59720,1,0,0:0:0:0:
256,192,59870,1,0,0:0:0:0:
256,192,60170,2,0,B|256:16|256:16|208:16,2,210
256,192,61370,1,4,0:0:0:0:
256,192,61820,1,4,0:0:0:0:
256,192,62270,1,4,0:0:0:0:
256,192,62720,1,4,0:0:0:0:
256,192,63770,1,4,0:0:0:0:
256,192,64220,1,4,0:0:0:0:
256,192,64670,1,4,0:0:0:0:
256,192,65120,1,4,0:0:0:0:
256,192,65570,1,12,0:0:0:0:
256,192,65870,1,12,0:0:0:0:
256,192,66170,1,0,0:0:0:0:
256,192,66770,1,8,0:0:0:0:
256,192,67370,1,0,0:0:0:0:
256,192,67970,1,8,0:0:0:0:
256,192,68570,1,0,0:0:0:0:
256,192,68870,1,0,0:0:0:0:
256,192,69170,1,8,0:0:0:0:
256,192,69770,1,0,0:0:0:0:
256,192,70070,1,0,0:0:0:0:
256,192,70370,1,8,0:0:0:0:
256,192,70970,1,0,0:0:0:0:
256,192,71570,1,8,0:0:0:0:
256,192,72170,1,0,0:0:0:0:
256,192,72770,1,8,0:0:0:0:
256,192,73370,1,0,0:0:0:0:
256,192,73670,1,0,0:0:0:0:
256,192,73970,1,8,0:0:0:0:
256,192,74570,1,0,0:0:0:0:
256,192,74870,1,0,0:0:0:0:
256,192,75170,1,8,0:0:0:0:
256,192,75770,1,0,0:0:0:0:
256,192,76070,1,8,0:0:0:0:
256,192,76370,1,8,0:0:0:0:
256,192,76970,1,0,0:0:0:0:
256,192,77270,1,8,0:0:0:0:
256,192,77570,1,8,0:0:0:0:
256,192,78170,1,0,0:0:0:0:
256,192,78470,1,0,0:0:0:0:
256,192,78770,1,8,0:0:0:0:
256,192,79070,1,8,0:0:0:0:
256,192,79370,1,0,0:0:0:0:
256,192,79670,1,0,0:0:0:0:
256,192,79970,1,8,0:0:0:0:
256,192,80570,1,0,0:0:0:0:
256,192,80870,1,0,0:0:0:0:
256,192,81170,1,8,0:0:0:0:
256,192,81770,1,0,0:0:0:0:
256,192,82070,1,0,0:0:0:0:
256,192,82370,1,8,0:0:0:0:
256,192,82970,1,0,0:0:0:0:
256,192,83270,1,0,0:0:0:0:
256,192,83570,1,8,0:0:0:0:
256,192,83870,1,8,0:0:0:0:
256,192,84170,1,0,0:0:0:0:
256,192,84470,1,8,0:0:0:0:
256,192,84770,1,0,0:0:0:0:
256,192,84920,1,0,0:0:0:0:
256,192,85070,1,0,0:0:0:0:
256,192,85370,1,0,0:0:0:0:
256,192,85520,1,0,0:0:0:0:
256,192,85670,1,0,0:0:0:0:
256,192,85970,1,8,0:0:0:0:
256,192,86570,1,0,0:0:0:0:
256,192,86720,1,0,0:0:0:0:
256,192,86870,1,0,0:0:0:0:
256,192,87170,1,8,0:0:0:0:
256,192,87770,1,0,0:0:0:0:
256,192,87920,1,0,0:0:0:0:
256,192,88070,1,0,0:0:0:0:
256,192,88370,1,0,0:0:0:0:
256,192,88520,1,0,0:0:0:0:
256,192,88670,1,0,0:0:0:0:
256,192,88970,1,0,0:0:0:0:
256,192,89270,1,0,0:0:0:0:
256,192,89570,1,8,0:0:0:0:
256,192,90170,1,0,0:0:0:0:
256,192,90470,1,0,0:0:0:0:
256,192,90620,1,0,0:0:0:0:
256,192,90920,1,0,0:0:0:0:
256,192,91070,1,0,0:0:0:0:
256,192,91370,1,0,0:0:0:0:
256,192,91670,1,0,0:0:0:0:
256,192,91820,1,0,0:0:0:0:
256,192,92120,1,0,0:0:0:0:
256,192,92270,1,0,0:0:0:0:
256,192,92570,1,0,0:0:0:0:
256,192,92870,1,0,0:0:0:0:
256,192,93020,1,0,0:0:0:0:
256,192,93320,1,0,0:0:0:0:
256,192,93470,1,0,0:0:0:0:
256,192,93770,1,0,0:0:0:0:
256,192,94070,1,0,0:0:0:0:
256,192,94370,1,8,0:0:0:0:
256,192,94970,1,0,0:0:0:0:
256,192,95270,1,0,0:0:0:0:
256,192,95420,1,0,0:0:0:0:
256,192,95720,1,0,0:0:0:0:
256,192,95870,1,0,0:0:0:0:
256,192,96170,1,0,0:0:0:0:
256,192,96470,1,8,0:0:0:0:
256,192,96770,1,0,0:0:0:0:
256,192,96920,1,0,0:0:0:0:
256,192,97070,1,8,0:0:0:0:
256,192,97370,1,0,0:0:0:0:
256,192,97670,1,0,0:0:0:0:
256,192,97820,1,0,0:0:0:0:
256,192,98120,1,0,0:0:0:0:
256,192,98270,1,0,0:0:0:0:
256,192,98570,1,0,0:0:0:0:
256,192,98870,1,0,0:0:0:0:
256,192,99170,1,8,0:0:0:0:
256,192,99770,1,8,0:0:0:0:
256,192,100070,1,8,0:0:0:0:
256,192,100220,1,8,0:0:0:0:
256,192,100520,1,8,0:0:0:0:
256,192,100670,1,8,0:0:0:0:
256,192,100970,1,8,0:0:0:0:
256,192,101270,1,8,0:0:0:0:
256,192,101420,1,8,0:0:0:0:
256,192,101720,1,8,0:0:0:0:
256,192,101870,1,8,0:0:0:0:
256,192,102170,1,8,0:0:0:0:
256,192,102470,1,8,0:0:0:0:
256,192,102620,1,8,0:0:0:0:
256,192,102920,1,8,0:0:0:0:
256,192,103070,1,8,0:0:0:0:
256,192,103370,1,8,0:0:0:0:
256,192,103670,1,8,0:0:0:0:
256,192,103970,1,8,0:0:0:0:
256,192,104570,1,0,0:0:0:0:
256,192,104720,1,0,0:0:0:0:
256,192,105020,1,0,0:0:0:0:
256,192,105170,1,0,0:0:0:0:
256,192,105470,1,0,0:0:0:0:
256,192,105770,1,8,0:0:0:0:
256,192,105920,1,8,0:0:0:0:
256,192,106220,1,8,0:0:0:0:
256,192,106370,1,8,0:0:0:0:
256,192,106670,1,8,0:0:0:0:
256,192,106970,1,0,0:0:0:0:
256,192,107270,1,0,0:0:0:0:
256,192,107570,1,0,0:0:0:0:
256,192,107870,1,0,0:0:0:0:
256,192,108170,2,0,B|256:16|256:16|208:16,2,210
256,192,109370,1,4,0:0:0:0:
256,192,109670,1,4,0:0:0:0:
256,192,109970,1,4,0:0:0:0:
256,192,110270,1,12,0:0:0:0:
256,192,110570,1,0,0:0:0:0:
256,192,110720,1,0,0:0:0:0:
256,192,110870,1,0,0:0:0:0:
256,192,111020,1,0,0:0:0:0:
256,192,111320,1,0,0:0:0:0:
256,192,111470,1,0,0:0:0:0:
256,192,111770,1,0,0:0:0:0:
256,192,112070,1,0,0:0:0:0:
256,192,112220,1,0,0:0:0:0:
256,192,112520,1,0,0:0:0:0:
256,192,112670,1,0,0:0:0:0:
256,192,112970,1,0,0:0:0:0:
256,192,113270,1,0,0:0:0:0:
256,192,113420,1,0,0:0:0:0:
256,192,113720,1,0,0:0:0:0:
256,192,113870,1,0,0:0:0:0:
256,192,114170,1,0,0:0:0:0:
256,192,114470,1,0,0:0:0:0:
256,192,114770,1,0,0:0:0:0:
256,192,115370,1,0,0:0:0:0:
256,192,115520,1,0,0:0:0:0:
256,192,115670,1,0,0:0:0:0:
256,192,115820,1,0,0:0:0:0:
256,192,116120,1,0,0:0:0:0:
256,192,116270,1,0,0:0:0:0:
256,192,116570,1,0,0:0:0:0:
256,192,116870,1,0,0:0:0:0:
256,192,117020,1,0,0:0:0:0:
256,192,117320,1,0,0:0:0:0:
256,192,117470,1,0,0:0:0:0:
256,192,117770,1,0,0:0:0:0:
256,192,118070,1,0,0:0:0:0:
256,192,118220,1,0,0:0:0:0:
256,192,118520,1,0,0:0:0:0:
256,192,118670,1,0,0:0:0:0:
256,192,118970,1,0,0:0:0:0:
256,192,119120,1,0,0:0:0:0:
256,192,119270,1,0,0:0:0:0:
256,192,119570,1,0,0:0:0:0:
256,192,119720,1,0,0:0:0:0:
256,192,119870,1,0,0:0:0:0:
256,192,120170,1,0,0:0:0:0:
256,192,120320,1,0,0:0:0:0:
256,192,120470,1,0,0:0:0:0:
256,192,120620,1,0,0:0:0:0:
256,192,120920,1,0,0:0:0:0:
256,192,121070,1,0,0:0:0:0:
256,192,121220,1,0,0:0:0:0:
256,192,121370,1,0,0:0:0:0:
256,192,121670,1,12,0:0:0:0:
256,192,121970,1,12,0:0:0:0:
256,192,122270,1,12,0:0:0:0:
256,192,122570,1,0,0:0:0:0:
256,192,122870,1,0,0:0:0:0:
256,192,123020,1,0,0:0:0:0:
256,192,123320,1,0,0:0:0:0:
256,192,123470,1,0,0:0:0:0:
256,192,123770,1,0,0:0:0:0:
256,192,124070,1,12,0:0:0:0:
256,192,124370,1,12,0:0:0:0:
256,192,124670,1,12,0:0:0:0:
256,192,124970,1,0,0:0:0:0:
256,192,125120,1,0,0:0:0:0:
256,192,125270,1,0,0:0:0:0:
256,192,125420,1,0,0:0:0:0:
256,192,125720,1,0,0:0:0:0:
256,192,125870,1,0,0:0:0:0:
256,192,126020,1,0,0:0:0:0:
256,192,126170,1,0,0:0:0:0:
256,192,126470,1,12,0:0:0:0:
256,192,126770,1,12,0:0:0:0:
256,192,127070,1,12,0:0:0:0:
256,192,127370,1,0,0:0:0:0:
256,192,127670,1,0,0:0:0:0:
256,192,127820,1,0,0:0:0:0:
256,192,128120,1,0,0:0:0:0:
256,192,128270,1,0,0:0:0:0:
256,192,128570,1,0,0:0:0:0:
256,192,128720,1,0,0:0:0:0:
256,192,128870,1,0,0:0:0:0:
256,192,129170,1,0,0:0:0:0:
256,192,129320,1,0,0:0:0:0:
256,192,129470,1,0,0:0:0:0:
256,192,129770,1,4,0:0:0:0:
256,192,130220,1,4,0:0:0:0:
256,192,130670,1,4,0:0:0:0:
256,192,131120,1,4,0:0:0:0:
256,192,132170,1,4,0:0:0:0:
256,192,132620,1,4,0:0:0:0:
256,192,133070,1,4,0:0:0:0:
256,192,133520,1,4,0:0:0:0:
256,192,133970,1,12,0:0:0:0:
256,192,134270,1,12,0:0:0:0:
256,192,134570,1,0,0:0:0:0:
256,192,134720,1,0,0:0:0:0:
256,192,134870,1,0,0:0:0:0:
256,192,135170,1,0,0:0:0:0:
256,192,135320,1,0,0:0:0:0:
256,192,135470,1,0,0:0:0:0:
256,192,135770,1,12,0:0:0:0:
256,192,136070,1,12,0:0:0:0:
256,192,136370,1,12,0:0:0:0:
256,192,136670,1,12,0:0:0:0:
256,192,136970,1,0,0:0:0:0:
256,192,137120,1,0,0:0:0:0:
256,192,137270,1,0,0:0:0:0:
256,192,137570,1,0,0:0:0:0:
256,192,137720,1,0,0:0:0:0:
256,192,137870,1,0,0:0:0:0:
256,192,138170,1,12,0:0:0:0:
256,192,138470,1,12,0:0:0:0:
256,192,138770,1,12,0:0:0:0:
256,192,139070,1,12,0:0:0:0:
256,192,139370,1,0,0:0:0:0:
256,192,139520,1,0,0:0:0:0:
256,192,139670,1,0,0:0:0:0:
256,192,139970,1,0,0:0:0:0:
256,192,140120,1,0,0:0:0:0:
256,192,140270,1,0,0:0:0:0:
256,192,140570,1,12,0:0:0:0:
256,192,140870,1,12,0:0:0:0:
256,192,141170,1,12,0:0:0:0:
256,192,141470,1,12,0:0:0:0:
256,192,141770,1,0,0:0:0:0:
256,192,141920,1,0,0:0:0:0:
256,192,142070,1,0,0:0:0:0:
256,192,142370,1,0,0:0:0:0:
256,192,142520,1,0,0:0:0:0:
256,192,142670,1,0,0:0:0:0:
256,192,142970,2,0,B|256:16|256:16|208:16,2,210
256,192,144170,1,4,0:0:0:0:
256,192,144620,1,4,0:0:0:0:
256,192,145070,1,4,0:0:0:0:
256,192,145520,1,4,0:0:0:0:
256,192,145970,1,12,0:0:0:0:
256,192,146270,1,12,0:0:0:0:
