osu file format v14

[General]
AudioFilename: Yami.mp3
AudioLeadIn: 1500
PreviewTime: 51695
Countdown: 0
SampleSet: None
StackLeniency: 0.7
Mode: 0
LetterboxInBreaks: 0
WidescreenStoryboard: 1

[Editor]
Bookmarks: 109670
DistanceSpacing: 1.5
BeatDivisor: 4
GridSize: 4
TimelineZoom: 1.4

[Metadata]
Title:Yami no Mahou Shoujo
TitleUnicode:闇の魔法少女
Artist:Silver Forest feat.Aki
ArtistUnicode:Silver Forest feat.アキ
Creator:-Maruk-
Version:Extreme
Source:太鼓の達人
Tags:Taiko no Tatsujin Namco Original Kanzaki Ranko
BeatmapID:1134545
BeatmapSetID:339091

[Difficulty]
HPDrainRate:7
CircleSize:4
OverallDifficulty:7
ApproachRate:9
SliderMultiplier:1.6
SliderTickRate:1

[Events]
//Background and Video events
0,0,"BG.jpg",0,0
//Break Periods
2,66370,75170
//Storyboard Layer 0 (Background)
//Storyboard Layer 1 (Fail)
//Storyboard Layer 2 (Pass)
//Storyboard Layer 3 (Foreground)
//Storyboard Sound Samples

[TimingPoints]
170,300,4,1,1,60,1,0
2570,-100,4,1,1,60,0,1
12170,-100,4,1,1,50,0,0
31370,-125,4,1,1,50,0,0
45770,-100,4,1,1,50,0,0
49370,-100,4,1,1,40,0,0
50570,-100,4,1,1,50,0,0
51470,-100,4,2,2,70,0,0
51770,-100,4,2,2,80,0,1
51845,-100,4,1,1,60,0,1
61370,-100,4,1,1,70,0,0
75770,-100,4,1,1,50,0,0
89870,-100,4,2,2,80,0,0
90170,-125,4,1,1,50,0,0
104570,-100,4,1,1,50,0,0
110270,-100,4,2,2,80,0,0
110570,-100,4,2,2,80,0,1
110645,-100,4,1,1,50,0,1
129770,-100,4,1,1,70,0,0
134570,-100,4,2,2,80,0,1
134645,-100,4,1,1,50,0,1
136970,-100,4,2,2,80,0,1
137045,-100,4,1,1,50,0,1
139370,-100,4,2,2,80,0,1
139445,-100,4,1,1,50,0,1
141770,-100,4,2,2,80,0,1
141845,-100,4,1,1,50,0,1
144170,-100,4,1,1,70,0,0
146420,-100,4,2,2,60,0,0

[Colours]
Combo1 : 128,255,255
Combo2 : 255,128,128
Combo3 : 255,255,128
Combo4 : 128,255,128

[HitObjects]
332,240,170,5,4,0:0:0:0:
332,240,320,2,0,P|344:200|343:155,1,80
209,267,620,5,4,0:0:0:0:
209,267,770,2,0,P|224:303|249:334,1,80
209,143,1070,5,4,0:0:0:0:
209,143,1220,2,0,P|169:150|134:168,1,80
329,115,1520,5,4,0:0:0:0:
329,115,1670,2,0,P|313:78|288:47,1,80
329,239,1970,5,0,0:0:0:0:
400,176,2120,1,0,0:0:0:0:
308,100,2270,2,0,P|268:106|233:124,1,80
160,220,2570,5,4,0:0:0:0:
136,240,2645,1,0,0:0:0:0:
107,253,2720,1,0,0:0:0:0:
75,260,2795,1,0,0:0:0:0:
44,260,2870,2,0,P|30:257|9:239,3,40,8|0|0|0,0:0|0:0|0:0|0:0,0:0:0:0:
24,160,3170,2,0,L|16:120,3,40
60,52,3470,2,0,L|68:8,3,40,8|0|0|0,0:0|0:0|0:0|0:0,0:0:0:0:
100,132,3770,6,0,P|132:136|188:116,1,80
236,38,4070,2,0,P|276:38|314:52,1,80,4|0,0:0|0:0,0:0:0:0:
376,135,4370,2,0,P|403:107|415:69,1,80,4|0,0:0|0:0,0:0:0:0:
268,144,4670,2,0,P|277:182|299:215,1,80,4|0,0:0|0:0,0:0:0:0:
404,280,4970,5,4,0:0:0:0:
436,284,5045,1,0,0:0:0:0:
466,272,5120,1,0,0:0:0:0:
485,247,5195,1,0,0:0:0:0:
488,216,5270,2,0,P|490:200|493:177,3,40,8|0|0|0,0:0|0:0|0:0|0:0,0:0:0:0:
412,152,5570,2,0,L|372:160,3,40
296,196,5870,2,0,L|244:188,3,40,8|0|0|0,0:0|0:0|0:0|0:0,0:0:0:0:
180,224,6170,6,0,P|136:224|96:192,1,80
168,116,6470,2,0,P|212:116|252:148,1,80,4|0,0:0|0:0,0:0:0:0:
168,240,6770,2,0,P|124:240|84:208,1,80,4|0,0:0|0:0,0:0:0:0:
152,96,7070,2,0,P|196:96|236:128,1,80,4|0,0:0|0:0,0:0:0:0:
284,220,7370,5,4,0:0:0:0:
296,248,7445,1,0,0:0:0:0:
296,280,7520,1,0,0:0:0:0:
284,312,7595,1,0,0:0:0:0:
272,340,7670,2,0,P|270:358|272:380,3,40,8|0|0|0,0:0|0:0|0:0|0:0,0:0:0:0:
188,336,7970,2,0,P|186:318|188:296,3,40
104,352,8270,2,0,P|80:352|59:347,3,40,8|0|0|0,0:0|0:0|0:0|0:0,0:0:0:0:
12,284,8570,6,0,P|16:244|22:199,1,80
124,156,8870,2,0,P|129:195|133:235,1,80,4|0,0:0|0:0,0:0:0:0:
232,288,9170,2,0,P|236:248|242:203,1,80,4|0,0:0|0:0,0:0:0:0:
344,160,9470,2,0,P|349:199|353:239,1,80,4|0,0:0|0:0,0:0:0:0:
396,352,9770,5,4,0:0:0:0:
428,348,9845,1,0,0:0:0:0:
452,328,9920,1,0,0:0:0:0:
464,300,9995,1,0,0:0:0:0:
472,268,10070,2,0,P|472:241|468:216,3,40,8|0|0|0,0:0|0:0|0:0|0:0,0:0:0:0:
424,160,10370,2,0,P|421:140|422:120,3,40
344,92,10670,2,0,P|321:95|300:104,3,40,8|0|0|0,0:0|0:0|0:0|0:0,0:0:0:0:
232,136,10970,6,0,P|200:136|148:112,1,80
139,10,11270,2,0,P|179:11|216:28,1,80,4|0,0:0|0:0,0:0:0:0:
156,118,11570,2,0,P|139:154|128:192,1,80,4|0,0:0|0:0,0:0:0:0:
44,264,11870,2,0,P|27:227|16:190,1,80,4|0,0:0|0:0,0:0:0:0:
76,64,12170,6,0,P|112:80|150:92,1,80,4|0,0:0|0:0,0:0:0:0:
256,36,12470,1,8,0:0:0:0:
256,36,12620,2,0,P|334:28|417:23,1,160
492,80,13070,1,8,0:0:0:0:
464,172,13220,6,0,P|461:211|458:251,1,80
444,348,13520,1,0,0:0:0:0:
348,368,13670,2,0,P|312:360|276:328,1,80,8|0,0:0|0:0,0:0:0:0:
244,244,13970,2,0,P|204:248|168:264,1,80
88,316,14270,1,8,0:0:0:0:
36,208,14420,6,0,P|31:127|28:36,1,160
144,16,14870,2,0,P|147:72|147:105,1,80,8|0,0:0|0:0,0:0:0:0:
152,192,15170,1,0,0:0:0:0:
240,156,15320,2,0,P|277:156|318:169,1,80,0|8,0:0|0:0,0:0:0:0:
400,216,15620,1,0,0:0:0:0:
400,216,15695,1,0,0:0:0:0:
400,216,15770,6,0,P|435:220|480:200,1,80
368,88,16070,1,8,0:0:0:0:
317,168,16220,2,0,P|304:208|311:249,1,80
368,352,16520,1,2,0:0:0:0:
424,276,16670,1,2,0:0:0:0:
309,244,16820,1,0,0:0:0:0:
309,244,16895,1,0,0:0:0:0:
309,244,16970,6,0,P|269:246|225:262,1,80
152,312,17270,1,8,0:0:0:0:
60,284,17420,2,0,P|52:214|48:112,1,160
88,40,17870,1,8,0:0:0:0:
188,108,18020,6,0,P|232:108|280:88,1,80
344,40,18320,1,0,0:0:0:0:
396,120,18470,2,0,P|400:166|388:212,1,80,8|0,0:0|0:0,0:0:0:0:
300,220,18770,2,0,P|295:259|302:298,1,80
368,372,19070,1,8,0:0:0:0:
459,210,19220,6,0,P|376:214|300:219,1,160
220,272,19670,2,0,P|188:264|148:224,1,80,8|0,0:0|0:0,0:0:0:0:
124,140,19970,1,0,0:0:0:0:
84,52,20120,2,0,P|52:60|12:100,1,80,0|8,0:0|0:0,0:0:0:0:
12,212,20420,6,0,P|14:253|17:292,1,80
72,368,20720,1,0,0:0:0:0:
152,316,20870,2,0,P|232:308|316:304,1,160,8|0,0:0|0:0,0:0:0:0:
420,252,21320,1,2,0:0:0:0:
440,344,21470,1,2,0:0:0:0:
320,276,21620,1,0,0:0:0:0:
320,276,21695,1,0,0:0:0:0:
320,276,21770,6,0,P|316:232|336:192,1,80
368,112,22070,1,8,0:0:0:0:
424,192,22220,1,0,0:0:0:0:
356,92,22370,2,0,P|312:92|272:100,1,80
188,136,22670,1,8,0:0:0:0:
100,100,22820,6,0,P|96:60|116:20,1,80
188,136,23120,1,0,0:0:0:0:
188,136,23270,2,0,P|192:175|175:211,1,80,8|0,0:0|0:0,0:0:0:0:
84,240,23570,2,0,P|79:279|96:315,1,80
172,376,23870,1,8,0:0:0:0:
272,312,24020,6,0,P|336:296|424:352,1,160
472,260,24470,2,0,P|484:224|488:176,1,80,8|0,0:0|0:0,0:0:0:0:
476,88,24770,1,0,0:0:0:0:
400,148,24920,2,0,P|356:144|320:120,1,80,0|8,0:0|0:0,0:0:0:0:
244,36,25220,1,0,0:0:0:0:
244,36,25295,1,0,0:0:0:0:
244,36,25370,6,0,P|200:40|164:64,1,80
76,132,25670,1,8,0:0:0:0:
96,36,25820,1,0,0:0:0:0:
160,140,25970,2,0,P|164:184|152:224,1,80
48,276,26270,2,0,P|44:232|56:192,1,80,8|0,0:0|0:0,0:0:0:0:
88,84,26570,5,0,0:0:0:0:
154,218,26720,2,0,P|188:244|224:252,1,80,0|8,0:0|0:0,0:0:0:0:
316,232,27020,1,0,0:0:0:0:
336,136,27170,2,0,P|342:95|348:56,1,80
442,144,27470,1,8,0:0:0:0:
452,240,27620,6,0,P|458:281|464:320,1,80
372,344,27920,1,0,0:0:0:0:
284,304,28070,2,0,P|236:308|196:324,1,80,8|0,0:0|0:0,0:0:0:0:
116,352,28370,2,0,P|101:314|100:272,1,80
108,180,28670,1,8,0:0:0:0:
172,80,28820,1,0,0:0:0:0:
172,80,28895,1,0,0:0:0:0:
172,80,28970,6,0,P|168:40|148:4,1,80
56,80,29270,1,8,0:0:0:0:
80,172,29420,2,0,P|128:188|164:188,1,80
272,152,29720,1,0,0:0:0:0:
208,80,29870,1,8,0:0:0:0:
292,32,30020,6,0,P|331:34|369:48,1,80
428,124,30320,1,0,0:0:0:0:
456,216,30470,2,0,P|449:282|369:326,1,160,8|0,0:0|0:0,0:0:0:0:
264,296,30920,1,2,0:0:0:0:
364,228,31070,1,2,0:0:0:0:
392,344,31220,1,0,0:0:0:0:
248,280,31370,6,0,P|183:284|112:292,1,128,4|8,0:0|0:0,0:0:0:0:
36,148,31820,2,0,P|99:154|163:158,1,128
260,144,32270,1,8,0:0:0:0:
200,68,32420,1,0,0:0:0:0:
160,176,32570,6,0,P|161:218|168:256,1,64
164,239,33020,2,0,P|202:273|284:288,1,128
364,248,33470,1,8,0:0:0:0:
275,289,33620,1,0,0:0:0:0:
364,248,33770,6,0,P|400:252|436:264,1,64
426,260,34220,2,0,P|460:212|464:140,1,128
428,56,34670,1,8,0:0:0:0:
336,32,34820,1,0,0:0:0:0:
256,84,34970,6,0,P|224:92|184:88,1,64
193,90,35420,2,0,P|129:82|64:96,1,128
8,172,35870,1,8,0:0:0:0:
0,76,36020,1,0,0:0:0:0:
84,164,36170,6,0,P|88:224|56:292,1,128,0|8,0:0|0:0,0:0:0:0:
61,285,36620,2,0,P|93:286|126:296,1,64
196,356,36920,1,0,0:0:0:0:
292,368,37070,1,8,0:0:0:0:
384,336,37220,1,0,0:0:0:0:
432,252,37370,6,0,P|432:216|420:180,1,64
332,124,37670,2,0,P|323:154|324:186,1,64,8|0,0:0|0:0,0:0:0:0:
432,252,37970,2,0,P|462:260|494:259,1,64
394,131,38270,2,0,P|363:122|331:123,1,64,8|0,0:0|0:0,0:0:0:0:
236,184,38570,6,0,P|218:152|216:120,1,64
228,32,38870,1,8,0:0:0:0:
140,72,39020,2,0,P|84:92|16:76,1,128
8,172,39470,2,0,P|8:208|16:244,1,64,8|0,0:0|0:0,0:0:0:0:
56,324,39770,6,0,P|84:336|120:336,1,64
117,336,40220,2,0,P|152:328|244:344,1,128
332,380,40670,1,4,0:0:0:0:
412,328,40820,1,0,0:0:0:0:
328,280,40970,6,0,P|322:219|321:153,1,128,0|8,0:0|0:0,0:0:0:0:
460,88,41420,2,0,P|458:151|453:215,1,128
388,288,41870,1,8,0:0:0:0:
292,296,42020,1,0,0:0:0:0:
212,244,42170,6,0,P|178:244|144:256,1,64
149,253,42620,2,0,P|104:264|16:244,1,128
4,156,43070,1,8,0:0:0:0:
24,248,43220,1,0,0:0:0:0:
4,156,43370,6,0,P|65:140|128:151,1,128,0|8,0:0|0:0,0:0:0:0:
168,240,43820,2,0,P|212:207|224:132,1,128
200,44,44270,1,8,0:0:0:0:
132,112,44420,1,0,0:0:0:0:
225,138,44570,6,0,P|256:148|292:148,1,64
287,148,45020,2,0,P|336:136|436:148,1,128
496,188,45470,1,8,0:0:0:0:
476,96,45620,1,0,0:0:0:0:
404,212,45770,6,0,P|404:256|412:300,1,80,4|0,0:0|0:0,0:0:0:0:
492,344,46070,1,8,0:0:0:0:
409,291,46220,2,0,P|368:288|328:300,1,80
228,360,46520,1,0,0:0:0:0:
256,244,46670,1,8,0:0:0:0:
344,328,46820,1,0,0:0:0:0:
228,360,46970,6,0,P|184:356|144:336,1,80,4|0,0:0|0:0,0:0:0:0:
84,244,47270,1,8,0:0:0:0:
56,336,47420,1,0,0:0:0:0:
169,261,47570,1,0,0:0:0:0:
141,169,47720,1,0,0:0:0:0:
56,336,47870,2,0,P|36:308|32:260,1,80,8|0,0:0|0:0,0:0:0:0:
66,141,48170,6,0,P|104:150|146:173,1,80,4|0,0:0|0:0,0:0:0:0:
208,236,48470,2,0,P|246:227|288:204,1,80,8|0,0:0|0:0,0:0:0:0:
345,61,48770,2,0,P|311:83|284:111,1,80,4|0,0:0|0:0,0:0:0:0:
269,286,49070,2,0,P|242:258|208:236,1,80,8|0,0:0|0:0,0:0:0:0:
348,200,49370,5,12,0:0:0:0:
348,200,49445,1,8,0:0:0:0:
348,200,49520,1,8,0:0:0:0:
283,111,49670,1,8,0:0:0:0:
283,111,49745,1,8,0:0:0:0:
283,111,49820,1,8,0:0:0:0:
416,36,49970,1,8,0:0:0:0:
416,36,50045,1,8,0:0:0:0:
416,36,50120,2,0,P|437:39|460:46,2,40,8|8|8,0:0|0:0|0:0,0:0:0:0:
302,76,50420,1,8,0:0:0:0:
283,111,50495,1,8,0:0:0:0:
252,132,50570,6,0,P|216:136|144:88,1,120,4|0,0:0|0:0,0:0:0:0:
104,40,50870,2,0,P|60:68|56:136,1,120,4|0,0:0|0:0,0:0:0:0:
72,200,51170,2,0,L|56:318,1,120,4|0,0:0|0:0,0:0:0:0:
116,288,51470,2,0,P|164:284|232:324,1,120,8|0,0:0|0:0,0:0:0:0:
272,368,51770,6,0,P|308:368|352:348,1,80,4|0,0:0|0:0,0:0:0:0:
432,264,52070,1,8,0:0:0:0:
376,188,52220,2,0,P|379:148|392:108,1,80
452,36,52520,1,0,0:0:0:0:
472,156,52670,1,8,0:0:0:0:
364,100,52820,1,0,0:0:0:0:
256,156,52970,6,0,P|213:165|172:156,1,80
116,84,53270,2,0,P|116:44|132:4,1,80,8|0,0:0|0:0,0:0:0:0:
241,79,53570,2,0,P|255:116|255:155,1,80
172,240,53870,1,8,0:0:0:0:
268,252,54020,1,0,0:0:0:0:
172,240,54170,6,0,P|94:233|12:220,1,160,0|8,0:0|0:0,0:0:0:0:
140,132,54620,1,0,0:0:0:0:
172,240,54770,2,0,P|180:284|196:316,1,80
304,368,55070,1,8,0:0:0:0:
195,315,55220,1,0,0:0:0:0:
304,264,55370,5,0,0:0:0:0:
332,248,55445,1,0,0:0:0:0:
364,244,55520,1,0,0:0:0:0:
396,252,55595,1,0,0:0:0:0:
424,264,55670,2,0,P|448:264|480:256,3,40,8|0|0|0,0:0|0:0|0:0|0:0,0:0:0:0:
492,168,55970,2,0,P|490:147|488:128,3,40
432,52,56270,2,0,P|388:56|336:68,1,80,4|0,0:0|0:0,0:0:0:0:
264,144,56570,6,0,P|224:140|184:116,1,80
124,20,56870,1,8,0:0:0:0:
52,84,57020,2,0,P|32:124|32:176,1,80
76,268,57320,1,0,0:0:0:0:
148,172,57470,1,8,0:0:0:0:
29,158,57620,1,0,0:0:0:0:
72,296,57770,6,0,P|108:344|212:348,1,160,0|8,0:0|0:0,0:0:0:0:
276,292,58220,2,0,P|316:296|360:312,1,80
464,260,58520,1,0,0:0:0:0:
376,216,58670,1,8,0:0:0:0:
392,336,58820,1,0,0:0:0:0:
468,224,58970,6,0,P|475:145|480:64,1,160,0|8,0:0|0:0,0:0:0:0:
368,24,59420,2,0,P|368:66|373:116,1,80
324,216,59720,1,0,0:0:0:0:
416,184,59870,1,8,0:0:0:0:
308,136,60020,1,0,0:0:0:0:
340,296,60170,6,0,P|288:316|192:264,1,160,0|8,0:0|0:0,0:0:0:0:
160,184,60620,1,0,0:0:0:0:
128,92,60770,2,0,L|44:108,1,80
119,259,61070,2,0,L|197:273,1,80,12|0,0:0|0:0,0:0:0:0:
308,320,61370,5,4,0:0:0:0:
308,320,61520,2,0,P|348:308|376:276,1,80
255,131,61820,5,4,0:0:0:0:
254,131,61970,2,0,P|257:171|280:204,1,80
401,55,62270,5,4,0:0:0:0:
401,55,62420,2,0,P|398:95|376:128,1,80
204,191,62720,5,4,0:0:0:0:
204,191,62870,2,0,P|240:207|279:203,1,80
376,128,63170,5,8,0:0:0:0:
408,124,63245,1,8,0:0:0:0:
440,136,63320,1,8,0:0:0:0:
468,152,63395,1,8,0:0:0:0:
492,172,63470,2,0,P|496:131|486:92,1,80,4|0,0:0|0:0,0:0:0:0:
384,204,63770,5,4,0:0:0:0:
384,204,63920,2,0,P|401:239|430:267,1,80
336,336,64220,5,4,0:0:0:0:
336,336,64370,2,0,P|296:333|259:317,1,80
128,204,64670,5,4,0:0:0:0:
127,203,64820,2,0,P|167:206|204:222,1,80
71,344,65120,5,4,0:0:0:0:
71,344,65270,2,0,P|109:333|142:310,1,80
204,222,65570,5,0,0:0:0:0:
236,312,65720,1,0,0:0:0:0:
127,203,65870,2,0,P|132:164|152:128,1,80
151,128,66170,5,4,0:0:0:0:
384,120,75770,6,0,P|344:120|298:142,1,80,4|0,0:0|0:0,0:0:0:0:
196,176,76070,2,0,P|212:212|256:244,1,80,8|0,0:0|0:0,0:0:0:0:
336,320,76370,2,0,P|366:243|344:168,1,160,0|8,0:0|0:0,0:0:0:0:
112,108,76970,6,0,P|131:142|161:168,1,80,4|0,0:0|0:0,0:0:0:0:
274,213,77270,2,0,P|283:168|274:125,1,80,8|0,0:0|0:0,0:0:0:0:
196,20,77570,2,0,P|157:88|161:167,1,160,0|8,0:0|0:0,0:0:0:0:
335,327,78170,6,0,P|375:327|415:307,1,80,4|0,0:0|0:0,0:0:0:0:
511,239,78470,2,0,P|480:208|439:190,1,80,8|0,0:0|0:0,0:0:0:0:
336,236,78770,2,0,P|273:269|177:249,1,160,0|8,0:0|0:0,0:0:0:0:
81,41,79370,6,0,P|120:41|158:55,1,80,4|0,0:0|0:0,0:0:0:0:
228,156,79670,1,12,0:0:0:0:
252,64,79820,1,0,0:0:0:0:
140,140,79970,1,4,0:0:0:0:
164,232,80120,1,0,0:0:0:0:
240,108,80270,2,0,P|276:112|320:132,1,80,12|0,0:0|0:0,0:0:0:0:
400,216,80570,6,0,P|436:212|480:192,1,80,4|0,0:0|0:0,0:0:0:0:
315,129,80870,2,0,P|289:167|282:200,1,80,8|0,0:0|0:0,0:0:0:0:
320,312,81170,2,0,P|372:336|417:255,1,160,0|8,0:0|0:0,0:0:0:0:
224,128,81770,6,0,P|176:136|144:152,1,80,4|0,0:0|0:0,0:0:0:0:
56,224,82070,2,0,P|34:182|32:146,1,80,8|0,0:0|0:0,0:0:0:0:
176,224,82370,2,0,P|155:296|83:344,1,160,0|8,0:0|0:0,0:0:0:0:
224,128,82970,6,0,P|272:136|304:152,1,80,4|0,0:0|0:0,0:0:0:0:
340,36,83270,2,0,P|373:57|400:87,1,80,8|0,0:0|0:0,0:0:0:0:
424,204,83570,2,0,B|436:256|408:324|408:324|444:300,1,160,0|8,0:0|0:0,0:0:0:0:
204,256,84170,6,0,P|162:258|120:261,1,80,4|0,0:0|0:0,0:0:0:0:
60,156,84470,1,12,0:0:0:0:
28,248,84620,1,0,0:0:0:0:
144,180,84770,1,4,0:0:0:0:
112,88,84920,1,0,0:0:0:0:
44,201,85070,2,0,L|8:302,1,80,12|0,0:0|0:0,0:0:0:0:
136,284,85370,6,0,L|172:385,1,80,4|0,0:0|0:0,0:0:0:0:
268,296,85670,2,0,P|308:299|352:316,1,80,8|0,0:0|0:0,0:0:0:0:
456,272,85970,2,0,P|465:192|476:108,1,160,0|8,0:0|0:0,0:0:0:0:
244,48,86570,6,0,P|248:88|254:130,1,80,4|0,0:0|0:0,0:0:0:0:
264,248,86870,2,0,P|223:247|177:220,1,80,8|0,0:0|0:0,0:0:0:0:
124,128,87170,2,0,P|52:128|8:208,1,160,0|8,0:0|0:0,0:0:0:0:
180,364,87770,6,0,P|219:363|255:346,1,80,4|0,0:0|0:0,0:0:0:0:
324,248,88070,2,0,L|316:168,1,80,8|0,0:0|0:0,0:0:0:0:
336,48,88370,2,0,P|372:28|456:104,1,160,0|8,0:0|0:0,0:0:0:0:
312,284,88970,6,0,L|232:292,1,80,4|0,0:0|0:0,0:0:0:0:
136,165,89270,2,0,L|216:172,1,80,8|0,0:0|0:0,0:0:0:0:
332,300,89570,2,0,L|244:308,1,80
128,248,89870,1,8,0:0:0:0:
164,336,90020,1,0,0:0:0:0:
208,224,90170,6,0,P|210:164|216:96,1,128,4|8,0:0|0:0,0:0:0:0:
352,32,90620,2,0,P|354:92|360:160,1,128
416,240,91070,1,8,0:0:0:0:
456,152,91220,1,0,0:0:0:0:
360,160,91370,6,0,P|326:161|292:168,1,64
296,166,91820,2,0,P|266:174|168:158,1,128
108,88,92270,1,8,0:0:0:0:
171,159,92420,1,0,0:0:0:0:
108,88,92570,6,0,P|74:88|36:77,1,64
45,80,93020,2,0,P|26:140|29:206,1,128
60,296,93470,1,8,0:0:0:0:
148,332,93620,1,0,0:0:0:0:
232,288,93770,6,0,P|265:290|296:300,1,64
294,299,94220,2,0,P|291:237|288:169,1,128
304,56,94670,1,8,0:0:0:0:
220,104,94820,1,0,0:0:0:0:
288,171,94970,6,0,P|319:172|355:167,1,64
351,167,95420,2,0,P|384:160|480:196,1,128
508,276,95870,1,8,0:0:0:0:
460,360,96020,1,0,0:0:0:0:
368,332,96170,6,0,P|335:332|300:340,1,64
280,232,96470,2,0,P|250:245|221:267,1,64,8|0,0:0|0:0,0:0:0:0:
144,188,96770,2,0,P|122:162|106:130,1,64
40,224,97070,2,0,P|19:248|4:276,1,64,8|0,0:0|0:0,0:0:0:0:
132,352,97370,6,0,P|140:288|144:224,1,128,0|8,0:0|0:0,0:0:0:0:
108,135,97820,2,0,P|140:96|228:95,1,128
296,136,98270,1,8,0:0:0:0:
296,40,98420,1,0,0:0:0:0:
213,87,98570,6,0,P|208:120|208:160,1,64
207,150,99020,2,0,P|230:204|296:228,1,128
388,220,99470,1,4,0:0:0:0:
332,144,99620,1,0,0:0:0:0:
456,168,99770,6,0,P|476:224|439:289,1,128,0|8,0:0|0:0,0:0:0:0:
447,282,100220,2,0,P|379:277|320:272,1,128
232,220,100670,1,8,0:0:0:0:
236,316,100820,1,0,0:0:0:0:
148,352,100970,6,0,P|116:352|84:332,1,64
88,336,101420,2,0,P|90:275|96:200,1,128
120,116,101870,1,8,0:0:0:0:
28,140,102020,1,0,0:0:0:0:
95,208,102170,6,0,P|120:216|168:216,1,64
157,217,102620,2,0,P|188:208|296:228,1,128
340,296,103070,1,8,0:0:0:0:
380,208,103220,1,0,0:0:0:0:
344,120,103370,6,0,P|336:85|336:56,1,64
335,57,103820,2,0,P|396:50|456:100,1,128
488,176,104270,1,8,0:0:0:0:
392,160,104420,1,0,0:0:0:0:
424,276,104570,6,0,L|516:260,1,80,4|0,0:0|0:0,0:0:0:0:
392,160,104870,1,8,0:0:0:0:
332,236,105020,2,0,L|246:222,1,80
180,128,105320,1,0,0:0:0:0:
136,240,105470,1,8,0:0:0:0:
253,223,105620,1,0,0:0:0:0:
196,328,105770,6,0,P|159:343|115:343,1,80,4|0,0:0|0:0,0:0:0:0:
24,268,106070,1,8,0:0:0:0:
56,176,106220,1,0,0:0:0:0:
176,184,106370,1,0,0:0:0:0:
144,92,106520,1,0,0:0:0:0:
268,36,106670,2,0,P|253:78|236:124,1,80,8|0,0:0|0:0,0:0:0:0:
176,184,106970,6,0,P|196:220|228:248,1,80,4|0,0:0|0:0,0:0:0:0:
136,308,107270,2,0,P|106:334|87:369,1,80,8|0,0:0|0:0,0:0:0:0:
96,204,107570,2,0,P|76:169|47:142,1,80,4|0,0:0|0:0,0:0:0:0:
140,76,107870,2,0,P|169:49|188:14,1,80,8|0,0:0|0:0,0:0:0:0:
252,116,108170,5,12,0:0:0:0:
252,116,108245,1,8,0:0:0:0:
252,116,108320,1,8,0:0:0:0:
140,76,108470,1,8,0:0:0:0:
140,76,108545,1,8,0:0:0:0:
140,76,108620,1,8,0:0:0:0:
208,212,108770,1,8,0:0:0:0:
208,212,108845,1,8,0:0:0:0:
208,212,108920,2,0,P|207:231|205:252,2,40,8|8|8,0:0|0:0|0:0,0:0:0:0:
220,92,109220,1,8,0:0:0:0:
252,116,109295,1,8,0:0:0:0:
288,132,109370,6,0,P|312:144|400:104,1,120,4|0,0:0|0:0,0:0:0:0:
436,60,109670,2,0,P|443:121|448:184,1,120,4|0,0:0|0:0,0:0:0:0:
436,248,109970,2,0,P|392:256|332:212,1,120,4|0,0:0|0:0,0:0:0:0:
312,148,110270,2,0,P|281:167|284:264,1,120,8|0,0:0|0:0,0:0:0:0:
284,312,110570,6,0,P|240:316|196:320,1,80,4|0,0:0|0:0,0:0:0:0:
88,352,110870,1,8,0:0:0:0:
28,276,111020,2,0,P|33:238|41:198,1,80
116,104,111320,1,0,0:0:0:0:
36,48,111470,1,8,0:0:0:0:
48,168,111620,1,0,0:0:0:0:
124,228,111770,6,0,P|156:250|195:258,1,80
347,137,112070,2,0,P|308:145|276:167,1,80,8|0,0:0|0:0,0:0:0:0:
276,355,112370,2,0,P|298:322|306:283,1,80
196,176,112670,1,8,0:0:0:0:
136,280,112820,1,0,0:0:0:0:
224,360,112970,6,0,P|268:356|390:348,1,160,0|8,0:0|0:0,0:0:0:0:
468,276,113420,1,0,0:0:0:0:
428,172,113570,2,0,P|435:127|448:84,1,80
312,120,113870,1,8,0:0:0:0:
380,28,114020,1,0,0:0:0:0:
428,172,114170,5,0,0:0:0:0:
416,200,114245,1,0,0:0:0:0:
412,232,114320,1,0,0:0:0:0:
420,264,114395,1,0,0:0:0:0:
428,296,114470,2,0,P|429:319|424:348,3,40,8|0|0|0,0:0|0:0|0:0|0:0,0:0:0:0:
336,368,114770,2,0,P|338:348|337:328,3,40
244,308,115070,2,0,P|200:312|148:324,1,80,4|0,0:0|0:0,0:0:0:0:
44,300,115370,6,0,P|49:261|60:216,1,80
44,100,115670,1,8,0:0:0:0:
128,144,115820,2,0,P|156:152|212:152,1,80
304,84,116120,1,0,0:0:0:0:
206,152,116270,1,8,0:0:0:0:
204,32,116420,1,0,0:0:0:0:
288,168,116570,6,0,P|264:219|168:231,1,160,0|8,0:0|0:0,0:0:0:0:
80,152,117020,2,0,P|87:114|96:72,1,80
206,152,117320,1,0,0:0:0:0:
168,48,117470,1,8,0:0:0:0:
112,172,117620,1,0,0:0:0:0:
248,76,117770,6,0,P|320:74|416:68,1,160,0|8,0:0|0:0,0:0:0:0:
504,140,118220,2,0,P|496:179|493:219,1,80
416,312,118520,1,0,0:0:0:0:
372,224,118670,1,8,0:0:0:0:
488,248,118820,1,0,0:0:0:0:
404,336,118970,5,0,0:0:0:0:
376,348,119045,1,0,0:0:0:0:
344,348,119120,1,0,0:0:0:0:
312,336,119195,1,0,0:0:0:0:
284,320,119270,2,0,P|260:321|230:327,3,40,8|0|0|0,0:0|0:0|0:0|0:0,0:0:0:0:
160,360,119570,2,0,P|136:360|112:352,3,40
44,300,119870,2,0,L|56:216,1,80,4|0,0:0|0:0,0:0:0:0:
172,88,120170,6,0,L|184:168,1,80,4|0,0:0|0:0,0:0:0:0:
224,256,120470,1,8,0:0:0:0:
304,204,120620,2,0,P|342:205|392:220,1,80
484,280,120920,1,0,0:0:0:0:
392,308,121070,1,8,0:0:0:0:
428,192,121220,1,0,0:0:0:0:
364,120,121370,5,0,0:0:0:0:
364,120,121520,2,0,P|368:80|384:40,1,80,0|8,0:0|0:0,0:0:0:0:
464,176,121820,1,0,0:0:0:0:
364,244,121970,2,0,P|320:236|281:212,1,80
224,120,122270,1,8,0:0:0:0:
316,148,122420,1,0,0:0:0:0:
192,204,122570,6,0,P|134:142|146:73,1,160,0|8,0:0|0:0,0:0:0:0:
272,20,123020,1,0,0:0:0:0:
316,148,123170,2,0,P|344:168|396:180,1,80
496,124,123470,1,8,0:0:0:0:
408,88,123620,1,0,0:0:0:0:
420,208,123770,5,0,0:0:0:0:
428,240,123845,1,0,0:0:0:0:
428,272,123920,1,0,0:0:0:0:
416,304,123995,1,0,0:0:0:0:
404,332,124070,2,0,P|404:352|408:376,3,40,8|0|0|0,0:0|0:0|0:0|0:0,0:0:0:0:
308,344,124370,2,0,P|287:341|268:341,3,40
176,360,124670,2,0,P|140:360|92:344,1,80,4|0,0:0|0:0,0:0:0:0:
32,228,124970,6,0,P|68:228|116:244,1,80,4|0,0:0|0:0,0:0:0:0:
196,284,125270,1,8,0:0:0:0:
268,220,125420,2,0,P|260:176|244:140,1,80
180,52,125720,1,0,0:0:0:0:
132,156,125870,1,8,0:0:0:0:
246,143,126020,1,0,0:0:0:0:
96,80,126170,6,0,P|53:130|84:224,1,160,0|8,0:0|0:0,0:0:0:0:
172,272,126620,2,0,L|260:264,1,80
360,300,126920,1,0,0:0:0:0:
328,208,127070,1,8,0:0:0:0:
260,308,127220,1,0,0:0:0:0:
332,184,127370,6,0,P|336:112|340:24,1,160,0|8,0:0|0:0,0:0:0:0:
464,92,127820,2,0,P|466:135|468:184,1,80
392,264,128120,1,0,0:0:0:0:
384,168,128270,1,8,0:0:0:0:
472,248,128420,1,0,0:0:0:0:
372,316,128570,6,0,P|344:332|252:268,1,160,0|8,0:0|0:0,0:0:0:0:
232,176,129020,1,0,0:0:0:0:
160,80,129170,2,0,P|120:80|76:96,1,80
40,244,129470,2,0,P|80:248|128:232,1,80,12|0,0:0|0:0,0:0:0:0:
232,176,129770,5,4,0:0:0:0:
232,176,129920,2,0,P|252:136|256:84,1,80
124,204,130220,5,4,0:0:0:0:
124,204,130370,2,0,P|139:239|172:271,1,80
276,272,130670,5,4,0:0:0:0:
276,272,130820,2,0,P|268:312|239:351,1,80
264,164,131120,5,4,0:0:0:0:
264,164,131270,2,0,P|302:165|350:194,1,80
408,284,131570,1,8,0:0:0:0:
436,268,131645,1,8,0:0:0:0:
452,240,131720,1,8,0:0:0:0:
456,208,131795,1,8,0:0:0:0:
448,176,131870,2,0,P|448:136|464:88,1,80,4|0,0:0|0:0,0:0:0:0:
328,40,132170,5,4,0:0:0:0:
328,40,132320,2,0,P|328:80|312:128,1,80
212,156,132620,5,4,0:0:0:0:
212,156,132770,2,0,P|234:194|264:216,1,80
364,260,133070,5,4,0:0:0:0:
364,260,133220,2,0,P|395:229|436:212,1,80
368,372,133520,5,4,0:0:0:0:
368,372,133670,2,0,P|324:364|288:338,1,80
236,240,133970,1,0,0:0:0:0:
328,264,134120,1,0,0:0:0:0:
192,336,134270,2,0,L|108:320,1,80
36,228,134570,5,4,0:0:0:0:
20,200,134645,1,0,0:0:0:0:
20,168,134720,1,0,0:0:0:0:
32,140,134795,1,0,0:0:0:0:
52,116,134870,2,0,P|56:92|58:69,3,40,8|0|0|0,0:0|0:0|0:0|0:0,0:0:0:0:
136,132,135170,2,0,P|138:151|141:171,3,40
224,124,135470,2,0,P|245:124|280:128,3,40,8|0|0|0,0:0|0:0|0:0|0:0,0:0:0:0:
348,80,135770,6,0,P|384:84|428:104,1,80
456,216,136070,2,0,P|420:212|376:192,1,80,4|0,0:0|0:0,0:0:0:0:
336,64,136370,2,0,P|372:68|416:88,1,80,4|0,0:0|0:0,0:0:0:0:
464,236,136670,2,0,P|428:232|384:212,1,80,4|0,0:0|0:0,0:0:0:0:
272,132,136970,5,4,0:0:0:0:
240,124,137045,1,0,0:0:0:0:
208,136,137120,1,0,0:0:0:0:
180,152,137195,1,0,0:0:0:0:
153,167,137270,2,0,P|131:165|111:160,3,40,8|0|0|0,0:0|0:0|0:0|0:0,0:0:0:0:
24,184,137570,2,0,L|21:224,3,40
84,296,137870,2,0,L|87:336,3,40,8|0|0|0,0:0|0:0|0:0|0:0,0:0:0:0:
176,300,138170,6,0,P|204:300|256:316,1,80
360,372,138470,2,0,P|372:334|374:294,1,80,4|0,0:0|0:0,0:0:0:0:
268,212,138770,2,0,P|255:249|253:289,1,80,4|0,0:0|0:0,0:0:0:0:
400,296,139070,2,0,P|428:296|480:280,1,80,4|0,0:0|0:0,0:0:0:0:
416,176,139370,5,4,0:0:0:0:
388,164,139445,1,0,0:0:0:0:
356,164,139520,1,0,0:0:0:0:
324,172,139595,1,0,0:0:0:0:
296,188,139670,2,0,P|272:188|250:180,3,40,8|0|0|0,0:0|0:0|0:0|0:0,0:0:0:0:
184,120,139970,2,0,P|160:120|138:128,3,40
60,168,140270,2,0,P|36:168|14:160,3,40,8|0|0|0,0:0|0:0|0:0|0:0,0:0:0:0:
20,260,140570,6,0,L|32:348,1,80
134,203,140870,2,0,L|146:115,1,80,4|0,0:0|0:0,0:0:0:0:
16,240,141170,2,0,L|28:328,1,80,4|0,0:0|0:0,0:0:0:0:
136,180,141470,2,0,L|148:92,1,80,4|0,0:0|0:0,0:0:0:0:
248,240,141770,5,4,0:0:0:0:
276,252,141845,1,0,0:0:0:0:
308,252,141920,1,0,0:0:0:0:
340,244,141995,1,0,0:0:0:0:
368,232,142070,2,0,P|386:233|413:241,3,40,8|0|0|0,0:0|0:0|0:0|0:0,0:0:0:0:
480,176,142370,2,0,L|488:124,3,40
448,52,142670,2,0,L|440:0,3,40,8|0|0|0,0:0|0:0|0:0|0:0,0:0:0:0:
376,116,142970,6,0,P|352:128|296:128,1,80
171,41,143270,2,0,P|208:25|248:28,1,80,4|0,0:0|0:0,0:0:0:0:
308,152,143570,2,0,L|324:232,1,80,4|0,0:0|0:0,0:0:0:0:
180,332,143870,2,0,L|195:254,1,80,4|0,0:0|0:0,0:0:0:0:
164,136,144170,5,4,0:0:0:0:
164,136,144320,2,0,L|149:58,1,80
56,188,144620,5,4,0:0:0:0:
56,188,144770,2,0,P|77:220|111:244,1,80
232,300,145070,5,4,0:0:0:0:
232,300,145220,2,0,P|199:322|177:355,1,80
336,244,145520,5,4,0:0:0:0:
336,244,145670,2,0,P|314:211|280:192,1,80
148,156,145970,5,0,0:0:0:0:
188,268,146120,1,0,0:0:0:0:
236,112,146270,2,0,P|228:72|208:32,1,80,0|8,0:0|0:0,0:0:0:0:
