osu file format v14

[General]
AudioFilename: Yami.mp3
AudioLeadIn: 1500
PreviewTime: 51695
Countdown: 0
SampleSet: None
StackLeniency: 0.7
Mode: 0
LetterboxInBreaks: 0
WidescreenStoryboard: 1

[Editor]
DistanceSpacing: 1.2
BeatDivisor: 4
GridSize: 4
TimelineZoom: 1.4

[Metadata]
Title:Yami no Mahou Shoujo
TitleUnicode:闇の魔法少女
Artist:Silver Forest feat.Aki
ArtistUnicode:Silver Forest feat.アキ
Creator:-Maruk-
Version:Advanced
Source:太鼓の達人
Tags:Taiko no Tatsujin Namco Original Kanzaki Ranko
BeatmapID:1134543
BeatmapSetID:339091

[Difficulty]
HPDrainRate:6
CircleSize:4
OverallDifficulty:6
ApproachRate:8
SliderMultiplier:1.5
SliderTickRate:1

[Events]
//Background and Video events
0,0,"BG.jpg",0,0
//Break Periods
2,66370,75020
//Storyboard Layer 0 (Background)
//Storyboard Layer 1 (Fail)
//Storyboard Layer 2 (Pass)
//Storyboard Layer 3 (Foreground)
//Storyboard Sound Samples

[TimingPoints]
170,300,4,1,1,60,1,0
2570,-100,4,1,1,60,0,1
12170,-100,4,1,1,50,0,0
31370,-125,4,1,1,50,0,0
45770,-100,4,1,1,50,0,0
51470,-100,4,2,2,70,0,0
51770,-100,4,2,2,80,0,1
51845,-100,4,1,1,60,0,1
61370,-100,4,1,1,70,0,0
75770,-100,4,1,1,50,0,0
89870,-100,4,2,2,80,0,0
90170,-125,4,1,1,50,0,0
104570,-100,4,1,1,50,0,0
110270,-100,4,2,2,80,0,0
110570,-100,4,2,2,80,0,1
110645,-100,4,1,1,50,0,1
129770,-100,4,1,1,70,0,0
134570,-100,4,2,2,90,0,1
134645,-100,4,1,1,50,0,1
136970,-100,4,2,2,90,0,1
137045,-100,4,1,1,50,0,1
139370,-100,4,2,2,90,0,1
139445,-100,4,1,1,50,0,1
141770,-100,4,2,2,90,0,1
141845,-100,4,1,1,50,0,1
144170,-100,4,1,1,70,0,0
146420,-100,4,2,2,60,0,0

[Colours]
Combo1 : 128,255,255
Combo2 : 255,128,128
Combo3 : 255,255,128
Combo4 : 128,255,128

[HitObjects]
212,196,170,6,0,P|175:185|136:184,2,75,4|0|0,0:0|0:0|0:0,0:0:0:0:
280,256,620,2,0,P|317:254|353:243,2,75,4|0|0,0:0|0:0|0:0,0:0:0:0:
212,196,1070,2,0,P|201:159|200:120,2,75,4|0|0,0:0|0:0|0:0,0:0:0:0:
280,256,1520,2,0,P|277:294|267:330,2,75,4|0|0,0:0|0:0|0:0,0:0:0:0:
212,196,1970,2,0,P|175:185|136:184,1,75,4|0,0:0|0:0,0:0:0:0:
52,208,2270,2,0,P|40:245|32:292,1,75
84,356,2570,6,0,P|118:352|160:348,1,75,4|0,0:0|0:0,0:0:0:0:
228,292,2870,2,0,P|262:295|304:300,1,75,8|0,0:0|0:0,0:0:0:0:
388,332,3170,2,0,P|408:331|428:323,3,37.5
448,308,3470,2,0,P|458:292|464:275,3,37.5,8|0|0|0,0:0|0:0|0:0|0:0,0:0:0:0:
468,244,3770,6,0,P|472:204|477:155,1,75
388,195,4070,2,0,P|315:188|265:133,2,150,4|4|4,0:0|0:0|0:0,0:0:0:0:
372,16,4969,6,0,P|368:53|364:90,1,75,4|0,0:0|0:0,0:0:0:0:
280,120,5270,2,0,P|248:120|204:104,1,75,8|0,0:0|0:0,0:0:0:0:
136,52,5570,2,0,P|116:52|97:58,3,37.5
72,72,5870,2,0,P|49:73|31:67,3,37.5,8|0|0|0,0:0|0:0|0:0|0:0,0:0:0:0:
8,56,6170,6,0,P|1:92|0:132,1,75
32,216,6470,2,0,P|40:296|16:378,2,150,4|4|4,0:0|0:0|0:0,0:0:0:0:
99,57,7370,6,0,P|120:92|152:120,1,75,4|0,0:0|0:0,0:0:0:0:
232,144,7670,2,0,P|238:181|226:231,1,75,8|0,0:0|0:0,0:0:0:0:
152,264,7970,2,0,P|144:280|140:306,3,37.5
132,328,8270,2,0,P|136:344|154:360,3,37.5,8|0|0|0,0:0|0:0|0:0|0:0,0:0:0:0:
180,372,8570,6,0,P|208:376|264:360,1,75
320,308,8870,2,0,P|363:294|460:328,2,150,4|4|4,0:0|0:0|0:0,0:0:0:0:
150,358,9770,6,0,P|144:320|145:278,1,75,4|0,0:0|0:0,0:0:0:0:
164,196,10070,2,0,P|200:196|240:208,1,75,8|0,0:0|0:0,0:0:0:0:
308,260,10370,2,0,P|324:264|348:264,3,37.5
372,256,10670,2,0,P|390:255|412:260,3,37.5,8|0|0|0,0:0|0:0|0:0|0:0,0:0:0:0:
436,272,10970,6,0,P|480:280|512:268,1,75
468,184,11270,2,0,P|460:116|476:32,2,150,4|4|4,0:0|0:0|0:0,0:0:0:0:
507,270,12020,1,0,0:0:0:0:
444,336,12170,6,0,P|408:336|368:312,1,75,4|0,0:0|0:0,0:0:0:0:
324,244,12470,1,8,0:0:0:0:
252,192,12620,1,0,0:0:0:0:
252,192,12770,2,0,P|197:184|130:247,1,150,0|8,0:0|0:0,0:0:0:0:
216,276,13220,6,0,P|222:313|216:352,1,75
132,316,13520,1,0,0:0:0:0:
132,316,13670,2,0,P|87:315|57:329,1,75,8|0,0:0|0:0,0:0:0:0:
12,252,13970,2,0,P|3:211|6:163,1,75
20,88,14270,1,8,0:0:0:0:
88,144,14420,6,0,P|128:164|176:80,1,150
168,4,14870,2,0,P|208:13|260:36,1,75,8|0,0:0|0:0,0:0:0:0:
316,72,15170,1,0,0:0:0:0:
388,124,15320,2,0,P|428:124|480:104,1,75,0|8,0:0|0:0,0:0:0:0:
415,35,15620,1,0,0:0:0:0:
415,35,15770,6,0,P|375:35|323:55,1,75
288,120,16070,1,8,0:0:0:0:
288,120,16220,2,0,L|280:200,1,75
196,228,16520,1,2,0:0:0:0:
196,228,16670,2,0,L|188:153,1,75,2|0,0:0|0:0,0:0:0:0:
112,104,16970,6,0,P|47:94|8:159,1,150,0|8,0:0|0:0,0:0:0:0:
20,248,17420,1,0,0:0:0:0:
40,336,17570,2,0,P|71:348|125:347,1,75
192,308,17870,1,8,0:0:0:0:
272,264,18020,6,0,P|309:264|344:277,1,75
412,336,18320,1,0,0:0:0:0:
412,336,18470,2,0,P|464:332|484:312,1,75,8|0,0:0|0:0,0:0:0:0:
500,228,18770,2,0,P|494:146|494:75,1,150,0|8,0:0|0:0,0:0:0:0:
416,120,19220,6,0,P|376:116|344:96,1,75
276,44,19520,1,0,0:0:0:0:
200,92,19670,1,8,0:0:0:0:
200,92,19820,2,0,P|200:135|212:180,1,75
260,240,20120,2,0,P|256:284|236:324,1,75,0|8,0:0|0:0,0:0:0:0:
172,260,20420,6,0,P|111:250|28:296,1,150
16,200,20870,2,0,P|13:169|26:113,1,75,8|0,0:0|0:0,0:0:0:0:
52,40,21170,1,0,0:0:0:0:
116,104,21320,1,2,0:0:0:0:
116,104,21470,2,0,P|155:100|188:88,1,75,2|0,0:0|0:0,0:0:0:0:
252,28,21770,6,0,P|308:36|328:128,1,150,0|8,0:0|0:0,0:0:0:0:
284,192,22220,1,0,0:0:0:0:
368,220,22370,2,0,P|403:220|444:200,1,75
468,288,22670,1,8,0:0:0:0:
468,288,22820,6,0,P|472:331|477:371,1,75
388,336,23120,1,0,0:0:0:0:
304,300,23270,2,0,P|269:300|228:320,1,75,8|0,0:0|0:0,0:0:0:0:
157,364,23570,2,0,P|145:331|147:285,1,75
124,204,23870,1,8,0:0:0:0:
124,204,24020,6,0,P|80:180|24:256,1,150
8,332,24470,2,0,P|44:348|84:352,1,75,8|0,0:0|0:0,0:0:0:0:
145,291,24770,2,0,P|197:295|233:319,1,75
284,364,25070,1,8,0:0:0:0:
356,312,25220,6,0,P|368:256|368:228,1,75
352,148,25520,2,0,P|312:160|264:152,1,75,0|8,0:0|0:0,0:0:0:0:
208,104,25820,1,0,0:0:0:0:
140,44,25970,2,0,P|102:41|67:53,2,75,0|0|8,0:0|0:0|0:0,0:0:0:0:
208,104,26420,1,0,0:0:0:0:
160,180,26570,6,0,P|160:224|176:260,1,75
220,328,26870,1,8,0:0:0:0:
300,288,27020,1,0,0:0:0:0:
300,288,27170,2,0,P|356:273|443:330,1,150,0|8,0:0|0:0,0:0:0:0:
492,244,27620,6,0,P|496:200|500:152,1,75
476,84,27920,1,0,0:0:0:0:
476,84,28070,2,0,P|432:80|396:92,1,75,8|0,0:0|0:0,0:0:0:0:
336,148,28370,2,0,P|302:158|257:146,1,75
192,100,28670,1,8,0:0:0:0:
192,100,28820,6,0,L|200:16,1,75
112,56,29120,2,0,L|104:140,1,75,0|8,0:0|0:0,0:0:0:0:
56,204,29420,2,0,L|64:284,1,75
56,368,29720,1,0,0:0:0:0:
136,328,29870,1,8,0:0:0:0:
216,364,30020,6,0,P|260:372|312:288,1,150
292,208,30470,2,0,P|324:212|372:224,1,75,8|0,0:0|0:0,0:0:0:0:
452,256,30770,1,0,0:0:0:0:
500,180,30920,1,2,0:0:0:0:
500,180,31070,2,0,P|500:140|492:96,1,75,2|0,0:0|0:0,0:0:0:0:
412,144,31370,6,0,P|364:152|320:88,1,120,4|8,0:0|0:0,0:0:0:0:
336,24,31820,2,0,P|281:32|242:91,1,120
240,160,32270,1,8,0:0:0:0:
196,224,32420,1,0,0:0:0:0:
128,260,32570,2,0,L|64:249,1,60
16,104,33020,2,0,L|146:130,1,120
207,151,33470,1,8,0:0:0:0:
252,216,33620,1,0,0:0:0:0:
280,288,33770,6,0,P|321:334|380:344,1,120,2|8,0:0|0:0,0:0:0:0:
440,296,34220,2,0,P|450:229|460:172,1,120
472,100,34670,1,8,0:0:0:0:
420,40,34820,1,0,0:0:0:0:
348,76,34970,2,0,L|284:64,1,60,2|0,0:0|0:0,0:0:0:0:
160,156,35420,2,0,P|162:218|168:280,1,120
196,348,35870,2,0,P|166:355|138:363,1,60,8|0,0:0|0:0,0:0:0:0:
60,376,36170,6,0,P|20:352|20:272,1,120,2|8,0:0|0:0,0:0:0:0:
52,216,36620,2,0,P|51:156|46:80,1,120
100,36,37070,1,8,0:0:0:0:
168,76,37220,1,0,0:0:0:0:
216,136,37370,2,0,P|248:136|280:124,1,60
332,72,37670,2,0,P|385:57|460:68,2,120,8|0|8,0:0|0:0|0:0,0:0:0:0:
212,176,38570,6,0,P|197:229|227:288,1,120,0|8,0:0|0:0,0:0:0:0:
276,224,39020,2,0,P|326:215|396:235,1,120
456,276,39470,1,8,0:0:0:0:
436,352,39620,1,0,0:0:0:0:
360,372,39770,2,0,P|328:368|296:360,1,60,2|0,0:0|0:0,0:0:0:0:
188,256,40220,2,0,P|132:252|68:284,1,120
16,224,40670,2,0,P|10:193|8:160,1,60,4|0,0:0|0:0,0:0:0:0:
16,88,40970,6,0,P|48:52|116:68,1,120,0|8,0:0|0:0,0:0:0:0:
144,136,41420,2,0,P|176:184|244:192,1,120
312,188,41870,1,8,0:0:0:0:
380,152,42020,1,0,0:0:0:0:
436,96,42170,2,0,P|448:64|452:28,1,60
297,68,42620,2,0,P|303:128|312:188,1,120
340,260,43070,2,0,P|364:276|404:276,1,60,8|0,0:0|0:0,0:0:0:0:
468,256,43370,6,0,P|472:300|416:352,1,120,2|8,0:0|0:0,0:0:0:0:
344,344,43820,2,0,P|304:332|224:352,1,120
160,376,44270,1,8,0:0:0:0:
84,356,44420,1,0,0:0:0:0:
40,292,44570,2,0,P|46:258|60:232,1,60,2|0,0:0|0:0,0:0:0:0:
200,172,45020,2,0,P|184:118|152:56,1,120
88,20,45470,2,0,P|60:32|32:52,1,60,8|0,0:0|0:0,0:0:0:0:
12,136,45770,6,0,L|5:217,2,75,4|0|8,0:0|0:0|0:0,0:0:0:0:
92,180,46220,2,0,L|98:254,2,75
160,120,46670,2,0,P|196:124|244:144,1,75,8|0,0:0|0:0,0:0:0:0:
312,180,46970,6,0,P|348:176|396:156,2,75,4|0|8,0:0|0:0|0:0,0:0:0:0:
232,137,47420,2,0,P|228:101|208:53,2,75
192,220,47870,2,0,P|196:257|209:292,1,75,8|0,0:0|0:0,0:0:0:0:
284,240,48170,6,0,P|352:232|432:268,1,150,4|8,0:0|0:0,0:0:0:0:
336,106,48770,2,0,P|268:135|194:128,1,150,4|8,0:0|0:0,0:0:0:0:
336,16,49370,6,0,P|392:37|421:125,1,150,4|8,0:0|0:0,0:0:0:0:
372,192,49820,1,0,0:0:0:0:
372,192,49970,2,0,P|376:232|388:276,1,75
460,316,50270,2,0,P|432:345|397:357,1,75,8|0,0:0|0:0,0:0:0:0:
316,324,50570,6,0,P|272:316|160:340,1,150,4|8,0:0|0:0,0:0:0:0:
88,368,51020,1,0,0:0:0:0:
20,308,51170,2,0,L|40:232,1,75,4|0,0:0|0:0,0:0:0:0:
120,196,51470,2,0,L|100:120,1,75,8|0,0:0|0:0,0:0:0:0:
140,40,51770,6,0,P|176:44|308:56,1,150,4|8,0:0|0:0,0:0:0:0:
356,116,52220,2,0,P|392:114|436:108,1,75
508,60,52520,1,0,0:0:0:0:
504,148,52670,2,0,P|504:184|496:232,1,75,8|0,0:0|0:0,0:0:0:0:
468,308,52970,6,0,P|424:324|380:244,1,150,0|8,0:0|0:0,0:0:0:0:
392,160,53420,2,0,P|354:157|312:168,1,75
256,232,53720,1,0,0:0:0:0:
256,232,53870,2,0,P|219:240|182:237,1,75,8|0,0:0|0:0,0:0:0:0:
104,192,54170,6,0,P|44:192|32:284,1,150,0|8,0:0|0:0,0:0:0:0:
48,352,54620,2,0,P|80:368|124:368,1,75
192,312,54920,2,0,P|224:304|284:304,2,75,0|8|0,0:0|0:0|0:0,0:0:0:0:
108,272,55370,6,0,P|103:194|102:111,1,150,0|8,0:0|0:0,0:0:0:0:
152,48,55820,2,0,P|192:56|224:76,1,75
280,144,56120,1,0,0:0:0:0:
340,212,56270,2,0,P|376:211|416:200,1,75,4|0,0:0|0:0,0:0:0:0:
480,140,56570,6,0,P|500:76|436:28,1,150,0|8,0:0|0:0,0:0:0:0:
368,76,57020,2,0,P|324:76|280:60,1,75
216,24,57320,2,0,P|179:14|142:15,2,75,0|8|0,0:0|0:0|0:0,0:0:0:0:
236,112,57770,6,0,P|238:200|242:273,1,150,0|8,0:0|0:0,0:0:0:0:
196,340,58220,2,0,P|160:340|120:324,1,75
72,252,58520,2,0,P|37:238|0:238,2,75,0|8|0,0:0|0:0|0:0,0:0:0:0:
164,244,58970,6,0,P|166:155|170:83,1,150,0|8,0:0|0:0,0:0:0:0:
216,16,59420,2,0,P|256:24|294:38,1,75
368,80,59720,1,0,0:0:0:0:
436,140,59870,2,0,P|444:172|440:216,1,75,8|0,0:0|0:0,0:0:0:0:
416,300,60170,6,0,P|388:348|296:356,1,150,0|8,0:0|0:0,0:0:0:0:
220,316,60620,1,0,0:0:0:0:
144,268,60770,2,0,P|104:272|64:288,1,75
8,220,61070,2,0,P|4:184|16:136,1,75,4|0,0:0|0:0,0:0:0:0:
76,84,61370,6,0,P|80:48|68:0,2,75,4|0|0,0:0|0:0|0:0,0:0:0:0:
165,90,61820,2,0,P|153:125|132:156,2,75,4|0|0,0:0|0:0|0:0,0:0:0:0:
248,128,62270,2,0,P|282:112|310:88,2,75,4|0|0,0:0|0:0|0:0,0:0:0:0:
220,212,62720,2,0,P|231:247|253:277,2,75,4|0|0,0:0|0:0|0:0,0:0:0:0:
308,212,63170,2,0,P|328:213|346:217,3,37.5,8|8|8|8,0:0|0:0|0:0|0:0,0:0:0:0:
376,224,63470,2,0,P|393:225|449:208,1,75,4|0,0:0|0:0,0:0:0:0:
496,132,63770,6,0,P|504:92|504:52,2,75,4|0|0,0:0|0:0|0:0,0:0:0:0:
420,84,64220,2,0,P|384:72|336:68,2,75,4|0|0,0:0|0:0|0:0,0:0:0:0:
364,156,64670,2,0,P|328:168|280:172,2,75,4|0|0,0:0|0:0|0:0,0:0:0:0:
352,244,65120,2,0,P|352:281|360:318,2,75,4|0|0,0:0|0:0|0:0,0:0:0:0:
364,156,65570,2,0,P|363:118|355:81,1,75
272,120,65870,2,0,P|232:120|192:104,1,75
124,56,66170,5,4,0:0:0:0:
420,136,75770,6,0,P|414:100|408:56,2,75,4|0|8,0:0|0:0|0:0,0:0:0:0:
432,224,76220,1,0,0:0:0:0:
420,312,76370,2,0,P|364:324|300:260,1,150,0|8,0:0|0:0,0:0:0:0:
228,100,76970,6,0,P|188:93|148:88,2,75,4|0|8,0:0|0:0|0:0,0:0:0:0:
296,160,77420,1,0,0:0:0:0:
300,248,77570,2,0,P|296:324|240:368,1,150,0|8,0:0|0:0,0:0:0:0:
104,252,78170,6,0,P|64:252|24:268,2,75,4|0|8,0:0|0:0|0:0,0:0:0:0:
192,268,78620,1,0,0:0:0:0:
272,224,78770,2,0,P|276:149|279:64,1,150,0|8,0:0|0:0,0:0:0:0:
104,32,79370,6,0,L|108:120,1,75,4|0,0:0|0:0,0:0:0:0:
52,176,79670,2,0,L|48:264,1,75,8|0,0:0|0:0,0:0:0:0:
100,324,79970,2,0,P|140:324|176:304,2,75,4|0|8,0:0|0:0|0:0,0:0:0:0:
48,250,80420,1,0,0:0:0:0:
120,196,80570,6,0,P|160:196|196:216,1,75,4|0,0:0|0:0,0:0:0:0:
248,280,80870,2,0,P|288:280|324:260,1,75,8|0,0:0|0:0,0:0:0:0:
364,188,81170,2,0,P|425:171|472:245,1,150,0|8,0:0|0:0,0:0:0:0:
352,100,81770,6,0,P|348:64|349:23,2,75,4|0|8,0:0|0:0|0:0,0:0:0:0:
364,188,82220,1,0,0:0:0:0:
280,160,82370,2,0,P|226:149|128:192,1,150,0|8,0:0|0:0,0:0:0:0:
16,312,82970,6,0,P|8:280|4:232,2,75,4|0|8,0:0|0:0|0:0,0:0:0:0:
88,368,83420,1,0,0:0:0:0:
168,324,83570,2,0,P|236:304|312:336,1,150,0|8,0:0|0:0,0:0:0:0:
448,220,84170,6,0,P|460:188|466:147,2,75,4|0|8,0:0|0:0|0:0,0:0:0:0:
383,284,84620,1,0,0:0:0:0:
307,331,84770,2,0,P|271:311|256:274,1,75,4|0,0:0|0:0,0:0:0:0:
236,192,85070,2,0,P|196:196|160:208,1,75,8|0,0:0|0:0,0:0:0:0:
92,264,85370,6,0,P|44:244|28:220,1,75,4|0,0:0|0:0,0:0:0:0:
43,135,85670,2,0,P|79:146|104:173,1,75,8|0,0:0|0:0,0:0:0:0:
92,264,85970,2,0,P|135:300|229:277,1,150,0|8,0:0|0:0,0:0:0:0:
340,144,86570,6,0,P|384:128|428:128,2,75,4|0|8,0:0|0:0|0:0,0:0:0:0:
260,188,87020,1,0,0:0:0:0:
176,224,87170,2,0,P|116:232|56:164,1,150,0|8,0:0|0:0,0:0:0:0:
212,80,87770,6,0,P|222:49|223:4,2,75,4|0|8,0:0|0:0|0:0,0:0:0:0:
180,164,88220,1,0,0:0:0:0:
156,252,88370,2,0,P|164:300|252:340,1,150,0|8,0:0|0:0,0:0:0:0:
336,328,88820,1,0,0:0:0:0:
416,292,88970,6,0,P|448:276|471:242,1,75
388,203,89270,2,0,P|408:172|411:135,1,75,8|0,0:0|0:0,0:0:0:0:
320,144,89570,2,0,P|321:106|305:73,1,75
232,124,89870,2,0,P|201:121|159:96,1,75,8|0,0:0|0:0,0:0:0:0:
144,24,90170,6,0,P|100:52|92:124,1,120,4|8,0:0|0:0,0:0:0:0:
88,192,90620,2,0,P|83:261|84:328,1,120
140,368,91070,1,8,0:0:0:0:
216,360,91220,1,0,0:0:0:0:
284,324,91370,2,0,L|354:340,1,60
456,232,91820,2,0,L|314:199,1,120
264,184,92270,1,8,0:0:0:0:
220,120,92420,1,0,0:0:0:0:
228,44,92570,6,0,P|268:20|340:36,1,120,2|8,0:0|0:0,0:0:0:0:
384,96,93020,2,0,P|394:155|402:214,1,120
424,292,93470,1,8,0:0:0:0:
408,368,93620,1,0,0:0:0:0:
336,336,93770,2,0,P|305:337|276:344,1,60,2|0,0:0|0:0,0:0:0:0:
124,372,94220,2,0,P|117:315|112:236,1,120
64,192,94670,2,0,P|64:160|68:124,1,60,8|0,0:0|0:0,0:0:0:0:
108,64,94970,6,0,P|152:48|216:104,1,120,2|8,0:0|0:0,0:0:0:0:
236,160,95420,2,0,P|296:156|356:136,1,120
412,84,95870,1,8,0:0:0:0:
480,124,96020,1,0,0:0:0:0:
464,200,96170,2,0,P|467:228|472:260,1,60
452,336,96470,2,0,P|405:357|335:354,2,120,8|0|8,0:0|0:0|0:0,0:0:0:0:
372,204,97370,6,0,P|312:200|257:222,1,120,0|8,0:0|0:0,0:0:0:0:
220,292,97820,2,0,P|184:340|124:356,1,120
64,312,98270,1,8,0:0:0:0:
36,240,98420,1,0,0:0:0:0:
52,164,98570,2,0,P|80:167|116:184,1,60,2|0,0:0|0:0,0:0:0:0:
220,292,99020,2,0,P|268:260|268:196,1,120
256,124,99470,2,0,P|258:92|264:56,1,60,4|0,0:0|0:0,0:0:0:0:
200,20,99770,6,0,P|140:28|108:88,1,120,0|8,0:0|0:0,0:0:0:0:
92,152,100220,2,0,P|88:213|88:276,1,120
132,336,100670,1,8,0:0:0:0:
208,324,100820,1,0,0:0:0:0:
268,276,100970,2,0,P|298:275|332:288,1,60
468,356,101420,2,0,P|466:301|460:236,1,120
440,160,101870,2,0,P|403:167|376:176,1,60,8|0,0:0|0:0,0:0:0:0:
308,200,102170,6,0,P|268:168|272:96,1,120,2|8,0:0|0:0,0:0:0:0:
300,32,102620,2,0,P|340:64|336:136,1,120
308,200,103070,1,8,0:0:0:0:
252,256,103220,1,0,0:0:0:0:
192,308,103370,2,0,P|190:342|188:376,1,60,2|0,0:0|0:0,0:0:0:0:
40,320,103820,2,0,P|43:258|51:199,1,120
76,128,104270,2,0,P|104:132|140:140,1,60,8|0,0:0|0:0,0:0:0:0:
216,100,104570,6,0,P|232:68|235:29,2,75,4|0|8,0:0|0:0|0:0,0:0:0:0:
134,138,105020,2,0,P|136:175|153:208,2,75
216,100,105470,2,0,P|252:104|300:124,1,75,8|0,0:0|0:0,0:0:0:0:
364,168,105770,6,0,P|400:164|448:144,2,75,4|0|8,0:0|0:0|0:0,0:0:0:0:
300,232,106220,2,0,P|264:218|227:214,2,75
356,304,106670,2,0,P|391:317|428:321,1,75,8|0,0:0|0:0,0:0:0:0:
488,256,106970,6,0,P|482:185|479:103,1,150,4|8,0:0|0:0,0:0:0:0:
312,40,107570,2,0,P|309:114|303:189,1,150,4|8,0:0|0:0,0:0:0:0:
208,344,108170,6,0,P|132:352|84:280,1,150,4|8,0:0|0:0,0:0:0:0:
52,216,108620,1,0,0:0:0:0:
52,216,108770,2,0,P|53:175|64:132,1,75
96,60,109070,2,0,P|133:71|177:68,1,75,8|0,0:0|0:0,0:0:0:0:
252,32,109370,6,0,P|312:40|416:40,1,150,4|8,0:0|0:0,0:0:0:0:
472,100,109820,1,0,0:0:0:0:
404,160,109970,2,0,L|416:240,1,75,4|0,0:0|0:0,0:0:0:0:
484,292,110270,2,0,L|472:376,1,75,8|0,0:0|0:0,0:0:0:0:
396,320,110570,6,0,P|336:300|248:328,1,150,4|8,0:0|0:0,0:0:0:0:
176,368,111020,2,0,P|140:366|96:348,1,75
44,284,111320,1,0,0:0:0:0:
88,204,111470,2,0,P|84:164|76:124,1,75,8|0,0:0|0:0,0:0:0:0:
80,40,111770,6,0,P|136:28|188:100,1,150,0|8,0:0|0:0,0:0:0:0:
176,184,112220,2,0,P|212:192|249:189,1,75
320,132,112520,1,0,0:0:0:0:
320,132,112670,2,0,P|351:160|371:195,1,75,8|0,0:0|0:0,0:0:0:0:
392,276,112970,6,0,P|448:244|457:163,1,150,0|8,0:0|0:0,0:0:0:0:
440,76,113420,2,0,P|396:56|360:56,1,75
288,88,113720,2,0,P|250:84|217:66,2,75,0|8|0,0:0|0:0|0:0,0:0:0:0:
369,54,114170,6,0,P|367:128|362:203,1,150,0|8,0:0|0:0,0:0:0:0:
344,292,114620,2,0,P|311:310|274:317,1,75
184,316,114920,1,0,0:0:0:0:
112,264,115070,2,0,P|72:267|24:280,1,75,4|0,0:0|0:0,0:0:0:0:
44,184,115370,6,0,P|48:104|60:16,1,150,0|8,0:0|0:0,0:0:0:0:
132,84,115820,2,0,P|168:93|205:92,1,75
280,40,116120,1,0,0:0:0:0:
280,40,116270,2,0,P|317:39|353:49,1,75,8|0,0:0|0:0,0:0:0:0:
424,108,116570,6,0,P|448:152|380:212,1,150,0|8,0:0|0:0,0:0:0:0:
300,180,117020,2,0,P|296:220|308:264,1,75
356,328,117320,2,0,P|392:330|430:322,2,75,0|8|0,0:0|0:0|0:0,0:0:0:0:
303,253,117770,6,0,P|228:256|153:258,1,150,0|8,0:0|0:0,0:0:0:0:
72,216,118220,2,0,L|80:132,1,75
124,64,118520,1,0,0:0:0:0:
212,92,118670,2,0,P|248:92|288:80,1,75,8|0,0:0|0:0,0:0:0:0:
352,20,118970,6,0,P|388:48|492:56,1,150,0|8,0:0|0:0,0:0:0:0:
468,144,119420,1,0,0:0:0:0:
484,232,119570,2,0,P|480:276|464:312,1,75
384,276,119870,2,0,P|344:280|308:296,1,75,4|0,0:0|0:0,0:0:0:0:
260,368,120170,6,0,P|220:309|250:226,1,150,0|8,0:0|0:0,0:0:0:0:
280,156,120620,2,0,P|286:123|280:80,1,75
216,20,120920,1,0,0:0:0:0:
140,64,121070,2,0,P|100:64|60:52,1,75,8|0,0:0|0:0,0:0:0:0:
20,132,121370,6,0,P|8:192|52:284,1,150,0|8,0:0|0:0,0:0:0:0:
128,248,121820,2,0,P|163:262|195:295,1,75
188,376,122120,1,0,0:0:0:0:
188,376,122270,2,0,P|228:368|264:336,1,75,8|0,0:0|0:0,0:0:0:0:
312,280,122570,6,0,P|388:286|472:296,1,150,0|8,0:0|0:0,0:0:0:0:
488,208,123020,2,0,P|483:168|484:116,1,75
416,76,123320,2,0,P|416:40|420:0,2,75,0|8|0,0:0|0:0|0:0,0:0:0:0:
400,164,123770,6,0,P|352:180|284:104,1,150,0|8,0:0|0:0,0:0:0:0:
268,32,124220,2,0,P|232:40|198:57,1,75
132,120,124520,1,0,0:0:0:0:
76,192,124670,2,0,P|68:236|76:276,1,75,4|0,0:0|0:0,0:0:0:0:
156,232,124970,6,0,P|217:238|276:308,1,150,0|8,0:0|0:0,0:0:0:0:
336,236,125420,2,0,P|336:197|332:152,1,75
356,76,125720,1,0,0:0:0:0:
356,76,125870,2,0,P|393:75|429:85,1,75,8|0,0:0|0:0,0:0:0:0:
480,160,126170,6,0,P|484:246|488:324,1,150,0|8,0:0|0:0,0:0:0:0:
404,272,126620,2,0,P|368:272|320:284,1,75
260,340,126920,2,0,P|223:348|186:348,2,75,0|8|0,0:0|0:0|0:0,0:0:0:0:
330,280,127370,2,0,P|333:205|337:130,1,150,0|8,0:0|0:0,0:0:0:0:
304,48,127820,2,0,P|268:32|224:36,1,75
144,52,128120,1,0,0:0:0:0:
68,100,128270,2,0,P|52:140|52:184,1,75,8|0,0:0|0:0,0:0:0:0:
64,260,128570,6,0,P|100:288|168:208,1,150,0|8,0:0|0:0,0:0:0:0:
188,144,129020,1,0,0:0:0:0:
252,80,129170,2,0,P|292:92|324:124,1,75
360,192,129470,2,0,P|400:192|448:168,1,75,4|0,0:0|0:0,0:0:0:0:
484,104,129770,6,0,P|490:67|492:28,2,75,4|0|0,0:0|0:0|0:0,0:0:0:0:
432,179,130220,2,0,P|433:216|440:253,2,75,4|0|0,0:0|0:0|0:0,0:0:0:0:
376,108,130670,2,0,P|344:92|300:88,2,75,4|0|0,0:0|0:0|0:0,0:0:0:0:
432,179,131120,2,0,P|464:195|508:199,2,75,4|0|0,0:0|0:0|0:0,0:0:0:0:
376,248,131570,2,0,L|384:296,3,37.5,8|8|8|8,0:0|0:0|0:0|0:0,0:0:0:0:
384,316,131870,2,0,P|360:340|304:352,1,75,4|0,0:0|0:0,0:0:0:0:
244,308,132170,6,0,P|208:308|168:320,2,75,4|0|0,0:0|0:0|0:0,0:0:0:0:
308,244,132620,2,0,P|320:208|320:164,2,75,4|0|0,0:0|0:0|0:0,0:0:0:0:
236,192,133070,2,0,P|228:154|206:116,2,75,4|0|0,0:0|0:0|0:0,0:0:0:0:
148,188,133520,2,0,P|116:184|72:160,2,75,4|0|0,0:0|0:0|0:0,0:0:0:0:
210,122,133970,2,0,P|242:126|286:150,1,75
356,192,134270,2,0,P|359:157|364:108,1,75
400,36,134570,6,0,P|440:48|468:72,1,75,4|0,0:0|0:0,0:0:0:0:
480,160,134870,2,0,P|483:197|486:234,1,75,8|0,0:0|0:0,0:0:0:0:
444,316,135170,2,0,P|420:308|399:306,3,37.5
380,316,135470,2,0,P|359:324|340:324,3,37.5,8|0|0|0,0:0|0:0|0:0|0:0,0:0:0:0:
316,320,135770,6,0,P|289:321|232:328,1,75
160,364,136070,2,0,P|100:348|57:268,2,150,4|4|4,0:0|0:0|0:0,0:0:0:0:
164,184,136970,6,0,L|160:258,1,75,4|0,0:0|0:0,0:0:0:0:
232,312,137270,2,0,P|276:304|308:272,1,75,8|0,0:0|0:0,0:0:0:0:
348,208,137570,2,0,P|366:211|384:217,3,37.5
408,232,137870,2,0,P|426:230|443:223,3,37.5,8|0|0|0,0:0|0:0|0:0|0:0,0:0:0:0:
464,200,138170,6,0,P|469:163|472:108,1,75
432,44,138470,2,0,P|356:16|280:52,2,150,4|4|4,0:0|0:0|0:0,0:0:0:0:
348,208,139370,6,0,P|316:228|272:236,1,75,4|0,0:0|0:0,0:0:0:0:
196,200,139670,2,0,P|156:204|125:218,1,75,8|0,0:0|0:0,0:0:0:0:
48,172,139970,2,0,P|43:152|44:131,3,37.5
48,104,140270,2,0,P|51:82|60:64,3,37.5,8|0|0|0,0:0|0:0|0:0|0:0,0:0:0:0:
80,44,140570,6,0,P|108:44|156:76,1,75
204,140,140870,2,0,P|268:140|296:60,2,150,4|4|4,0:0|0:0|0:0,0:0:0:0:
52,236,141770,6,0,L|40:320,1,75,4|0,0:0|0:0,0:0:0:0:
112,368,142070,2,0,P|141:368|183:345,1,75,8|0,0:0|0:0,0:0:0:0:
228,268,142370,2,0,P|248:268|276:280,3,37.5
288,292,142670,2,0,P|308:292|332:287,3,37.5,8|0|0|0,0:0|0:0|0:0|0:0,0:0:0:0:
352,276,142970,6,0,P|371:272|436:284,1,75
484,212,143270,2,0,L|504:128,1,75,4|0,0:0|0:0,0:0:0:0:
436,80,143570,2,0,L|416:0,1,75,4|0,0:0|0:0,0:0:0:0:
348,64,143870,2,0,P|321:73|264:72,1,75,4|0,0:0|0:0,0:0:0:0:
196,28,144170,6,0,P|158:27|122:38,2,75,4|0|0,0:0|0:0|0:0,0:0:0:0:
168,116,144620,2,0,P|168:164|184:200,2,75,4|0|0,0:0|0:0|0:0,0:0:0:0:
256,144,145070,2,0,P|288:155|335:156,2,75,4|0|0,0:0|0:0|0:0,0:0:0:0:
168,116,145520,2,0,P|136:105|89:104,2,75,4|0|0,0:0|0:0|0:0,0:0:0:0:
116,192,145970,2,0,P|104:228|104:268,1,75,4|0,0:0|0:0,0:0:0:0:
192,276,146270,2,0,P|203:240|204:203,1,75,0|8,0:0|0:0,0:0:0:0:
