osu file format v14

[General]
AudioFilename: Yami.mp3
AudioLeadIn: 1500
PreviewTime: 51695
Countdown: 0
SampleSet: Soft
StackLeniency: 0.7
Mode: 0
LetterboxInBreaks: 0
WidescreenStoryboard: 1

[Editor]
DistanceSpacing: 2.6
BeatDivisor: 4
GridSize: 4
TimelineZoom: 2.3

[Metadata]
Title:Yami no Mahou Shoujo
TitleUnicode:闇の魔法少女
Artist:Silver Forest feat.Aki
ArtistUnicode:Silver Forest feat.アキ
Creator:-Maruk-
Version:Lunatic
Source:太鼓の達人
Tags:Taiko no Tatsujin Namco Original Kanzaki Ranko
BeatmapID:750244
BeatmapSetID:339091

[Difficulty]
HPDrainRate:6
CircleSize:4
OverallDifficulty:8
ApproachRate:9.3
SliderMultiplier:1.8
SliderTickRate:1

[Events]
//Background and Video events
0,0,"BG.jpg",0,0
//Break Periods
2,66370,74016
//Storyboard Layer 0 (Background)
//Storyboard Layer 1 (Fail)
//Storyboard Layer 2 (Pass)
//Storyboard Layer 3 (Foreground)
//Storyboard Sound Samples

[TimingPoints]
170,300,4,1,1,60,1,0
2570,-100,4,1,1,60,0,1
12170,-100,4,1,1,50,0,0
16520,-100,4,2,2,50,0,0
16820,-100,4,1,1,50,0,0
21320,-100,4,2,2,50,0,0
21620,-100,4,1,1,50,0,0
30920,-100,4,2,2,50,0,0
31220,-100,4,1,1,70,0,0
31370,-125,4,1,1,50,0,0
45770,-100,4,1,1,70,0,0
51470,-66.6666666666667,4,2,2,80,0,0
51770,-83.3333333333333,4,2,2,80,0,1
51845,-83.3333333333333,4,1,1,60,0,1
61370,-100,4,1,1,70,0,0
89870,-100,4,2,2,70,0,0
90170,-125,4,1,1,50,0,0
104570,-100,4,1,1,70,0,0
110270,-66.6666666666667,4,2,2,80,0,0
110570,-83.3333333333333,4,2,2,80,0,1
110645,-83.3333333333333,4,1,1,60,0,1
129770,-100,4,1,1,70,0,0
134570,-83.3333333333333,4,2,2,80,0,1
134645,-83.3333333333333,4,1,1,50,0,1
136970,-83.3333333333333,4,2,2,80,0,1
137045,-83.3333333333333,4,1,1,50,0,1
139370,-83.3333333333333,4,2,2,80,0,1
139445,-83.3333333333333,4,1,1,50,0,1
141770,-83.3333333333333,4,2,2,80,0,1
141845,-83.3333333333333,4,1,1,50,0,1
144170,-100,4,1,1,70,0,0
146420,-100,4,2,2,60,0,0

[Colours]
Combo1 : 128,255,255
Combo2 : 255,128,128
Combo3 : 255,255,128
Combo4 : 128,255,128

[HitObjects]
416,132,170,5,4,0:0:0:0:
244,212,320,1,0,0:0:0:0:
404,312,470,1,0,0:0:0:0:
317,144,620,5,4,0:0:0:0:
196,288,770,1,0,0:0:0:0:
375,227,920,1,0,0:0:0:0:
221,118,1070,5,4,0:0:0:0:
296,292,1220,1,0,0:0:0:0:
112,248,1370,1,0,0:0:0:0:
128,60,1520,5,4,0:0:0:0:
236,216,1670,1,0,0:0:0:0:
60,148,1820,1,0,0:0:0:0:
242,98,1970,5,4,0:0:0:0:
188,280,2120,1,0,0:0:0:0:
360,204,2270,2,0,P|401:211|456:224,1,90
320,360,2570,5,4,0:0:0:0:
281,371,2645,1,0,0:0:0:0:
240,369,2720,1,0,0:0:0:0:
203,351,2795,1,0,0:0:0:0:
186,313,2870,1,8,0:0:0:0:
190,272,2945,1,0,0:0:0:0:
200,232,3020,1,0,0:0:0:0:
180,196,3095,1,0,0:0:0:0:
148,172,3170,5,0,0:0:0:0:
108,166,3245,1,0,0:0:0:0:
70,180,3320,1,0,0:0:0:0:
51,216,3395,1,0,0:0:0:0:
51,256,3470,1,8,0:0:0:0:
73,289,3545,1,0,0:0:0:0:
112,299,3620,1,0,0:0:0:0:
152,289,3695,1,0,0:0:0:0:
190,272,3770,5,0,0:0:0:0:
229,261,3845,1,0,0:0:0:0:
269,261,3920,1,0,0:0:0:0:
307,271,3995,1,0,0:0:0:0:
342,289,4070,2,0,P|373:291|434:266,1,90,12|0,0:0|0:0,0:0:0:0:
358,93,4370,5,4,0:0:0:0:
269,261,4520,1,0,0:0:0:0:
456,260,4670,5,12,0:0:0:0:
291,167,4820,1,0,0:0:0:0:
368,340,4970,5,4,0:0:0:0:
407,330,5045,1,0,0:0:0:0:
447,330,5120,1,0,0:0:0:0:
485,341,5195,1,0,0:0:0:0:
468,303,5270,1,8,0:0:0:0:
456,260,5345,1,0,0:0:0:0:
468,220,5420,1,0,0:0:0:0:
484,184,5495,1,0,0:0:0:0:
472,144,5570,5,0,0:0:0:0:
440,116,5645,1,0,0:0:0:0:
400,108,5720,1,0,0:0:0:0:
364,128,5795,1,0,0:0:0:0:
360,168,5870,1,8,0:0:0:0:
348,208,5945,1,0,0:0:0:0:
316,236,6020,1,0,0:0:0:0:
276,248,6095,1,0,0:0:0:0:
236,244,6170,5,0,0:0:0:0:
200,224,6245,1,0,0:0:0:0:
172,196,6320,1,0,0:0:0:0:
160,156,6395,1,0,0:0:0:0:
160,116,6470,2,0,P|168:76|188:28,1,90,12|0,0:0|0:0,0:0:0:0:
200,224,6770,5,4,0:0:0:0:
36,132,6920,1,0,0:0:0:0:
64,320,7070,5,12,0:0:0:0:
160,156,7220,1,0,0:0:0:0:
224,332,7370,5,4,0:0:0:0:
264,344,7445,1,0,0:0:0:0:
304,340,7520,1,0,0:0:0:0:
340,324,7595,1,0,0:0:0:0:
364,292,7670,1,8,0:0:0:0:
372,252,7745,1,0,0:0:0:0:
356,216,7820,1,0,0:0:0:0:
328,188,7895,1,0,0:0:0:0:
296,164,7970,5,0,0:0:0:0:
276,128,8045,1,0,0:0:0:0:
284,88,8120,1,0,0:0:0:0:
316,64,8195,1,0,0:0:0:0:
356,64,8270,1,8,0:0:0:0:
392,84,8345,1,0,0:0:0:0:
412,120,8420,1,0,0:0:0:0:
404,160,8495,1,0,0:0:0:0:
368,180,8570,5,0,0:0:0:0:
328,188,8645,1,0,0:0:0:0:
288,184,8720,1,0,0:0:0:0:
252,168,8795,1,0,0:0:0:0:
220,144,8870,2,0,P|183:148|128:160,1,90,12|0,0:0|0:0,0:0:0:0:
255,15,9170,5,4,0:0:0:0:
328,188,9320,1,0,0:0:0:0:
176,76,9470,5,12,0:0:0:0:
364,108,9620,1,0,0:0:0:0:
224,232,9770,5,4,0:0:0:0:
188,252,9845,1,0,0:0:0:0:
148,260,9920,1,0,0:0:0:0:
108,256,9995,1,0,0:0:0:0:
72,240,10070,1,8,0:0:0:0:
44,208,10145,1,0,0:0:0:0:
48,168,10220,1,0,0:0:0:0:
84,152,10295,1,0,0:0:0:0:
120,168,10370,5,0,0:0:0:0:
128,208,10445,1,0,0:0:0:0:
104,240,10520,1,0,0:0:0:0:
84,276,10595,1,0,0:0:0:0:
80,316,10670,1,8,0:0:0:0:
96,352,10745,1,0,0:0:0:0:
136,360,10820,1,0,0:0:0:0:
176,348,10895,1,0,0:0:0:0:
208,324,10970,5,0,0:0:0:0:
248,312,11045,1,0,0:0:0:0:
288,316,11120,1,0,0:0:0:0:
328,328,11195,1,0,0:0:0:0:
364,348,11270,2,0,P|400:348|452:328,1,90,12|0,0:0|0:0,0:0:0:0:
392,148,11570,5,4,0:0:0:0:
328,328,11720,1,0,0:0:0:0:
476,212,11870,5,12,0:0:0:0:
288,228,12020,1,0,0:0:0:0:
392,72,12170,6,0,P|417:33|448:-8,1,90,4|2,0:0|0:0,0:0:0:0:
468,176,12470,1,8,0:0:0:0:
328,208,12620,1,2,0:0:0:0:
260,52,12770,2,0,P|216:69|164:88,1,90,0|2,0:0|0:0,0:0:0:0:
104,220,13070,1,8,0:0:0:0:
56,104,13220,1,2,0:0:0:0:
34,98,13295,1,2,0:0:0:0:
12,91,13370,5,2,0:0:0:0:
192,176,13520,1,2,0:0:0:0:
64,260,13670,2,0,P|71:308|80:352,1,90,8|2,0:0|0:0,0:0:0:0:
220,288,13970,2,0,P|264:292|312:308,1,90,0|2,0:0|0:0,0:0:0:0:
420,360,14270,1,8,0:0:0:0:
428,208,14420,1,2,0:0:0:0:
428,208,14495,1,2,0:0:0:0:
428,208,14570,6,0,P|432:161|440:112,1,90,2|2,0:0|0:0,0:0:0:0:
296,216,14870,1,8,0:0:0:0:
476,172,15020,2,0,P|480:125|488:76,1,90,2|0,0:0|0:0,0:0:0:0:
344,180,15320,1,2,0:0:0:0:
432,268,15470,1,8,0:0:0:0:
396,100,15620,1,2,0:0:0:0:
390,78,15695,1,2,0:0:0:0:
384,56,15770,5,2,0:0:0:0:
248,136,15920,1,2,0:0:0:0:
288,16,16070,1,8,0:0:0:0:
344,180,16220,2,0,P|357:229|368:272,1,90,2|0,0:0|0:0,0:0:0:0:
280,348,16520,6,0,L|277:371,1,22.5,2|0,0:1|0:0,0:0:0:0:
180,300,16670,2,0,L|177:274,1,22.5,2|0,0:1|0:0,0:0:0:0:
68,332,16820,1,2,0:0:0:0:
46,327,16895,1,2,0:0:0:0:
23,323,16970,5,2,0:0:0:0:
116,188,17120,1,2,0:0:0:0:
16,228,17270,1,8,0:0:0:0:
56,80,17420,1,2,0:0:0:0:
188,160,17570,2,0,L|276:174,1,90,0|2,0:0|0:0,0:0:0:0:
388,68,17870,1,8,0:0:0:0:
436,184,18020,1,2,0:0:0:0:
444,204,18095,1,2,0:0:0:0:
454,223,18170,6,0,L|469:129,1,90,2|2,0:0|0:0,0:0:0:0:
344,44,18470,1,8,0:0:0:0:
452,28,18620,1,2,0:0:0:0:
356,160,18770,2,0,L|372:258,1,90,0|2,0:0|0:0,0:0:0:0:
348,380,19070,1,8,0:0:0:0:
256,284,19220,1,2,0:0:0:0:
236,272,19295,1,2,0:0:0:0:
216,264,19370,6,0,L|120:276,1,90,2|2,0:0|0:0,0:0:0:0:
12,332,19670,1,8,0:0:0:0:
40,144,19820,2,0,L|129:155,1,90,2|0,0:0|0:0,0:0:0:0:
216,264,20120,1,2,0:0:0:0:
256,144,20270,1,8,0:0:0:0:
120,248,20420,1,2,0:0:0:0:
108,267,20495,1,2,0:0:0:0:
99,287,20570,6,0,P|97:340|111:375,1,90,2|2,0:0|0:0,0:0:0:0:
280,316,20870,2,0,P|294:273|291:229,1,90,8|2,0:0|0:0,0:0:0:0:
240,116,21170,1,0,0:0:0:0:
128,224,21320,2,0,L|92:214,1,22.5,2|0,0:1|0:0,0:0:0:0:
48,124,21470,2,0,L|26:118,1,22.5,2|0,0:1|0:0,0:0:0:0:
128,44,21620,1,2,0:0:0:0:
148,36,21695,1,2,0:0:0:0:
168,28,21770,5,2,0:0:0:0:
256,140,21920,1,2,0:0:0:0:
316,48,22070,1,8,0:0:0:0:
176,108,22220,1,2,0:0:0:0:
288,232,22370,2,0,P|330:207|348:168,1,90,0|2,0:0|0:0,0:0:0:0:
304,24,22670,1,8,0:0:0:0:
197,183,22820,1,2,0:0:0:0:
189,203,22895,1,2,0:0:0:0:
184,224,22970,6,0,P|192:276|216:308,1,90,2|2,0:0|0:0,0:0:0:0:
348,284,23270,2,0,P|392:288|440:308,1,90,8|2,0:0|0:0,0:0:0:0:
492,124,23570,2,0,P|450:140|405:144,1,90,0|2,0:0|0:0,0:0:0:0:
304,24,23870,1,8,0:0:0:0:
276,192,24020,1,2,0:0:0:0:
271,214,24095,1,2,0:0:0:0:
265,235,24170,6,0,P|220:230|178:214,1,90,2|2,0:0|0:0,0:0:0:0:
68,136,24470,2,0,P|83:91|104:44,1,90,8|2,0:0|0:0,0:0:0:0:
80,256,24770,1,0,0:0:0:0:
216,124,24920,2,0,P|261:129|303:145,1,90,2|8,0:0|0:0,0:0:0:0:
404,236,25220,1,2,0:0:0:0:
425,231,25295,1,2,0:0:0:0:
447,226,25370,5,2,0:0:0:0:
372,104,25520,1,2,0:0:0:0:
296,248,25670,1,8,0:0:0:0:
448,196,25820,1,2,0:0:0:0:
344,320,25970,1,0,0:0:0:0:
252,184,26120,1,2,0:0:0:0:
447,226,26270,1,8,0:0:0:0:
252,344,26420,1,2,0:0:0:0:
232,354,26495,1,2,0:0:0:0:
211,362,26570,6,0,L|116:344,1,90,2|2,0:0|0:0,0:0:0:0:
48,212,26870,1,8,0:0:0:0:
16,316,27020,1,2,0:0:0:0:
148,224,27170,2,0,P|138:182|124:136,1,90,0|2,0:0|0:0,0:0:0:0:
172,12,27470,1,8,0:0:0:0:
252,144,27620,1,2,0:0:0:0:
267,159,27695,1,2,0:0:0:0:
282,174,27770,6,0,P|308:188|380:188,1,90,2|2,0:0|0:0,0:0:0:0:
472,108,28070,2,0,P|465:63|456:16,1,90,8|2,0:0|0:0,0:0:0:0:
340,120,28370,1,0,0:0:0:0:
452,196,28520,1,2,0:0:0:0:
376,44,28670,1,8,0:0:0:0:
300,196,28820,1,2,0:0:0:0:
289,215,28895,1,2,0:0:0:0:
282,236,28970,6,0,P|284:286|308:330,1,90,2|2,0:0|0:0,0:0:0:0:
428,368,29270,1,8,0:0:0:0:
500,256,29420,2,0,P|498:206|474:162,1,90,2|0,0:0|0:0,0:0:0:0:
372,92,29720,1,2,0:0:0:0:
404,196,29870,1,8,0:0:0:0:
468,48,30020,1,2,0:0:0:0:
468,48,30095,1,2,0:0:0:0:
468,48,30170,6,0,L|368:64,1,90,2|2,0:0|0:0,0:0:0:0:
308,176,30470,1,8,0:0:0:0:
188,116,30620,2,0,P|206:71|224:32,1,90,2|2,0:0|0:0,0:0:0:0:
308,176,30920,2,0,L|339:167,1,22.5,2|0,0:1|0:0,0:0:0:0:
248,272,31070,2,0,L|220:264,1,22.5,2|0,0:1|0:0,0:0:0:0:
128,324,31220,1,0,0:0:0:0:
40,216,31370,6,0,P|42:147|48:68,1,144,4|8,0:0|0:0,0:0:0:0:
220,20,31820,2,0,P|225:91|227:163,1,144
156,256,32270,1,8,0:0:0:0:
112,148,32420,1,0,0:0:0:0:
227,163,32570,6,0,P|262:159|304:152,1,72,2|0,0:0|0:0,0:0:0:0:
404,204,32870,1,8,0:0:0:0:
468,108,33020,2,0,P|464:72|452:32,1,72
332,116,33320,1,0,0:0:0:0:
404,204,33470,1,8,0:0:0:0:
364,38,33620,6,0,P|293:42|251:100,1,144,2|0,0:0|0:0,0:0:0:0:
340,212,34070,2,0,P|445:197|492:192,1,144,8|0,0:0|0:0,0:0:0:0:
384,328,34520,1,0,0:0:0:0:
308,240,34670,1,8,0:0:0:0:
396,168,34820,1,0,0:0:0:0:
292,256,34970,6,0,L|220:248,1,72,2|0,0:0|0:0,0:0:0:0:
128,316,35270,1,8,0:0:0:0:
32,252,35420,2,0,P|36:216|40:176,1,72,0|2,0:0|0:0,0:0:0:0:
116,60,35720,1,0,0:0:0:0:
4,92,35870,1,8,0:0:0:0:
88,172,36020,1,0,0:0:0:0:
200,144,36170,6,0,P|271:132|348:124,1,144,2|8,0:0|0:0,0:0:0:0:
448,76,36620,2,0,P|432:40|412:8,1,72
342,124,36920,1,0,0:0:0:0:
436,192,37070,1,8,0:0:0:0:
448,76,37220,1,0,0:0:0:0:
392,216,37370,6,0,P|388:256|388:292,1,72,2|0,0:0|0:0,0:0:0:0:
260,356,37670,2,0,P|261:320|264:284,1,72,8|0,0:0|0:0,0:0:0:0:
436,192,37970,2,0,P|432:232|432:268,1,72
208,376,38270,2,0,P|209:340|212:304,1,72,8|0,0:0|0:0,0:0:0:0:
140,124,38570,6,0,L|68:136,1,72,2|0,0:0|0:0,0:0:0:0:
204,16,38870,1,8,0:0:0:0:
256,168,39020,2,0,P|240:200|212:228,1,72
104,292,39320,1,0,0:0:0:0:
100,164,39470,1,8,0:0:0:0:
214,225,39620,1,0,0:0:0:0:
64,152,39770,6,0,P|67:117|80:80,1,72,2|0,0:0|0:0,0:0:0:0:
176,16,40070,1,8,0:0:0:0:
268,88,40220,2,0,P|300:104|348:104,1,72,0|2,0:0|0:0,0:0:0:0:
444,32,40520,1,0,0:0:0:0:
335,106,40670,1,12,0:0:0:0:
456,152,40820,1,0,0:0:0:0:
347,226,40970,6,0,P|353:300|359:378,1,144,4|8,0:0|0:0,0:0:0:0:
464,256,41420,2,0,L|457:184,1,72
335,106,41720,1,0,0:0:0:0:
347,226,41870,1,8,0:0:0:0:
452,136,42020,1,0,0:0:0:0:
320,240,42170,6,0,P|288:244|248:236,1,72
152,176,42470,1,8,0:0:0:0:
220,80,42620,2,0,P|216:44|200:4,1,72
60,108,42920,1,0,0:0:0:0:
152,176,43070,1,8,0:0:0:0:
120,40,43220,1,0,0:0:0:0:
56,208,43370,6,0,P|99:262|172:275,1,144,2|8,0:0|0:0,0:0:0:0:
272,216,43820,2,0,P|308:224|340:240,1,72,0|2,0:0|0:0,0:0:0:0:
448,204,44120,1,0,0:0:0:0:
412,312,44270,1,8,0:0:0:0:
372,164,44420,1,0,0:0:0:0:
280,320,44570,6,0,P|247:335|212:343,1,72,2|0,0:0|0:0,0:0:0:0:
108,264,44870,1,8,0:0:0:0:
80,368,45020,1,0,0:0:0:0:
132,160,45170,2,0,P|96:164|56:172,1,72,2|0,0:0|0:0,0:0:0:0:
152,312,45470,2,0,P|188:308|228:300,1,72,8|0,0:0|0:0,0:0:0:0:
344,156,45770,5,4,0:0:0:0:
368,344,45920,1,0,0:0:0:0:
212,236,46070,1,8,0:0:0:0:
400,244,46220,5,0,0:0:0:0:
244,140,46370,1,0,0:0:0:0:
412,52,46520,1,0,0:0:0:0:
308,212,46670,5,8,0:0:0:0:
276,24,46820,1,0,0:0:0:0:
420,148,46970,1,4,0:0:0:0:
324,308,47120,5,0,0:0:0:0:
328,120,47270,1,8,0:0:0:0:
464,248,47420,1,0,0:0:0:0:
280,212,47570,5,0,0:0:0:0:
420,340,47720,1,0,0:0:0:0:
500,168,47870,2,0,P|496:120|488:68,1,90,8|0,0:0|0:0,0:0:0:0:
308,24,48170,6,0,P|312:72|320:124,1,90,4|0,0:0|0:0,0:0:0:0:
468,232,48470,2,0,P|464:184|456:132,1,90,8|0,0:0|0:0,0:0:0:0:
260,80,48770,2,0,P|215:87|168:96,1,90,4|0,0:0|0:0,0:0:0:0:
288,268,49070,2,0,P|333:275|380:284,1,90,8|0,0:0|0:0,0:0:0:0:
260,80,49370,5,8,0:0:0:0:
254,58,49445,1,8,0:0:0:0:
248,36,49520,1,8,0:0:0:0:
180,212,49670,1,8,0:0:0:0:
174,234,49745,1,8,0:0:0:0:
168,256,49820,1,8,0:0:0:0:
348,196,49970,1,8,0:0:0:0:
369,190,50045,1,8,0:0:0:0:
390,184,50120,1,8,0:0:0:0:
411,178,50195,1,8,0:0:0:0:
433,173,50270,1,8,0:0:0:0:
288,52,50420,1,8,0:0:0:0:
276,240,50570,6,0,B|264:288|272:338|272:338|246:313,1,135,4|0,0:0|0:0,0:0:0:0:
168,256,50870,2,0,B|127:244|127:244|31:268,1,135,4|0,0:0|0:0,0:0:0:0:
44,172,51170,2,0,B|40:136|40:136|52:108|52:108|40:72|48:32,1,135,4|0,0:0|0:0,0:0:0:0:
152,104,51470,6,0,P|224:116|236:8,1,202.500007724762,8|0,0:0|0:0,0:0:0:0:
328,152,51770,5,4,0:0:0:0:
368,180,51845,1,0,0:0:0:0:
416,184,51920,1,0,0:0:0:0:
464,168,51995,1,0,0:0:0:0:
488,128,52070,1,8,0:0:0:0:
464,168,52145,1,0,0:0:0:0:
464,216,52220,1,0,0:0:0:0:
472,264,52295,1,0,0:0:0:0:
484,312,52370,5,0,0:0:0:0:
460,352,52445,1,0,0:0:0:0:
412,364,52520,1,0,0:0:0:0:
364,356,52595,1,0,0:0:0:0:
324,332,52670,1,8,0:0:0:0:
280,316,52745,1,0,0:0:0:0:
232,320,52820,1,0,0:0:0:0:
188,336,52895,1,0,0:0:0:0:
144,356,52970,5,0,0:0:0:0:
96,356,53045,1,0,0:0:0:0:
52,336,53120,1,0,0:0:0:0:
24,296,53195,1,0,0:0:0:0:
24,248,53270,1,8,0:0:0:0:
48,204,53345,1,0,0:0:0:0:
92,188,53420,1,0,0:0:0:0:
140,196,53495,1,0,0:0:0:0:
180,224,53570,5,0,0:0:0:0:
228,232,53645,1,0,0:0:0:0:
276,216,53720,1,0,0:0:0:0:
304,176,53795,1,0,0:0:0:0:
300,128,53870,1,8,0:0:0:0:
268,92,53945,1,0,0:0:0:0:
220,88,54020,1,0,0:0:0:0:
180,116,54095,1,0,0:0:0:0:
164,164,54170,5,0,0:0:0:0:
184,208,54245,1,0,0:0:0:0:
228,232,54320,1,0,0:0:0:0:
276,224,54395,1,0,0:0:0:0:
324,228,54470,1,8,0:0:0:0:
368,252,54545,1,0,0:0:0:0:
412,272,54620,1,0,0:0:0:0:
460,268,54695,1,0,0:0:0:0:
488,228,54770,5,0,0:0:0:0:
504,180,54845,1,0,0:0:0:0:
496,132,54920,1,0,0:0:0:0:
472,92,54995,1,0,0:0:0:0:
428,108,55070,1,8,0:0:0:0:
384,124,55145,1,0,0:0:0:0:
336,116,55220,1,0,0:0:0:0:
296,92,55295,1,0,0:0:0:0:
252,68,55370,6,0,P|223:70|196:78,3,53.9999983520508
103,139,55670,2,0,P|74:137|47:129,3,53.9999983520508,8|0|0|0,0:0|0:0|0:0|0:0,0:0:0:0:
44,252,55970,2,0,P|41:279|41:310,3,53.9999983520508
156,220,56270,2,0,P|210:223|272:228,1,107.999996704102,4|0,0:0|0:0,0:0:0:0:
436,164,56570,5,4,0:0:0:0:
460,120,56645,1,0,0:0:0:0:
452,72,56720,1,0,0:0:0:0:
416,40,56795,1,0,0:0:0:0:
368,40,56870,1,8,0:0:0:0:
328,68,56945,1,0,0:0:0:0:
316,116,57020,1,0,0:0:0:0:
336,160,57095,1,0,0:0:0:0:
352,208,57170,5,0,0:0:0:0:
356,256,57245,1,0,0:0:0:0:
348,304,57320,1,0,0:0:0:0:
320,344,57395,1,0,0:0:0:0:
276,364,57470,1,8,0:0:0:0:
228,356,57545,1,0,0:0:0:0:
188,332,57620,1,0,0:0:0:0:
140,324,57695,1,0,0:0:0:0:
92,336,57770,5,0,0:0:0:0:
44,328,57845,1,0,0:0:0:0:
24,284,57920,1,0,0:0:0:0:
28,236,57995,1,0,0:0:0:0:
56,196,58070,1,8,0:0:0:0:
104,192,58145,1,0,0:0:0:0:
144,216,58220,1,0,0:0:0:0:
192,212,58295,1,0,0:0:0:0:
228,180,58370,5,0,0:0:0:0:
224,132,58445,1,0,0:0:0:0:
180,112,58520,1,0,0:0:0:0:
140,140,58595,1,0,0:0:0:0:
148,188,58670,1,8,0:0:0:0:
192,212,58745,1,0,0:0:0:0:
240,204,58820,1,0,0:0:0:0:
288,216,58895,1,0,0:0:0:0:
332,240,58970,5,0,0:0:0:0:
380,244,59045,1,0,0:0:0:0:
428,232,59120,1,0,0:0:0:0:
460,196,59195,1,0,0:0:0:0:
476,152,59270,1,8,0:0:0:0:
472,104,59345,1,0,0:0:0:0:
448,60,59420,1,0,0:0:0:0:
408,88,59495,1,0,0:0:0:0:
360,100,59570,5,0,0:0:0:0:
312,96,59645,1,0,0:0:0:0:
268,76,59720,1,0,0:0:0:0:
232,44,59795,1,0,0:0:0:0:
184,36,59870,1,8,0:0:0:0:
136,40,59945,1,0,0:0:0:0:
96,64,60020,1,0,0:0:0:0:
72,108,60095,1,0,0:0:0:0:
88,152,60170,5,0,0:0:0:0:
100,200,60245,1,0,0:0:0:0:
96,248,60320,1,0,0:0:0:0:
76,292,60395,1,0,0:0:0:0:
44,332,60470,1,8,0:0:0:0:
84,356,60545,1,0,0:0:0:0:
132,360,60620,1,0,0:0:0:0:
180,348,60695,1,0,0:0:0:0:
224,328,60770,5,0,0:0:0:0:
272,320,60845,1,0,0:0:0:0:
320,332,60920,1,0,0:0:0:0:
360,356,60995,1,0,0:0:0:0:
408,356,61070,1,8,0:0:0:0:
440,320,61145,1,0,0:0:0:0:
440,272,61220,1,0,0:0:0:0:
416,228,61295,1,0,0:0:0:0:
400,192,61370,5,4,0:0:0:0:
448,28,61520,1,0,0:0:0:0:
284,72,61670,1,0,0:0:0:0:
448,116,61820,5,4,0:0:0:0:
292,184,61970,1,0,0:0:0:0:
440,272,62120,1,0,0:0:0:0:
358,121,62270,5,4,0:0:0:0:
332,288,62420,1,0,0:0:0:0:
196,176,62570,1,0,0:0:0:0:
364,208,62720,5,4,0:0:0:0:
216,292,62870,1,0,0:0:0:0:
292,140,63020,1,0,0:0:0:0:
159,8,63170,6,0,P|151:29|148:52,1,45,8|8,0:0|0:0,0:0:0:0:
51,124,63320,2,0,P|59:144|62:167,1,45,8|8,0:0|0:0,0:0:0:0:
20,284,63470,2,0,P|56:312|104:320,1,90,4|0,0:0|0:0,0:0:0:0:
260,260,63770,5,4,0:0:0:0:
96,212,63920,1,0,0:0:0:0:
168,368,64070,1,0,0:0:0:0:
188,196,64220,5,4,0:0:0:0:
256,352,64370,1,0,0:0:0:0:
340,204,64520,1,0,0:0:0:0:
192,288,64670,5,4,0:0:0:0:
360,308,64820,1,0,0:0:0:0:
264,168,64970,1,0,0:0:0:0:
308,332,65120,5,4,0:0:0:0:
192,208,65270,1,0,0:0:0:0:
340,120,65420,1,0,0:0:0:0:
240,280,65570,5,0,0:0:0:0:
412,204,65720,1,0,0:0:0:0:
244,120,65870,2,0,P|248:72|264:28,1,90
261,32,66170,5,4,0:0:0:0:
128,184,74570,5,4,0:0:0:0:
128,192,74870,5,4,0:0:0:0:
128,200,75170,5,4,0:0:0:0:
128,208,75470,5,4,0:0:0:0:
128,216,75770,5,4,0:0:0:0:
160,348,75920,1,0,0:0:0:0:
36,260,76070,1,8,0:0:0:0:
72,132,76220,1,0,0:0:0:0:
188,200,76370,2,0,P|230:197|276:168,1,90
344,60,76670,2,0,P|388:62|426:85,1,90,8|0,0:0|0:0,0:0:0:0:
344,216,76970,5,4,0:0:0:0:
272,100,77120,1,0,0:0:0:0:
208,216,77270,1,8,0:0:0:0:
280,332,77420,1,0,0:0:0:0:
404,276,77570,2,0,P|448:272|500:288,1,90
396,132,77870,2,0,P|352:143|308:139,1,90,8|0,0:0|0:0,0:0:0:0:
184,48,78170,5,4,0:0:0:0:
232,176,78320,1,0,0:0:0:0:
112,116,78470,1,8,0:0:0:0:
248,100,78620,1,0,0:0:0:0:
220,232,78770,2,0,P|218:281|232:324,1,90
84,368,79070,2,0,P|86:319|72:276,1,90,8|0,0:0|0:0,0:0:0:0:
20,156,79370,5,4,0:0:0:0:
96,204,79520,1,0,0:0:0:0:
184,200,79670,1,8,0:0:0:0:
248,136,79820,1,0,0:0:0:0:
260,48,79970,5,4,0:0:0:0:
248,136,80120,1,0,0:0:0:0:
312,200,80270,1,12,0:0:0:0:
400,204,80420,1,0,0:0:0:0:
476,156,80570,5,4,0:0:0:0:
392,48,80720,1,0,0:0:0:0:
356,180,80870,1,8,0:0:0:0:
468,76,81020,1,0,0:0:0:0:
492,228,81170,2,0,P|496:277|488:320,1,90
340,368,81470,2,0,P|300:364|256:332,1,90,8|0,0:0|0:0,0:0:0:0:
192,200,81770,5,4,0:0:0:0:
140,324,81920,1,0,0:0:0:0:
269,241,82070,1,8,0:0:0:0:
212,116,82220,1,0,0:0:0:0:
104,220,82370,2,0,P|72:220|12:196,1,90
92,64,82670,2,0,P|124:64|184:88,1,90,8|0,0:0|0:0,0:0:0:0:
272,204,82970,5,4,0:0:0:0:
340,88,83120,1,0,0:0:0:0:
388,232,83270,1,8,0:0:0:0:
456,116,83420,1,0,0:0:0:0:
272,204,83570,2,0,P|267:254|285:299,1,90
416,360,83870,2,0,P|429:317|423:273,1,90,8|0,0:0|0:0,0:0:0:0:
364,132,84170,5,4,0:0:0:0:
296,76,84320,1,0,0:0:0:0:
208,64,84470,1,8,0:0:0:0:
128,104,84620,1,0,0:0:0:0:
40,108,84770,5,4,0:0:0:0:
8,192,84920,1,0,0:0:0:0:
48,272,85070,1,12,0:0:0:0:
136,264,85220,1,0,0:0:0:0:
172,184,85370,5,4,0:0:0:0:
48,272,85520,1,0,0:0:0:0:
196,316,85670,1,8,0:0:0:0:
96,200,85820,1,0,0:0:0:0:
112,352,85970,2,0,P|154:368|204:364,1,90
320,308,86270,2,0,P|364:305|406:321,1,90,8|0,0:0|0:0,0:0:0:0:
476,204,86570,5,4,0:0:0:0:
360,132,86720,1,0,0:0:0:0:
408,256,86870,1,8,0:0:0:0:
443,125,87020,1,0,0:0:0:0:
340,212,87170,2,0,P|298:200|252:192,1,90
160,92,87470,2,0,P|116:104|72:111,1,90,8|0,0:0|0:0,0:0:0:0:
32,260,87770,5,4,0:0:0:0:
152,196,87920,1,0,0:0:0:0:
20,104,88070,1,8,0:0:0:0:
100,212,88220,1,0,0:0:0:0:
160,92,88370,2,0,P|164:44|144:-4,1,90
288,100,88670,2,0,P|284:148|304:196,1,90,8|0,0:0|0:0,0:0:0:0:
444,275,88970,6,0,P|448:231|434:189,1,90
220,136,89270,2,0,P|236:181|275:216,1,90,8|0,0:0|0:0,0:0:0:0:
504,232,89570,2,0,P|489:189|458:157,1,90
240,240,89870,1,8,0:0:0:0:
356,336,90020,1,0,0:0:0:0:
288,160,90170,6,0,P|219:148|160:192,1,144,4|8,0:0|0:0,0:0:0:0:
64,116,90620,2,0,P|67:81|72:44,1,72
161,188,90920,1,0,0:0:0:0:
54,231,91070,1,8,0:0:0:0:
64,116,91220,1,0,0:0:0:0:
148,268,91370,6,0,P|176:288|228:296,1,72,2|0,0:0|0:0,0:0:0:0:
328,292,91670,1,8,0:0:0:0:
420,224,91819,2,0,P|411:189|402:154,1,72
312,80,92120,1,0,0:0:0:0:
420,44,92270,1,8,0:0:0:0:
372,172,92420,1,0,0:0:0:0:
260,204,92570,6,0,P|224:200|189:187,1,72,2|0,0:0|0:0,0:0:0:0:
68,280,92870,1,8,0:0:0:0:
68,280,93020,2,0,P|104:284|139:297,1,72,2|0,0:0|0:0,0:0:0:0:
252,376,93320,1,0,0:0:0:0:
224,264,93470,1,8,0:0:0:0:
132,336,93620,1,0,0:0:0:0:
252,244,93770,6,0,P|256:207|259:170,1,72,2|0,0:0|0:0,0:0:0:0:
324,76,94070,1,8,0:0:0:0:
436,100,94220,2,0,P|477:87|504:64,1,72,2|0,0:0|0:0,0:0:0:0:
424,216,94520,1,0,0:0:0:0:
332,148,94670,1,8,0:0:0:0:
436,100,94820,1,0,0:0:0:0:
340,236,94970,6,0,P|345:319|356:388,1,144,2|8,0:0|0:0,0:0:0:0:
488,276,95420,2,0,P|486:240|479:201,1,72
408,96,95720,1,0,0:0:0:0:
364,216,95870,1,8,0:0:0:0:
296,108,96020,1,0,0:0:0:0:
220,232,96170,6,0,P|192:244|136:244,1,72,2|0,0:0|0:0,0:0:0:0:
52,144,96470,2,0,P|80:132|136:132,1,72,8|0,0:0|0:0,0:0:0:0:
208,280,96770,2,0,P|180:292|124:292,1,72,2|0,0:0|0:0,0:0:0:0:
8,112,97070,2,0,P|36:100|92:100,1,72,8|0,0:0|0:0,0:0:0:0:
236,200,97370,6,0,P|271:198|305:185,1,72,2|0,0:0|0:0,0:0:0:0:
200,64,97670,1,8,0:0:0:0:
125,186,97820,2,0,P|125:222|141:262,1,72
220,336,98120,1,0,0:0:0:0:
108,356,98270,1,8,0:0:0:0:
216,252,98420,1,0,0:0:0:0:
328,272,98570,6,0,P|362:277|400:291,1,72,2|0,0:0|0:0,0:0:0:0:
496,348,98870,1,8,0:0:0:0:
476,236,99020,2,0,P|481:197|492:164,1,72,0|2,0:0|0:0,0:0:0:0:
372,112,99320,1,0,0:0:0:0:
472,52,99470,1,12,0:0:0:0:
364,16,99620,1,0,0:0:0:0:
417,179,99770,6,0,P|339:186|293:130,1,144,4|8,0:0|0:0,0:0:0:0:
236,44,100220,2,0,P|200:56|168:72,1,72
68,132,100520,1,0,0:0:0:0:
100,20,100670,1,8,0:0:0:0:
160,160,100820,1,0,0:0:0:0:
80,240,100970,6,0,P|35:235|6:222,1,72
120,112,101270,1,8,0:0:0:0:
200,212,101420,2,0,P|203:249|196:288,1,72
64,332,101720,1,0,0:0:0:0:
172,368,101870,1,8,0:0:0:0:
115,251,102020,1,0,0:0:0:0:
212,356,102170,6,0,P|284:344|376:332,1,144,2|8,0:0|0:0,0:0:0:0:
420,192,102620,2,0,P|370:200|336:206,1,72,0|2,0:0|0:0,0:0:0:0:
252,268,102920,1,0,0:0:0:0:
276,156,103070,1,8,0:0:0:0:
360,236,103220,1,0,0:0:0:0:
248,140,103370,6,0,P|259:103|272:68,1,72,2|0,0:0|0:0,0:0:0:0:
348,203,103670,1,8,0:0:0:0:
236,292,103820,1,0,0:0:0:0:
140,184,103970,2,0,P|103:190|64:204,1,72,2|0,0:0|0:0,0:0:0:0:
200,54,104270,2,0,P|234:65|269:71,1,72,8|0,0:0|0:0,0:0:0:0:
424,180,104570,5,4,0:0:0:0:
236,212,104720,1,0,0:0:0:0:
348,60,104870,1,8,0:0:0:0:
356,248,105020,5,0,0:0:0:0:
240,100,105170,1,0,0:0:0:0:
132,256,105320,1,0,0:0:0:0:
300,172,105470,5,8,0:0:0:0:
116,128,105620,1,0,0:0:0:0:
216,288,105770,1,4,0:0:0:0:
240,100,105920,5,0,0:0:0:0:
132,256,106070,1,8,0:0:0:0:
40,92,106220,1,0,0:0:0:0:
202,189,106370,5,0,0:0:0:0:
24,248,106520,1,0,0:0:0:0:
144,100,106670,2,0,P|145:49|128:8,1,90,8|0,0:0|0:0,0:0:0:0:
36,196,106970,6,0,P|68:224|120:244,1,90,4|0,0:0|0:0,0:0:0:0:
280,156,107270,2,0,P|248:128|196:108,1,90,8|0,0:0|0:0,0:0:0:0:
331,300,107570,2,0,P|374:279|403:244,1,90,4|0,0:0|0:0,0:0:0:0:
376,60,107870,2,0,P|333:81|304:116,1,90,8|0,0:0|0:0,0:0:0:0:
172,248,108170,5,8,0:0:0:0:
150,242,108245,1,8,0:0:0:0:
128,236,108320,1,8,0:0:0:0:
264,368,108470,1,8,0:0:0:0:
286,362,108545,1,8,0:0:0:0:
308,356,108620,1,8,0:0:0:0:
264,172,108770,1,8,0:0:0:0:
270,151,108845,1,8,0:0:0:0:
276,130,108920,1,8,0:0:0:0:
282,109,108995,1,8,0:0:0:0:
287,87,109070,1,8,0:0:0:0:
396,8,109220,1,8,0:0:0:0:
440,192,109370,6,0,P|453:262|464:332,1,135,4|0,0:0|0:0,0:0:0:0:
376,292,109670,2,0,P|316:276|249:318,1,135,4|0,0:0|0:0,0:0:0:0:
180,368,109970,2,0,P|148:372|104:292,1,135,4|0,0:0|0:0,0:0:0:0:
112,192,110270,6,0,B|132:135|106:56|106:56|168:124,1,202.500007724762,8|0,0:0|0:0,0:0:0:0:
252,216,110570,5,4,0:0:0:0:
297,233,110645,1,0,0:0:0:0:
344,241,110720,1,0,0:0:0:0:
390,227,110795,1,0,0:0:0:0:
429,198,110870,1,8,0:0:0:0:
443,151,110945,1,0,0:0:0:0:
435,103,111020,1,0,0:0:0:0:
406,63,111095,1,0,0:0:0:0:
358,52,111170,5,0,0:0:0:0:
313,72,111245,1,0,0:0:0:0:
288,114,111320,1,0,0:0:0:0:
288,162,111395,1,0,0:0:0:0:
308,206,111470,1,8,0:0:0:0:
344,241,111545,1,0,0:0:0:0:
369,282,111620,1,0,0:0:0:0:
365,330,111695,1,0,0:0:0:0:
327,361,111770,5,0,0:0:0:0:
278,368,111845,1,0,0:0:0:0:
231,355,111920,1,0,0:0:0:0:
192,325,111995,1,0,0:0:0:0:
183,277,112070,1,8,0:0:0:0:
160,233,112145,1,0,0:0:0:0:
120,204,112220,1,0,0:0:0:0:
72,193,112295,1,0,0:0:0:0:
26,210,112370,5,0,0:0:0:0:
14,257,112445,1,0,0:0:0:0:
40,297,112520,1,0,0:0:0:0:
88,294,112595,1,0,0:0:0:0:
114,253,112670,1,8,0:0:0:0:
120,204,112745,1,0,0:0:0:0:
102,158,112820,1,0,0:0:0:0:
106,109,112895,1,0,0:0:0:0:
134,69,112970,5,0,0:0:0:0:
178,50,113045,1,0,0:0:0:0:
226,54,113120,1,0,0:0:0:0:
267,79,113195,1,0,0:0:0:0:
295,118,113270,1,8,0:0:0:0:
340,134,113345,1,0,0:0:0:0:
388,133,113420,1,0,0:0:0:0:
426,103,113495,1,0,0:0:0:0:
441,56,113570,5,0,0:0:0:0:
426,103,113645,1,0,0:0:0:0:
426,151,113720,1,0,0:0:0:0:
433,198,113795,1,0,0:0:0:0:
458,239,113870,1,8,0:0:0:0:
477,283,113945,1,0,0:0:0:0:
460,328,114020,1,0,0:0:0:0:
416,350,114095,1,0,0:0:0:0:
369,335,114170,6,0,P|340:328|312:328,3,53.9999983520508
209,363,114470,2,0,P|182:362|155:355,3,53.9999983520508,8|0|0|0,0:0|0:0|0:0|0:0,0:0:0:0:
59,298,114770,2,0,P|32:291|5:290,3,53.9999983520508
136,206,115070,2,0,P|130:151|128:97,1,107.999996704102,4|0,0:0|0:0,0:0:0:0:
316,72,115370,5,0,0:0:0:0:
362,87,115445,1,0,0:0:0:0:
410,81,115520,1,0,0:0:0:0:
451,55,115595,1,0,0:0:0:0:
487,86,115670,1,8,0:0:0:0:
500,132,115745,1,0,0:0:0:0:
497,180,115820,1,0,0:0:0:0:
476,223,115895,1,0,0:0:0:0:
434,248,115970,5,0,0:0:0:0:
386,256,116045,1,0,0:0:0:0:
345,229,116120,1,0,0:0:0:0:
305,201,116195,1,0,0:0:0:0:
256,202,116270,1,8,0:0:0:0:
213,226,116345,1,0,0:0:0:0:
196,271,116420,1,0,0:0:0:0:
205,318,116495,1,0,0:0:0:0:
248,338,116570,5,0,0:0:0:0:
296,334,116645,1,0,0:0:0:0:
326,296,116720,1,0,0:0:0:0:
325,247,116795,1,0,0:0:0:0:
305,201,116870,1,8,0:0:0:0:
314,153,116945,1,0,0:0:0:0:
347,117,117020,1,0,0:0:0:0:
349,68,117095,1,0,0:0:0:0:
309,39,117170,5,0,0:0:0:0:
265,61,117245,1,0,0:0:0:0:
219,77,117320,1,0,0:0:0:0:
170,75,117395,1,0,0:0:0:0:
123,59,117470,1,8,0:0:0:0:
80,34,117545,1,0,0:0:0:0:
89,81,117620,1,0,0:0:0:0:
76,128,117695,1,0,0:0:0:0:
46,166,117770,5,0,0:0:0:0:
30,212,117845,1,0,0:0:0:0:
65,245,117920,1,0,0:0:0:0:
112,237,117995,1,0,0:0:0:0:
129,191,118070,1,8,0:0:0:0:
94,157,118145,1,0,0:0:0:0:
46,166,118220,1,0,0:0:0:0:
30,212,118295,1,0,0:0:0:0:
18,259,118370,5,0,0:0:0:0:
26,306,118445,1,0,0:0:0:0:
65,334,118520,1,0,0:0:0:0:
113,337,118595,1,0,0:0:0:0:
159,321,118670,1,8,0:0:0:0:
205,306,118745,1,0,0:0:0:0:
253,309,118820,1,0,0:0:0:0:
299,323,118895,1,0,0:0:0:0:
341,347,118970,6,0,P|367:347|399:339,3,53.9999983520508
462,249,119270,2,0,P|464:222|468:192,3,53.9999983520508,8|0|0|0,0:0|0:0|0:0|0:0,0:0:0:0:
416,92,119570,2,0,P|413:65|410:35,3,53.9999983520508
336,178,119870,2,0,P|292:180|228:152,1,107.999996704102,4|0,0:0|0:0,0:0:0:0:
116,15,120170,5,4,0:0:0:0:
85,52,120245,1,0,0:0:0:0:
66,96,120320,1,0,0:0:0:0:
67,144,120395,1,0,0:0:0:0:
87,188,120470,1,8,0:0:0:0:
106,232,120545,1,0,0:0:0:0:
98,280,120620,1,0,0:0:0:0:
49,286,120695,1,0,0:0:0:0:
24,243,120770,5,0,0:0:0:0:
61,212,120845,1,0,0:0:0:0:
106,232,120920,1,0,0:0:0:0:
136,270,120995,1,0,0:0:0:0:
179,292,121070,1,8,0:0:0:0:
227,292,121145,1,0,0:0:0:0:
270,269,121220,1,0,0:0:0:0:
318,263,121295,1,0,0:0:0:0:
365,271,121370,5,0,0:0:0:0:
404,298,121445,1,0,0:0:0:0:
433,336,121520,2,0,P|463:331|491:318,1,53.9999983520508
436,231,121670,2,0,P|459:215|477:195,1,53.9999983520508,8|0,0:0|0:0,0:0:0:0:
392,140,121820,2,0,P|407:113|415:83,1,53.9999983520508
312,74,121970,2,0,P|297:51|289:25,1,53.9999983520508
204,90,122120,2,0,P|174:84|146:71,1,53.9999983520508
149,184,122270,2,0,P|128:202|104:214,1,53.9999983520508,8|0,0:0|0:0,0:0:0:0:
179,290,122420,2,0,P|179:320|171:350,1,53.9999983520508
51,301,122570,5,0,0:0:0:0:
19,263,122645,1,0,0:0:0:0:
16,214,122720,1,0,0:0:0:0:
34,168,122795,1,0,0:0:0:0:
57,125,122870,1,8,0:0:0:0:
66,77,122945,1,0,0:0:0:0:
52,30,123020,1,0,0:0:0:0:
66,77,123095,1,0,0:0:0:0:
93,116,123170,5,0,0:0:0:0:
138,132,123245,1,0,0:0:0:0:
185,120,123320,1,0,0:0:0:0:
229,99,123395,1,0,0:0:0:0:
277,99,123470,1,8,0:0:0:0:
317,125,123545,1,0,0:0:0:0:
363,109,123620,1,0,0:0:0:0:
367,60,123695,1,0,0:0:0:0:
328,29,123770,5,0,0:0:0:0:
285,51,123845,1,0,0:0:0:0:
277,99,123920,2,0,P|280:128|289:155,1,53.9999983520508
227,236,124070,2,0,P|251:247|277:253,1,53.9999983520508,8|0,0:0|0:0,0:0:0:0:
323,348,124220,2,0,P|344:332|363:312,1,53.9999983520508
458,267,124370,2,0,P|465:292|468:319,1,53.9999983520508
460,158,124520,2,0,P|486:163|510:175,1,53.9999983520508
377,98,124670,2,0,P|395:78|417:62,1,53.9999983520508,12|0,0:0|0:0,0:0:0:0:
287,151,124820,2,0,P|279:125|276:98,1,53.9999983520508
166,76,124970,5,4,0:0:0:0:
127,46,125045,1,0,0:0:0:0:
78,47,125120,1,0,0:0:0:0:
36,73,125195,1,0,0:0:0:0:
16,117,125270,1,8,0:0:0:0:
24,164,125345,1,0,0:0:0:0:
56,200,125420,1,0,0:0:0:0:
102,215,125495,1,0,0:0:0:0:
138,247,125570,5,0,0:0:0:0:
162,289,125645,1,0,0:0:0:0:
148,335,125720,1,0,0:0:0:0:
107,362,125795,1,0,0:0:0:0:
58,358,125870,1,8,0:0:0:0:
29,318,125945,1,0,0:0:0:0:
26,269,126020,1,0,0:0:0:0:
57,232,126095,1,0,0:0:0:0:
102,215,126170,5,0,0:0:0:0:
149,224,126245,1,0,0:0:0:0:
192,246,126320,2,0,P|221:241|246:229,1,53.9999983520508
345,251,126470,2,0,P|337:276|323:299,1,53.9999983520508,8|0,0:0|0:0,0:0:0:0:
449,233,126620,2,0,P|440:207|425:185,1,53.9999983520508
419,78,126770,2,0,P|445:81|470:91,1,53.9999983520508
312,77,126920,2,0,P|315:51|325:26,1,53.9999983520508
205,98,127070,2,0,P|213:123|229:146,1,53.9999983520508,8|0,0:0|0:0,0:0:0:0:
192,246,127220,2,0,P|166:238|143:224,1,53.9999983520508
72,124,127370,5,0,0:0:0:0:
53,79,127445,1,0,0:0:0:0:
63,31,127520,1,0,0:0:0:0:
106,8,127595,1,0,0:0:0:0:
153,19,127670,1,8,0:0:0:0:
172,63,127745,1,0,0:0:0:0:
205,98,127820,1,0,0:0:0:0:
245,125,127895,1,0,0:0:0:0:
293,125,127970,5,0,0:0:0:0:
339,112,128045,1,0,0:0:0:0:
368,73,128120,1,0,0:0:0:0:
413,57,128195,1,0,0:0:0:0:
461,62,128270,1,8,0:0:0:0:
488,102,128345,1,0,0:0:0:0:
507,146,128420,1,0,0:0:0:0:
499,194,128495,1,0,0:0:0:0:
482,239,128570,5,0,0:0:0:0:
442,267,128645,1,0,0:0:0:0:
393,273,128720,1,0,0:0:0:0:
346,259,128795,1,0,0:0:0:0:
302,237,128870,1,8,0:0:0:0:
255,249,128945,1,0,0:0:0:0:
233,292,129020,1,0,0:0:0:0:
236,340,129095,1,0,0:0:0:0:
204,376,129170,5,0,0:0:0:0:
155,376,129245,1,0,0:0:0:0:
106,369,129320,1,0,0:0:0:0:
65,342,129395,1,0,0:0:0:0:
43,298,129470,1,8,0:0:0:0:
40,249,129545,1,0,0:0:0:0:
50,201,129620,1,0,0:0:0:0:
79,162,129695,1,0,0:0:0:0:
113,141,129770,5,4,0:0:0:0:
280,204,129920,1,0,0:0:0:0:
228,32,130070,1,0,0:0:0:0:
184,208,130220,5,4,0:0:0:0:
324,96,130370,1,0,0:0:0:0:
144,84,130520,1,0,0:0:0:0:
280,204,130670,5,4,0:0:0:0:
124,292,130820,1,0,0:0:0:0:
208,132,130970,1,0,0:0:0:0:
236,308,131120,5,4,0:0:0:0:
108,180,131270,1,0,0:0:0:0:
272,108,131420,1,0,0:0:0:0:
164,252,131570,6,0,P|156:275|152:306,1,45,8|8,0:0|0:0,0:0:0:0:
252,324,131720,2,0,P|260:345|264:368,1,45,8|8,0:0|0:0,0:0:0:0:
348,272,131870,2,0,P|392:272|444:284,1,90,4|0,0:0|0:0,0:0:0:0:
340,128,132170,5,4,0:0:0:0:
192,232,132320,1,0,0:0:0:0:
216,52,132470,1,0,0:0:0:0:
292,216,132620,5,4,0:0:0:0:
132,132,132770,1,0,0:0:0:0:
120,312,132920,1,0,0:0:0:0:
220,160,133070,5,4,0:0:0:0:
52,220,133220,1,0,0:0:0:0:
220,288,133370,1,0,0:0:0:0:
56,356,133520,5,4,0:0:0:0:
140,196,133670,1,0,0:0:0:0:
256,332,133820,1,0,0:0:0:0:
87,269,133970,5,4,0:0:0:0:
260,216,134120,1,0,0:0:0:0:
128,92,134270,2,0,P|131:44|151:4,1,90
284,132,134570,5,4,0:0:0:0:
328,152,134645,1,0,0:0:0:0:
376,153,134720,1,0,0:0:0:0:
422,139,134795,1,0,0:0:0:0:
453,101,134870,1,8,0:0:0:0:
422,139,134945,1,0,0:0:0:0:
413,186,135020,1,0,0:0:0:0:
424,233,135095,1,0,0:0:0:0:
446,275,135170,5,0,0:0:0:0:
459,322,135245,1,0,0:0:0:0:
433,363,135320,1,0,0:0:0:0:
384,367,135395,1,0,0:0:0:0:
341,343,135470,1,8,0:0:0:0:
297,320,135545,1,0,0:0:0:0:
249,308,135620,1,0,0:0:0:0:
203,324,135695,1,0,0:0:0:0:
157,341,135770,5,0,0:0:0:0:
108,334,135845,1,0,0:0:0:0:
69,304,135920,1,0,0:0:0:0:
53,257,135995,1,0,0:0:0:0:
55,208,136070,2,0,P|70:149|105:103,1,107.999996704102,4|0,0:0|0:0,0:0:0:0:
249,233,136370,5,4,0:0:0:0:
69,304,136520,1,0,0:0:0:0:
253,364,136670,5,4,0:0:0:0:
177,184,136820,1,0,0:0:0:0:
359,250,136970,5,4,0:0:0:0:
406,262,137045,1,0,0:0:0:0:
450,242,137120,1,0,0:0:0:0:
478,202,137195,1,0,0:0:0:0:
473,153,137270,1,8,0:0:0:0:
443,114,137345,1,0,0:0:0:0:
397,97,137420,1,0,0:0:0:0:
351,114,137495,1,0,0:0:0:0:
308,137,137570,5,0,0:0:0:0:
259,140,137645,1,0,0:0:0:0:
215,117,137720,1,0,0:0:0:0:
185,78,137795,1,0,0:0:0:0:
140,58,137870,1,8,0:0:0:0:
92,50,137945,1,0,0:0:0:0:
55,81,138020,1,0,0:0:0:0:
37,126,138095,1,0,0:0:0:0:
49,172,138170,5,0,0:0:0:0:
73,213,138245,1,0,0:0:0:0:
68,261,138320,1,0,0:0:0:0:
50,306,138395,1,0,0:0:0:0:
19,343,138470,2,0,P|62:364|123:364,1,107.999996704102,4|0,0:0|0:0,0:0:0:0:
271,222,138770,5,4,0:0:0:0:
68,261,138920,1,0,0:0:0:0:
265,317,139070,5,4,0:0:0:0:
124,167,139220,1,0,0:0:0:0:
203,356,139370,5,4,0:0:0:0:
247,335,139445,1,0,0:0:0:0:
295,327,139520,1,0,0:0:0:0:
342,338,139595,1,0,0:0:0:0:
388,351,139670,1,8,0:0:0:0:
434,337,139745,1,0,0:0:0:0:
463,298,139820,1,0,0:0:0:0:
473,250,139895,1,0,0:0:0:0:
458,203,139970,5,0,0:0:0:0:
418,174,140045,1,0,0:0:0:0:
377,147,140120,1,0,0:0:0:0:
377,98,140195,1,0,0:0:0:0:
409,61,140270,1,8,0:0:0:0:
457,67,140345,1,0,0:0:0:0:
481,109,140420,1,0,0:0:0:0:
461,153,140495,1,0,0:0:0:0:
418,174,140570,5,0,0:0:0:0:
371,186,140645,1,0,0:0:0:0:
322,178,140720,1,0,0:0:0:0:
278,156,140795,1,0,0:0:0:0:
235,132,140870,2,0,P|184:132|126:152,1,107.999996704102,4|0,0:0|0:0,0:0:0:0:
281,303,141170,5,4,0:0:0:0:
342,96,141320,1,0,0:0:0:0:
130,149,141470,5,4,0:0:0:0:
338,206,141620,1,0,0:0:0:0:
138,288,141770,5,4,0:0:0:0:
91,302,141845,1,0,0:0:0:0:
43,289,141920,1,0,0:0:0:0:
15,249,141995,1,0,0:0:0:0:
8,200,142070,1,8,0:0:0:0:
20,153,142145,1,0,0:0:0:0:
55,119,142220,1,0,0:0:0:0:
102,109,142295,1,0,0:0:0:0:
144,132,142370,5,0,0:0:0:0:
189,148,142445,1,0,0:0:0:0:
237,141,142520,1,0,0:0:0:0:
260,98,142595,1,0,0:0:0:0:
231,58,142670,1,8,0:0:0:0:
182,61,142745,1,0,0:0:0:0:
166,106,142820,1,0,0:0:0:0:
189,148,142895,1,0,0:0:0:0:
202,194,142970,5,0,0:0:0:0:
183,238,143045,1,0,0:0:0:0:
170,284,143120,1,0,0:0:0:0:
183,330,143195,1,0,0:0:0:0:
216,365,143270,2,0,P|273:369|329:330,1,107.999996704102,4|0,0:0|0:0,0:0:0:0:
411,151,143570,5,4,0:0:0:0:
202,194,143720,1,0,0:0:0:0:
403,272,143870,5,4,0:0:0:0:
251,117,144020,1,0,0:0:0:0:
291,310,144170,5,4,0:0:0:0:
411,151,144320,1,0,0:0:0:0:
216,113,144470,1,0,0:0:0:0:
366,242,144620,5,4,0:0:0:0:
175,187,144770,1,0,0:0:0:0:
341,80,144920,1,0,0:0:0:0:
455,241,145070,5,4,0:0:0:0:
267,303,145220,1,0,0:0:0:0:
216,113,145370,1,0,0:0:0:0:
411,151,145520,5,4,0:0:0:0:
221,215,145670,1,0,0:0:0:0:
291,29,145820,1,0,0:0:0:0:
333,240,145970,5,4,0:0:0:0:
135,252,146120,1,0,0:0:0:0:
290,129,146270,1,0,0:0:0:0:
241,374,146420,1,8,0:0:0:0:
