osu file format v14

[General]
AudioFilename: Yami.mp3
AudioLeadIn: 1500
PreviewTime: 51695
Countdown: 0
SampleSet: None
StackLeniency: 0.7
Mode: 0
LetterboxInBreaks: 0
WidescreenStoryboard: 0

[Editor]
DistanceSpacing: 1.2
BeatDivisor: 1
GridSize: 4
TimelineZoom: 0.6

[Metadata]
Title:Yami no Mahou Shoujo
TitleUnicode:闇の魔法少女
Artist:Silver Forest feat.Aki
ArtistUnicode:Silver Forest feat.アキ
Creator:-Maruk-
Version:Beginner
Source:太鼓の達人
Tags:Taiko no Tatsujin Namco Original Kanzaki Ranko
BeatmapID:1134544
BeatmapSetID:339091

[Difficulty]
HPDrainRate:3
CircleSize:3
OverallDifficulty:3
ApproachRate:4
SliderMultiplier:0.799999999999999
SliderTickRate:1

[Events]
//Background and Video events
0,0,"BG.jpg",0,0
//Break Periods
2,66370,74210
//Storyboard Layer 0 (Background)
//Storyboard Layer 1 (Fail)
//Storyboard Layer 2 (Pass)
//Storyboard Layer 3 (Foreground)
//Storyboard Sound Samples

[TimingPoints]
170,300,4,1,1,60,1,0
2570,-100,4,1,1,60,0,1
12170,-100,4,1,1,50,0,0
51470,-100,4,2,2,70,0,0
51770,-100,4,2,2,80,0,1
51845,-100,4,1,1,60,0,1
61370,-100,4,1,1,70,0,0
75770,-100,4,1,1,50,0,0
110270,-100,4,2,2,80,0,0
110570,-100,4,2,2,80,0,1
110645,-100,4,1,1,50,0,1
129770,-100,4,1,1,70,0,0
134570,-100,4,2,2,80,0,1
134645,-100,4,1,1,50,0,1
136970,-100,4,2,2,80,0,1
137045,-100,4,1,1,50,0,1
139370,-100,4,2,2,80,0,1
139445,-100,4,1,1,50,0,1
141770,-100,4,2,2,80,0,1
141845,-100,4,1,1,50,0,1
144170,-100,4,1,1,70,0,0
146420,-100,4,2,2,60,0,0

[Colours]
Combo1 : 128,255,255
Combo2 : 255,128,128
Combo3 : 255,255,128
Combo4 : 128,255,128

[HitObjects]
256,192,170,12,4,2570,0:0:0:0:
200,164,4070,6,0,P|204:250|208:328,1,160,4|4,0:0|0:0,0:0:0:0:
300,292,4970,2,0,P|340:285|468:341,2,160,4|0|0,0:0|0:0|0:0,0:0:0:0:
208,324,6470,2,0,P|168:331|40:275,1,160,4|4,0:0|0:0,0:0:0:0:
22,203,7370,6,0,P|18:123|10:31,2,160,4|0|0,0:0|0:0|0:0,0:0:0:0:
108,248,8870,2,0,P|165:250|220:156,1,160,4|4,0:0|0:0,0:0:0:0:
240,80,9770,2,0,P|268:51|384:72,2,160,4|0|0,0:0|0:0|0:0,0:0:0:0:
221,173,11270,2,0,P|214:262|217:336,1,160,4|4,0:0|0:0,0:0:0:0:
308,360,12170,6,0,P|372:366|424:204,1,240,4|8,0:0|0:0,0:0:0:0:
380,158,13370,2,0,P|296:164|204:174,1,160
128,144,14270,1,8,0:0:0:0:
44,192,14570,2,0,P|24:276|56:360,1,160
140,352,15470,1,8,0:0:0:0:
188,268,15770,2,0,P|244:256|344:296,1,160
444,128,16970,6,0,P|388:140|248:32,1,240,0|8,0:0|0:0,0:0:0:0:
172,92,18170,2,0,P|92:86|-4:80,1,160
24,176,19070,1,8,0:0:0:0:
36,272,19370,2,0,P|116:278|212:284,1,160
280,332,20270,1,8,0:0:0:0:
368,368,20570,2,0,P|420:304|424:216,1,160
340,56,21770,6,0,P|278:155|314:266,1,240,0|8,0:0|0:0,0:0:0:0:
360,352,22970,2,0,P|282:353|197:360,1,160
104,344,23870,1,8,0:0:0:0:
36,276,24170,2,0,P|25:217|61:120,1,160
124,52,25070,1,8,0:0:0:0:
208,96,25370,2,0,B|248:120|308:96|308:96|336:112|336:112|384:84|448:104,1,240,0|8,0:0|0:0,0:0:0:0:
488,184,26570,6,0,P|476:294|365:318,1,240,0|8,0:0|0:0,0:0:0:0:
406,231,27770,2,0,P|321:221|235:215,1,160
152,208,28670,1,8,0:0:0:0:
55,195,28970,2,0,P|18:128|52:58,1,160
140,16,29870,1,8,0:0:0:0:
227,59,30170,2,0,P|260:128|223:196,1,160
76,320,31370,6,0,B|128:368|184:320|184:320|208:356|208:356|284:356|320:232|320:232|372:272|360:340,1,439.999999999999,4|0,0:0|0:0,0:0:0:0:
456,92,33770,2,0,B|465:134|413:174|413:174|377:50|301:50|301:50|277:86|277:86|221:38|169:86,1,439.999999999999,2|0,0:0|0:0,0:0:0:0:
28,276,36170,6,0,B|92:256|148:304|148:304|172:292|172:292|208:320|268:312,1,240,2|8,0:0|0:0,0:0:0:0:
340,348,37370,2,0,P|414:355|477:287,1,160
472,204,38270,1,8,0:0:0:0:
460,108,38570,2,0,P|341:28|262:80,1,240,0|8,0:0|0:0,0:0:0:0:
216,148,39770,2,0,P|132:152|52:104,1,160
228,16,40970,6,0,B|287:24|316:51|334:71|347:106|362:145|349:185|336:212|312:240|312:240|404:244|448:168,1,439.999999999999,4|0,0:0|0:0,0:0:0:0:
292,376,43370,2,0,B|233:368|204:341|186:321|173:286|158:247|171:207|184:180|208:152|208:152|116:148|72:224,1,439.999999999999,2|0,0:0|0:0,0:0:0:0:
308,128,45770,6,0,P|372:76|367:0,1,160,4|0,0:0|0:0,0:0:0:0:
280,36,46670,1,8,0:0:0:0:
192,72,46970,2,0,B|128:92|33:60|33:60|12:120|32:152,1,240,4|8,0:0|0:0,0:0:0:0:
12,232,48170,2,0,P|36:324|112:316,1,160,4|4,0:0|0:0,0:0:0:0:
180,308,49070,1,8,0:0:0:0:
272,276,49370,6,0,P|344:252|480:372,1,240,4|0,0:0|0:0,0:0:0:0:
480,240,50570,2,0,B|464:192|488:144|488:144|477:112|477:112|505:56|476:8,1,240,4|8,0:0|0:0,0:0:0:0:
392,60,51770,6,0,P|328:76|232:56,1,160,4|0,0:0|0:0,0:0:0:0:
148,20,52670,1,8,0:0:0:0:
56,52,52970,2,0,P|21:117|58:203,1,160
120,128,53870,1,8,0:0:0:0:
172,208,54170,2,0,P|163:295|160:372,1,160
252,344,55070,1,8,0:0:0:0:
344,368,55370,6,0,P|424:352|468:208,1,240,0|4,0:0|0:0,0:0:0:0:
432,128,56570,2,0,P|360:116|256:148,1,160
192,184,57470,1,8,0:0:0:0:
96,168,57770,2,0,P|48:112|64:28,1,160
143,82,58670,1,8,0:0:0:0:
204,156,58970,6,0,P|193:222|100:276,1,160
32,236,59870,1,8,0:0:0:0:
8,328,60170,2,0,P|110:370|248:321,1,240,0|4,0:0|0:0,0:0:0:0:
256,192,61370,12,4,63170,0:0:0:0:
256,192,63770,12,4,66170,0:0:0:0:
80,64,75770,6,0,L|64:228,1,160,4|0,0:0|0:0,0:0:0:0:
52,320,76670,1,8,0:0:0:0:
136,368,76970,2,0,P|208:364|240:284,1,160,4|0,0:0|0:0,0:0:0:0:
220,196,77870,1,8,0:0:0:0:
256,108,78170,2,0,P|336:93|432:80,1,160,4|0,0:0|0:0,0:0:0:0:
476,156,79070,1,8,0:0:0:0:
476,252,79370,6,0,P|452:328|308:320,1,240,4|8,0:0|0:0,0:0:0:0:
256,248,80570,2,0,P|261:166|268:88,1,160,4|0,0:0|0:0,0:0:0:0:
192,28,81470,1,8,0:0:0:0:
116,88,81770,2,0,P|111:170|104:248,1,160,4|0,0:0|0:0,0:0:0:0:
56,332,82670,1,8,0:0:0:0:
144,368,82970,2,0,P|208:360|308:368,1,160,4|0,0:0|0:0,0:0:0:0:
396,344,83870,1,8,0:0:0:0:
456,268,84170,6,0,P|476:168|356:128,1,240,4|4,0:0|0:0,0:0:0:0:
280,168,85370,2,0,P|224:180|112:144,1,160,4|0,0:0|0:0,0:0:0:0:
52,92,86270,1,8,0:0:0:0:
126,31,86570,2,0,P|182:19|294:55,1,160,4|0,0:0|0:0,0:0:0:0:
344,116,87470,1,8,0:0:0:0:
368,208,87770,2,0,P|368:296|332:360,1,160,4|0,0:0|0:0,0:0:0:0:
252,308,88670,1,8,0:0:0:0:
164,268,88970,2,0,P|84:264|4:308,1,160,4|0,0:0|0:0,0:0:0:0:
68,116,90170,6,0,B|152:140|222:82|222:82|240:56|292:45|326:77|344:107|346:135|334:170|319:185|292:188|267:182|248:165|263:137,1,439.999999999999,4|0,0:0|0:0,0:0:0:0:
436,308,92570,2,0,B|352:284|282:342|282:342|264:368|212:379|178:347|160:317|158:289|170:254|185:239|212:236|237:242|256:259|241:287,1,439.999999999999,2|0,0:0|0:0,0:0:0:0:
428,128,94970,6,0,P|434:79|280:64,1,240,2|8,0:0|0:0,0:0:0:0:
236,128,96170,2,0,P|180:182|102:176,1,160
16,132,97070,1,8,0:0:0:0:
4,228,97370,2,0,B|0:312|28:368|28:368|84:384|140:344,1,240,0|8,0:0|0:0,0:0:0:0:
208,316,98570,2,0,P|276:308|357:345,1,160
448,176,99770,6,0,B|456:116|500:56|500:56|384:32|288:128|288:128|232:64,1,439.999999999999,4|0,0:0|0:0,0:0:0:0:
56,228,102170,2,0,B|48:288|4:348|4:348|120:372|216:276|216:276|272:340,1,439.999999999999,2|0,0:0|0:0,0:0:0:0:
468,208,104570,6,0,P|500:140|464:40,1,160,4|0,0:0|0:0,0:0:0:0:
400,8,105470,1,8,0:0:0:0:
324,68,105770,2,0,P|260:108|132:24,1,240,4|8,0:0|0:0,0:0:0:0:
56,88,106970,2,0,P|60:172|60:260,1,160,4|4,0:0|0:0,0:0:0:0:
52,344,107870,1,8,0:0:0:0:
148,352,108170,6,0,P|236:344|256:204,1,240,4|0,0:0|0:0,0:0:0:0:
224,124,109370,2,0,B|272:108|320:132|320:132|352:121|352:121|408:149|456:120,1,240,4|8,0:0|0:0,0:0:0:0:
492,212,110570,6,0,P|500:274|452:360,1,160,4|0,0:0|0:0,0:0:0:0:
360,340,111470,1,8,0:0:0:0:
268,316,111770,2,0,P|192:316|96:352,1,160
36,284,112670,1,8,0:0:0:0:
4,192,112970,2,0,P|7:112|80:48,1,160
156,44,113870,1,8,0:0:0:0:
188,136,114170,6,0,B|224:220|196:300|196:300|264:256,1,240,0|4,0:0|0:0,0:0:0:0:
340,216,115370,2,0,P|384:204|508:256,1,160
488,332,116270,1,8,0:0:0:0:
396,360,116570,2,0,P|352:372|228:320,1,160
176,272,117470,1,8,0:0:0:0:
116,196,117770,6,0,P|122:112|132:32,1,160
38,59,118670,1,8,0:0:0:0:
12,152,118970,2,0,P|31:270|144:307,1,240,0|4,0:0|0:0,0:0:0:0:
224,276,120170,6,0,P|288:264|380:312,1,160,4|0,0:0|0:0,0:0:0:0:
440,368,121070,1,8,0:0:0:0:
476,280,121370,2,0,P|486:201|492:112,1,160
456,32,122270,1,8,0:0:0:0:
372,80,122570,2,0,P|328:108|224:100,1,160
144,44,123470,1,8,0:0:0:0:
52,72,123770,6,0,B|-8:168|50:238|50:238|100:184,1,240,0|4,0:0|0:0,0:0:0:0:
164,132,124970,2,0,P|224:140|296:216,1,160
308,304,125870,1,8,0:0:0:0:
372,376,126170,2,0,P|456:360|476:276,1,160
468,200,127070,1,8,0:0:0:0:
400,132,127370,6,0,P|324:132|244:184,1,160
188,244,128270,1,8,0:0:0:0:
112,304,128570,2,0,P|38:247|80:96,1,240,0|4,0:0|0:0,0:0:0:0:
256,192,129770,12,4,131570,0:0:0:0:
256,192,132170,12,4,134570,0:0:0:0:
312,164,136070,6,0,P|308:250|304:328,1,160,4|4,0:0|0:0,0:0:0:0:
212,292,136970,2,0,P|172:285|44:341,2,160,4|0|0,0:0|0:0|0:0,0:0:0:0:
304,324,138470,2,0,P|344:331|472:275,1,160,4|4,0:0|0:0,0:0:0:0:
490,203,139370,6,0,P|494:123|502:31,2,160,4|0|0,0:0|0:0|0:0,0:0:0:0:
404,248,140870,2,0,P|347:250|292:156,1,160,4|4,0:0|0:0,0:0:0:0:
272,80,141770,2,0,P|244:51|128:72,2,160,4|0|0,0:0|0:0|0:0,0:0:0:0:
291,173,143270,2,0,P|298:262|295:336,1,160,4|4,0:0|0:0,0:0:0:0:
256,192,144170,12,8,146420,0:0:0:0:
