osu file format v14

[General]
AudioFilename: audio.mp3
AudioLeadIn: 0
PreviewTime: 100520
Countdown: 0
SampleSet: Soft
StackLeniency: 0.4
Mode: 0
LetterboxInBreaks: 0
SkinPreference:Default
EpilepsyWarning: 1
WidescreenStoryboard: 1

[Editor]
Bookmarks: 55,5636,10694,11217,20985,21682,22380,33020,33543,37555,39124,43310,44357,44706,55868,67031,72613,75403,78194,87961,89357,99124,100520,111682,122845,125636,128427,132613,135403,136799,137758,138194,149357,160520,161915
DistanceSpacing: 0.8
BeatDivisor: 4
GridSize: 16
TimelineZoom: 1.4

[Metadata]
Title:(9) destiny ~ Zutto Cirno no Turn
TitleUnicode:⑨destiny ~ ずっとチルノのターン
Artist:Silver Forest feat. Nano
ArtistUnicode:Silver Forest feat. Nano
Creator:Bloxi
Version:bnmc's Lunatic
Source:東方Project
Tags:baka kero japanese touhou 東方project 2hu video game vgm zun 風神録 mountain of faith mof th10 native otenba koimusume beloved tomboyish daughter girl in love eosd 東方紅魔郷 the Embodiment Scarlet Devil ネイティブフェイス 洩矢諏訪子 もりやすわこ fuujinroku zutto no everlasting moriya suwako comiket c73 おてんば恋娘 蒼天歌 チルノ koumakyou th6 its it's always cirno's cirnos chiruno nine revolution nice boat cheat nyo 重音 テト kasane teto territory leorda bnmc ayel fsjallink kolikiscool runigh yokespai
BeatmapID:3503819
BeatmapSetID:1714809

[Difficulty]
HPDrainRate:5.5
CircleSize:4
OverallDifficulty:8
ApproachRate:9
SliderMultiplier:1.65
SliderTickRate:1

[Events]
//Background and Video events
0,0,"bg.jpg",0,0
//Break Periods
2,128539,134803
//Storyboard Layer 0 (Background)
//Storyboard Layer 1 (Fail)
//Storyboard Layer 2 (Pass)
//Storyboard Layer 3 (Foreground)
//Storyboard Layer 4 (Overlay)
//Storyboard Sound Samples

[TimingPoints]
55,348.837209302326,4,2,1,75,1,0
70,-100,4,2,1,55,0,0
1450,-111.111111111111,4,2,1,55,0,0
2845,-100,4,2,1,55,0,0
5636,-83.3333333333333,4,2,1,65,0,0
6334,-86.9565217391304,4,2,1,65,0,0
7031,-83.3333333333333,4,2,1,65,0,0
7729,-86.9565217391304,4,2,1,65,0,0
8427,-76.9230769230769,4,2,1,65,0,0
9124,-83.3333333333333,4,2,1,65,0,0
9822,-76.9230769230769,4,2,1,65,0,0
10520,-83.3333333333333,4,2,1,65,0,0
11217,-90.9090909090909,4,2,1,65,0,0
14008,-86.9565217391304,4,2,1,65,0,0
15403,-90.9090909090909,4,2,1,65,0,0
19938,-86.9565217391304,4,2,1,65,0,0
20985,-80,4,2,1,65,0,0
21682,-66.6666666666667,4,2,1,65,0,0
22380,-90.9090909090909,4,2,1,65,0,0
25171,-86.9565217391304,4,2,1,65,0,0
26566,-90.9090909090909,4,2,1,65,0,0
31101,-86.9565217391304,4,2,1,65,0,0
32148,-83.3333333333333,4,2,1,65,0,0
33543,-111.111111111111,4,2,1,65,0,0
34241,-100,4,2,1,65,0,0
34938,-90.9090909090909,4,2,1,65,0,0
36334,-83.3333333333333,4,2,1,65,0,0
37031,-76.9230769230769,4,2,1,65,0,0
37729,-71.4285714285714,4,2,1,65,0,0
40520,-76.9230769230769,4,2,1,65,0,0
41217,-71.4285714285714,4,2,1,65,0,0
43485,-71.4285714285714,4,2,1,50,0,0
43834,-71.4285714285714,4,2,1,60,0,0
44182,-71.4285714285714,4,2,1,70,0,0
44706,-80,4,2,1,75,0,1
49241,-74.0740740740741,4,2,1,75,0,1
50287,-80,4,2,1,75,0,1
53078,-76.9230769230769,4,2,1,75,0,1
54822,-80,4,2,1,75,0,1
60578,-74.0740740740741,4,2,1,75,0,1
61275,-80,4,2,1,75,0,1
62671,-83.3333333333333,4,2,1,75,0,1
64241,-76.9230769230769,4,2,1,75,0,1
65636,-80,4,2,1,75,0,1
67031,-90.9090909090909,4,2,1,75,0,0
72613,-86.9565217391304,4,2,1,75,0,0
75403,-83.3333333333333,4,2,1,75,0,0
78194,-90.9090909090909,4,2,1,75,0,0
80985,-86.9565217391304,4,2,1,75,0,0
82380,-90.9090909090909,4,2,1,75,0,0
86915,-86.9565217391304,4,2,1,75,0,0
87961,-80,4,2,1,75,0,0
88659,-71.4285714285714,4,2,1,75,0,0
89357,-90.9090909090909,4,2,1,75,0,0
92148,-86.9565217391304,4,2,1,75,0,0
93543,-90.9090909090909,4,2,1,75,0,0
98078,-86.9565217391304,4,2,1,75,0,0
99124,-83.3333333333333,4,2,1,75,0,0
100520,-80,4,2,1,75,0,1
105229,-74.0740740740741,4,2,1,75,0,1
106101,-80,4,2,1,75,0,1
108892,-76.9230769230769,4,2,1,75,0,1
110810,-80,4,2,1,75,0,1
116392,-74.0740740740741,4,2,1,75,0,1
117264,-80,4,2,1,75,0,1
118659,-83.3333333333333,4,2,1,75,0,1
120055,-76.9230769230769,4,2,1,75,0,1
121450,-80,4,2,1,75,0,1
122845,-90.9090909090909,4,2,1,65,0,0
126334,-83.3333333333333,4,2,1,65,0,0
126682,-90.9090909090909,4,2,1,65,0,0
128601,-90.9090909090909,4,2,1,5,0,0
132264,-90.9090909090909,4,2,1,65,0,0
135403,-83.3333333333333,4,2,1,65,0,0
136101,-86.9565217391304,4,2,1,65,0,0
136799,-71.4285714285714,4,2,1,65,0,0
136973,-71.4285714285714,4,2,1,50,0,0
137322,-71.4285714285714,4,2,1,60,0,0
137671,-71.4285714285714,4,2,1,70,0,0
137758,-66.6666666666667,4,2,1,70,0,0
138194,-80,4,2,1,75,0,1
142903,-74.0740740740741,4,2,1,75,0,1
143775,-80,4,2,1,75,0,1
146566,-76.9230769230769,4,2,1,75,0,1
148310,-80,4,2,1,75,0,1
154066,-74.0740740740741,4,2,1,75,0,1
154938,-80,4,2,1,75,0,1
156334,-83.3333333333333,4,2,1,75,0,1
157729,-76.9230769230769,4,2,1,75,0,1
159124,-80,4,2,1,75,0,1
160520,-90.9090909090909,4,2,1,55,0,0
161915,-90.9090909090909,4,2,1,75,0,0

[Colours]
Combo1 : 101,134,188
Combo2 : 203,219,157
Combo3 : 164,200,236
Combo4 : 254,227,180
Sliderborder : 255,255,255

[HitObjects]
9,220,55,6,0,B|82:188|85:268|184:231,1,165,6|2,0:0|0:0,0:0:0:0:
253,42,752,2,0,P|169:84|134:152,1,165,2|2,0:0|0:0,0:0:0:0:
212,296,1450,2,0,B|240:258|240:258|341:249,1,148.49999546814,2|2,0:0|0:0,0:0:0:0:
434,97,2148,2,0,B|406:134|406:134|304:143,1,148.49999546814,2|2,0:0|0:0,0:0:0:0:
485,170,2845,6,0,L|500:277,1,82.5,6|2,0:0|0:0,0:0:0:0:
427,325,3194,2,0,L|412:218,1,82.5,2|2,0:0|0:0,0:0:0:0:
402,151,3543,1,2,0:0:0:0:
337,289,3717,1,2,0:0:0:0:
485,170,3892,1,2,0:0:0:0:
287,210,4066,1,2,0:0:0:0:
446,84,4241,6,0,P|406:73|364:79,1,82.5,2|2,0:0|0:0,0:0:0:0:
307,128,4502,1,2,0:0:0:0:
307,128,4589,2,0,B|287:98|287:98|297:38,1,82.5,2|2,0:0|0:0,0:0:0:0:
303,18,4851,1,2,0:0:0:0:
303,18,4938,1,2,0:0:0:0:
201,155,5113,1,2,0:0:0:0:
365,78,5287,1,2,0:0:0:0:
147,50,5461,1,2,0:0:0:0:
248,257,5636,5,6,1:0:0:0:
287,237,5723,1,2,0:0:0:0:
331,233,5810,1,2,0:0:0:0:
374,240,5898,1,2,0:0:0:0:
414,259,5985,2,0,P|406:227|409:198,3,49.4999984893799,10|2|2|2,0:0|0:0|0:0|0:0,0:0:0:0:
481,325,6334,5,2,1:0:0:0:
449,345,6421,1,2,0:0:0:0:
411,348,6508,1,2,0:0:0:0:
373,341,6596,1,2,0:0:0:0:
337,327,6683,2,0,P|340:351|336:372,3,47.4375009047985,10|2|2|2,0:0|0:0|0:0|0:0,0:0:0:0:
260,338,7031,5,2,1:0:0:0:
252,294,7118,1,2,0:0:0:0:
243,249,7206,1,2,0:0:0:0:
234,205,7293,1,2,0:0:0:0:
223,161,7380,2,0,L|172:172,3,49.4999984893799,10|2|2|2,0:0|0:0|0:0|0:0,0:0:0:0:
125,239,7729,5,2,1:0:0:0:
101,208,7816,1,2,0:0:0:0:
92,171,7903,1,2,0:0:0:0:
99,133,7991,1,2,0:0:0:0:
126,107,8078,2,0,L|172:97,3,47.4375009047985,10|2|2|2,0:0|0:0|0:0|0:0,0:0:0:0:
250,78,8427,5,6,1:0:0:0:
297,70,8514,1,2,0:0:0:0:
344,61,8601,1,2,0:0:0:0:
390,50,8688,1,2,0:0:0:0:
437,45,8775,1,10,0:0:0:0:
416,89,8863,1,2,0:0:0:0:
412,136,8950,1,2,0:0:0:0:
432,179,9037,1,2,0:0:0:0:
458,218,9124,6,0,L|390:212,3,49.4999984893799,2|2|2|2,1:0|0:0|0:0|0:0,0:0:0:0:
293,266,9473,2,0,L|361:260,3,49.4999984893799,10|2|2|2,0:0|0:0|0:0|0:0,0:0:0:0:
241,345,9822,1,2,1:0:0:0:
213,305,9909,1,2,0:0:0:0:
205,257,9996,1,2,0:0:0:0:
223,211,10084,1,2,0:0:0:0:
180,218,10171,1,10,0:0:0:0:
138,227,10258,1,2,0:0:0:0:
96,238,10345,1,2,0:0:0:0:
55,250,10432,1,2,0:0:0:0:
16,260,10520,2,0,L|22:205,3,49.4999984893799,2|2|2|2,1:0|0:0|0:0|0:0,0:0:0:0:
7,333,10868,5,10,0:0:0:0:
100,162,11043,1,2,0:0:0:0:
277,302,11217,6,0,P|228:284|173:293,1,90.7500027694703,6|2,0:0|0:0,0:0:0:0:
387,262,11566,2,0,P|431:264|473:247,1,90.7500027694703,10|2,0:0|0:0,0:0:0:0:
304,207,11915,1,2,0:0:0:0:
352,370,12089,1,2,0:0:0:0:
416,185,12264,1,10,0:0:0:0:
277,302,12438,1,2,0:0:0:0:
150,177,12613,6,0,B|173:151|173:151|233:145,1,90.7500027694703,2|2,0:0|0:0,0:0:0:0:
14,223,12961,2,0,B|42:243|42:243|102:235,1,90.7500027694703,10|2,0:0|0:0,0:0:0:0:
297,198,13310,2,0,P|310:155|304:110,1,90.7500027694703,2|2,0:0|0:0,0:0:0:0:
212,8,13659,1,10,0:0:0:0:
356,50,13834,1,2,0:0:0:0:
162,161,14008,6,0,L|149:23,1,94.8750018095971,2|2,0:0|0:0,0:0:0:0:
227,310,14357,2,0,L|214:172,1,94.8750018095971,10|2,0:0|0:0,0:0:0:0:
166,378,14706,5,2,0:0:0:0:
307,282,14880,1,2,0:0:0:0:
125,310,15055,1,10,0:0:0:0:
294,359,15229,1,2,0:0:0:0:
155,239,15403,6,0,P|197:226|243:229,1,90.7500027694703,2|2,0:0|0:0,0:0:0:0:
370,333,15752,1,10,0:0:0:0:
305,132,15927,1,2,0:0:0:0:
309,167,16014,1,2,0:0:0:0:
314,203,16101,1,2,0:0:0:0:
319,239,16188,1,2,0:0:0:0:
324,275,16275,1,2,0:0:0:0:
368,82,16450,5,10,0:0:0:0:
512,199,16624,1,2,0:0:0:0:
512,199,16711,1,2,0:0:0:0:
512,199,16799,2,0,L|393:194,1,90.7500027694703,6|2,0:0|0:0,0:0:0:0:
252,59,17148,2,0,L|371:54,1,90.7500027694703,10|2,0:0|0:0,0:0:0:0:
165,107,17496,1,2,0:0:0:0:
251,250,17671,1,2,0:0:0:0:
252,59,17845,1,10,0:0:0:0:
169,205,18020,1,2,0:0:0:0:
183,21,18194,6,0,P|137:25|97:50,1,90.7500027694703,2|2,0:0|0:0,0:0:0:0:
252,59,18543,1,10,0:0:0:0:
217,211,18717,1,2,0:0:0:0:
183,21,18892,1,2,0:0:0:0:
278,158,19066,1,2,0:0:0:0:
418,89,19241,2,0,L|327:92,1,90.7500027694703,10|2,0:0|0:0,0:0:0:0:
259,336,19589,6,0,B|295:357|295:357|365:347,1,90.7500027694703,2|2,0:0|0:0,0:0:0:0:
182,307,19938,2,0,P|123:339|19:332,1,142.312502714396,10|2,0:0|0:0,0:0:0:0:
12,316,20287,2,0,L|26:163,2,142.312502714396,2|2|2,0:0|0:0|0:0,0:0:0:0:
255,220,20985,6,0,P|204:200|131:214,1,103.125,2|2,0:0|0:0,0:0:0:0:
419,254,21334,2,0,P|371:273|320:270,1,103.125,10|2,0:0|0:0,0:0:0:0:
479,196,21682,2,0,B|410:169|389:76|442:18|524:52|510:130,1,247.500009441376,2|2,0:0|0:0,0:0:0:0:
367,43,22206,5,2,0:0:0:0:
367,43,22293,1,2,0:0:0:0:
367,43,22380,2,0,L|251:39,1,90.7500027694703,6|2,0:0|0:0,0:0:0:0:
109,89,22729,2,0,L|225:85,1,90.7500027694703,10|2,0:0|0:0,0:0:0:0:
28,54,23078,1,2,0:0:0:0:
75,218,23252,1,2,0:0:0:0:
155,14,23427,1,10,0:0:0:0:
143,168,23601,1,2,0:0:0:0:
296,215,23775,6,0,P|251:223|208:212,1,90.7500027694703,2|2,0:0|0:0,0:0:0:0:
441,161,24124,2,0,P|397:149|353:158,1,90.7500027694703,10|2,0:0|0:0,0:0:0:0:
512,305,24473,2,0,B|488:271|488:271|493:195,1,90.7500027694703,2|2,0:0|0:0,0:0:0:0:
502,107,24822,1,10,0:0:0:0:
398,269,24996,1,2,0:0:0:0:
226,239,25171,6,0,B|323:228,1,94.8750018095971,2|2,0:0|0:0,0:0:0:0:
159,333,25520,2,0,P|125:290|117:244,1,94.8750018095971,10|2,0:0|0:0,0:0:0:0:
165,124,25868,1,2,0:0:0:0:
39,240,26043,1,2,0:0:0:0:
101,84,26217,1,10,0:0:0:0:
198,259,26392,1,2,0:0:0:0:
315,91,26566,2,0,B|283:74|283:74|209:82,1,90.7500027694703,2|2,0:0|0:0,0:0:0:0:
358,22,26915,1,10,0:0:0:0:
437,211,27089,5,2,0:0:0:0:
412,183,27177,1,2,0:0:0:0:
397,149,27264,1,2,0:0:0:0:
397,112,27351,1,2,0:0:0:0:
413,79,27438,1,2,0:0:0:0:
370,261,27613,1,10,0:0:0:0:
512,150,27787,5,2,0:0:0:0:
512,150,27874,1,2,0:0:0:0:
512,150,27961,2,0,P|458:139|384:152,1,90.7500027694703,6|2,0:0|0:0,0:0:0:0:
280,270,28310,2,0,P|325:271|369:261,1,90.7500027694703,10|2,0:0|0:0,0:0:0:0:
208,215,28659,1,2,0:0:0:0:
180,366,28834,1,2,0:0:0:0:
310,197,29008,1,10,0:0:0:0:
153,288,29182,1,2,0:0:0:0:
144,114,29357,6,0,L|255:106,1,90.7500027694703,2|2,0:0|0:0,0:0:0:0:
60,168,29706,1,10,0:0:0:0:
135,29,29880,1,2,0:0:0:0:
242,186,30055,2,0,L|151:192,1,90.7500027694703,2|2,0:0|0:0,0:0:0:0:
343,156,30403,2,0,P|318:209|330:262,1,90.7500027694703,10|2,0:0|0:0,0:0:0:0:
408,349,30752,6,0,B|437:326|437:326|491:328,1,90.7500027694703,2|2,0:0|0:0,0:0:0:0:
327,382,31101,2,0,P|261:345|180:356,1,142.312502714396,10|2,0:0|0:0,0:0:0:0:
161,369,31450,2,0,B|189:293|189:293|164:207,2,142.312502714396,2|2|2,0:0|0:0|0:0,0:0:0:0:
18,213,32148,2,0,B|106:228|101:142|197:152,2,197.99999395752,2|2|2,0:0|0:0|0:0,0:0:0:0:
220,59,33020,1,2,1:0:0:0:
220,59,33194,2,0,P|199:106|201:164,1,98.9999969787599,2|2,1:0|0:0,0:0:0:0:
303,230,33543,6,0,L|245:225,5,37.1249988670349,2|2|2|2|10|2,1:0|0:0|0:0|0:0|0:0|0:0,0:0:0:0:
371,191,34066,2,0,L|407:194,1,37.1249988670349,2|2,0:0|0:0,0:0:0:0:
490,217,34241,2,0,P|492:190|484:162,5,41.25,2|2|2|2|10|2,1:0|0:0|0:0|0:0|0:0|0:0,0:0:0:0:
433,121,34764,2,0,P|430:100|433:80,1,41.25,2|2,0:0|0:0,0:0:0:0:
464,7,34938,6,0,L|394:1,5,45.3750013847352,2|2|2|2|10|2,1:0|0:0|0:0|0:0|0:0|0:0,0:0:0:0:
308,37,35461,1,2,0:0:0:0:
308,37,35549,1,2,0:0:0:0:
308,37,35636,2,0,L|353:33,5,45.3750013847352,2|2|2|2|10|2,1:0|0:0|0:0|0:0|0:0|0:0,0:0:0:0:
234,73,36159,5,2,0:0:0:0:
234,73,36246,1,2,0:0:0:0:
234,73,36334,2,0,P|224:45|225:-2,5,49.4999984893799,2|2|2|2|10|2,1:0|0:0|0:0|0:0|0:0|0:0,0:0:0:0:
295,124,36857,2,0,P|302:144|301:179,1,49.4999984893799,2|2,0:0|0:0,0:0:0:0:
249,233,37031,2,0,L|192:228,5,53.6249975452424,2|2|2|2|10|2,1:0|0:0|0:0|0:0|0:0|0:0,0:0:0:0:
116,205,37555,2,0,L|123:283,1,53.6249975452424,2|2,0:0|0:0,0:0:0:0:
165,140,37729,6,0,L|159:80,5,57.7499982376099,2|2|2|2|10|2,1:0|0:0|0:0|0:0|0:0|0:0,0:0:0:0:
116,205,38252,1,2,0:0:0:0:
116,205,38339,1,2,0:0:0:0:
116,205,38426,2,0,L|59:211,2,57.7499982376099,2|2|2,1:0|0:0|0:0,0:0:0:0:
4,267,38688,2,0,B|19:295|19:295|16:328,2,57.7499982376099,2|10|2,0:0|0:0|0:0,0:0:0:0:
88,350,38950,2,0,L|145:344,1,57.7499982376099,2|2,0:0|0:0,0:0:0:0:
173,340,39124,5,2,1:0:0:0:
159,314,39211,1,2,0:0:0:0:
148,286,39299,1,2,0:0:0:0:
142,257,39386,1,2,0:0:0:0:
139,228,39473,1,10,0:0:0:0:
139,199,39560,1,2,0:0:0:0:
145,170,39648,2,0,P|171:168|203:173,1,57.7499982376099,2|2,0:0|0:0,0:0:0:0:
319,217,39822,6,0,P|290:221|261:219,2,57.7499982376099,2|2|2,1:0|0:0|0:0,0:0:0:0:
377,160,40084,2,0,P|388:132|404:108,2,57.7499982376099,2|10|2,0:0|0:0|0:0,0:0:0:0:
404,238,40345,2,0,P|421:261|434:287,1,57.7499982376099,2|2,0:0|0:0,0:0:0:0:
403,358,40520,5,2,1:0:0:0:
381,356,40607,1,2,0:0:0:0:
359,356,40694,1,2,0:0:0:0:
337,354,40781,1,2,0:0:0:0:
315,353,40868,1,10,0:0:0:0:
293,353,40956,1,2,0:0:0:0:
271,353,41043,2,0,P|280:320|275:283,1,53.6249975452424,2|2,0:0|0:0,0:0:0:0:
209,244,41217,6,0,B|178:242|178:242|143:259,2,57.7499982376099,2|2|2,1:0|0:0|0:0,0:0:0:0:
78,204,41479,2,0,B|54:215|54:215|23:213,2,57.7499982376099,2|10|2,0:0|0:0|0:0,0:0:0:0:
135,136,41741,2,0,B|158:124|158:124|189:126,1,57.7499982376099,2|2,0:0|0:0,0:0:0:0:
272,171,41915,5,2,1:0:0:0:
286,146,42002,1,2,0:0:0:0:
293,118,42089,1,2,0:0:0:0:
296,89,42177,1,2,0:0:0:0:
291,60,42264,1,10,0:0:0:0:
278,33,42351,1,2,0:0:0:0:
265,7,42438,2,0,L|339:15,1,57.7499982376099,2|2,0:0|0:0,0:0:0:0:
441,65,42613,6,0,L|383:58,2,57.7499982376099,2|2|2,1:0|0:0|0:0,0:0:0:0:
510,37,42874,2,0,P|516:65|511:98,2,57.7499982376099,2|10|2,0:0|0:0|0:0,0:0:0:0:
460,154,43136,2,0,P|453:182|458:215,1,57.7499982376099,2|2,0:0|0:0,0:0:0:0:
482,305,43310,5,2,1:0:0:0:
445,287,43398,1,2,0:0:0:0:
404,291,43485,1,2,1:0:0:0:
366,326,43572,1,2,0:0:0:0:
320,351,43659,1,10,1:0:0:0:
270,335,43746,1,2,0:0:0:0:
239,291,43834,6,0,L|252:217,2,57.7499982376099,2|2|2,1:0|0:0|1:0,0:0:0:0:
222,99,44095,2,0,L|212:155,2,57.7499982376099,2|2|2,0:0|1:0|0:0,0:0:0:0:
285,42,44357,1,10,1:0:0:0:
99,39,44531,5,2,0:0:0:0:
99,39,44618,1,2,0:0:0:0:
99,39,44706,2,0,P|145:18|196:17,1,103.125,6|2,1:0|0:0,0:0:0:0:
302,119,45055,1,10,0:0:0:0:
193,293,45229,2,0,B|153:248|153:248|160:145,1,154.6875,2|2,0:0|0:0,0:0:0:0:
162,107,45578,1,2,0:0:0:0:
345,198,45752,2,0,P|294:202|246:185,1,103.125,10|2,0:0|0:0,0:0:0:0:
430,132,46101,5,2,1:0:0:0:
413,318,46275,1,2,0:0:0:0:
304,123,46450,1,10,0:0:0:0:
239,289,46624,2,0,L|350:277,1,103.125,2|2,0:0|1:0,0:0:0:0:
169,190,46973,1,2,0:0:0:0:
149,375,47148,1,10,0:0:0:0:
149,375,47322,1,2,0:0:0:0:
11,262,47496,6,0,P|62:265|110:247,1,103.125,2|2,1:0|0:0,0:0:0:0:
147,100,47845,1,10,0:0:0:0:
346,192,48020,2,0,B|267:210|272:145|192:171,1,154.6875,2|2,0:0|0:0,0:0:0:0:
169,190,48368,1,2,0:0:0:0:
331,370,48543,2,0,L|321:260,1,103.125,10|2,0:0|0:0,0:0:0:0:
314,112,48892,5,2,1:0:0:0:
428,248,49066,1,2,0:0:0:0:
451,77,49241,1,10,0:0:0:0:
256,58,49415,2,0,B|291:34|291:34|375:40,1,111.375000424862,2|2,0:0|0:0,0:0:0:0:
189,2,49764,1,2,0:0:0:0:
242,202,49938,1,10,0:0:0:0:
107,44,50113,5,2,0:0:0:0:
107,44,50200,1,2,0:0:0:0:
107,44,50287,2,0,L|93:175,1,103.125,6|2,1:0|0:0,0:0:0:0:
78,292,50636,1,10,0:0:0:0:
314,218,50810,2,0,B|260:224|260:224|228:186|228:186|165:194,1,154.6875,2|2,0:0|0:0,0:0:0:0:
136,200,51159,1,2,0:0:0:0:
292,315,51334,2,0,P|314:265|309:201,1,103.125,10|2,0:0|0:0,0:0:0:0:
266,63,51682,5,2,1:0:0:0:
398,204,51857,1,2,0:0:0:0:
249,151,52031,1,10,0:0:0:0:
444,34,52206,2,0,B|417:77|417:77|433:179,1,154.6875,2|2,0:0|0:0,0:0:0:0:
440,218,52555,1,2,0:0:0:0:
284,115,52729,1,10,0:0:0:0:
284,115,52903,1,2,0:0:0:0:
235,287,53078,6,0,P|250:236|243:183,1,107.249995090485,2|2,1:0|0:0,0:0:0:0:
208,156,53339,2,0,P|200:103|216:52,1,107.249995090485,2|2,0:0|0:0,0:0:0:0:
254,36,53601,1,2,0:0:0:0:
26,199,53775,6,0,B|57:172|57:172|138:175,1,107.249995090485,2|2,1:0|0:0,0:0:0:0:
151,204,54037,2,0,B|182:231|182:231|263:228,1,107.249995090485,2|2,0:0|0:0,0:0:0:0:
284,199,54299,1,2,0:0:0:0:
179,11,54473,5,2,1:0:0:0:
179,11,54560,1,2,0:0:0:0:
179,11,54648,2,0,L|170:69,1,53.6249975452424,2|2,0:0|0:0,0:0:0:0:
151,204,54822,1,10,0:0:0:0:
332,128,54996,2,0,L|215:113,1,103.125,2|2,0:0|1:0,0:0:0:0:
437,75,55345,5,2,1:0:0:0:
499,270,55520,1,2,1:0:0:0:
476,234,55607,1,2,0:0:0:0:
472,193,55694,1,2,0:0:0:0:
484,153,55781,1,2,0:0:0:0:
505,118,55868,6,0,P|473:139|403:147,1,103.125,6|2,1:0|0:0,0:0:0:0:
282,61,56217,1,10,0:0:0:0:
283,271,56392,2,0,B|287:196|221:217|227:132,1,154.6875,2|2,0:0|0:0,0:0:0:0:
248,95,56741,1,2,0:0:0:0:
95,251,56915,2,0,L|213:260,1,103.125,10|2,0:0|0:0,0:0:0:0:
6,215,57264,5,2,1:0:0:0:
99,350,57438,1,2,0:0:0:0:
158,178,57613,1,10,0:0:0:0:
283,271,57787,2,0,P|231:267|182:282,1,103.125,2|2,0:0|1:0,0:0:0:0:
374,329,58136,1,2,0:0:0:0:
252,187,58310,1,10,0:0:0:0:
252,187,58485,1,2,0:0:0:0:
426,109,58659,6,0,L|438:233,1,103.125,2|2,1:0|0:0,0:0:0:0:
450,349,59008,1,10,0:0:0:0:
323,235,59182,2,0,B|283:272|283:272|183:267,1,154.6875,2|2,0:0|0:0,0:0:0:0:
142,263,59531,1,2,0:0:0:0:
256,89,59706,2,0,P|240:137|251:186,1,103.125,10|2,0:0|0:0,0:0:0:0:
315,16,60055,5,2,1:0:0:0:
141,75,60229,1,2,0:0:0:0:
317,142,60403,1,10,0:0:0:0:
102,236,60578,2,0,B|76:199|76:199|86:127,1,111.375000424862,2|2,0:0|1:0,0:0:0:0:
106,5,60927,1,2,1:0:0:0:
154,180,61101,1,10,1:0:0:0:
276,56,61275,5,2,0:0:0:0:
276,56,61363,1,2,0:0:0:0:
276,56,61450,2,0,L|159:48,1,103.125,6|2,1:0|0:0,0:0:0:0:
337,9,61799,1,10,0:0:0:0:
419,237,61973,2,0,B|378:195|378:195|393:69,1,154.6875,2|2,0:0|0:0,0:0:0:0:
394,65,62322,1,2,0:0:0:0:
298,218,62496,1,10,0:0:0:0:
135,187,62671,5,2,0:0:0:0:
135,187,62758,1,2,0:0:0:0:
135,187,62845,2,0,P|182:168|241:172,1,98.9999969787599,2|2,1:0|0:0,0:0:0:0:
66,283,63194,1,10,0:0:0:0:
21,131,63368,1,2,0:0:0:0:
147,265,63543,1,2,1:0:0:0:
181,90,63717,2,0,L|82:83,1,98.9999969787599,2|10,0:0|0:0,0:0:0:0:
268,28,64066,1,2,0:0:0:0:
371,277,64241,6,0,B|354:160,1,107.249995090485,2|2,1:0|0:0,0:0:0:0:
381,138,64502,2,0,B|364:21,1,107.249995090485,2|2,0:0|0:0,0:0:0:0:
363,0,64764,1,2,0:0:0:0:
435,204,64938,6,0,P|387:216|321:199,1,107.249995090485,2|2,1:0|0:0,0:0:0:0:
303,169,65200,2,0,P|251:157|199:170,1,107.249995090485,2|2,0:0|0:0,0:0:0:0:
173,199,65461,1,2,0:0:0:0:
268,80,65636,5,2,1:0:0:0:
249,233,65810,1,2,0:0:0:0:
125,78,65985,1,10,0:0:0:0:
178,281,66159,2,0,L|69:268,1,103.125,2|2,0:0|1:0,0:0:0:0:
286,161,66508,5,2,1:0:0:0:
198,0,66682,1,2,1:0:0:0:
239,5,66770,1,2,0:0:0:0:
279,9,66857,1,2,0:0:0:0:
319,15,66944,1,2,0:0:0:0:
360,18,67031,6,0,P|348:71|359:117,1,90.7500027694703,6|0,0:0|0:0,0:0:0:0:
407,254,67380,2,0,P|419:201|408:155,1,90.7500027694703
267,329,67729,2,0,L|381:318,1,90.7500027694703,2|0,0:0|0:0,0:0:0:0:
197,295,68078,2,0,L|106:303,1,90.7500027694703
22,375,68427,1,2,0:0:0:0:
87,217,68601,1,2,0:0:0:0:
87,217,68688,1,2,0:0:0:0:
87,217,68775,2,0,P|106:256|106:301,1,90.7500027694703,2|0,0:0|0:0,0:0:0:0:
20,161,69124,2,0,P|1:121|1:76,1,90.7500027694703,2|0,0:0|0:0,0:0:0:0:
86,103,69473,2,0,B|129:95|129:95|172:121|172:121|230:112,1,136.125004154205,2|0,0:0|0:0,0:0:0:0:
252,100,69822,6,0,L|245:212,1,90.7500027694703,6|0,0:0|0:0,0:0:0:0:
181,345,70171,2,0,L|186:254,1,90.7500027694703
333,204,70520,1,2,0:0:0:0:
246,190,70694,1,0,0:0:0:0:
186,254,70868,1,0,0:0:0:0:
99,240,71042,1,0,0:0:0:0:
27,187,71217,2,0,P|10:228|9:274,1,90.7500027694703,2|2,0:0|0:0,0:0:0:0:
30,311,71479,1,2,0:0:0:0:
30,311,71566,2,0,L|132:329,1,90.7500027694703,2|0,0:0|0:0,0:0:0:0:
275,269,71915,2,0,L|185:253,1,90.7500027694703,2|0,0:0|0:0,0:0:0:0:
348,349,72264,1,0,0:0:0:0:
348,349,72438,1,0,0:0:0:0:
429,280,72613,6,0,L|423:220,3,47.4375009047985,6|0|0|0,0:0|0:0|0:0|0:0,0:0:0:0:
374,182,72961,2,0,L|368:122,3,47.4375009047985,10|0|0|0,0:0|0:0|0:0|0:0,0:0:0:0:
393,66,73310,2,0,P|367:61|327:73,3,47.4375009047985,2|0|0|0,0:0|0:0|0:0|0:0,0:0:0:0:
240,108,73659,2,0,P|265:112|305:100,3,47.4375009047985,10|0|0|0,0:0|0:0|0:0|0:0,0:0:0:0:
159,87,74008,2,0,L|171:152,1,47.4375009047985,2|0,0:0|0:0,0:0:0:0:
211,205,74182,1,2,0:0:0:0:
211,205,74270,1,0,0:0:0:0:
211,205,74357,2,0,L|147:216,3,47.4375009047985,10|0|0|0,0:0|0:0|0:0|0:0,0:0:0:0:
45,192,74706,2,0,L|91:183,3,47.4375009047985,2|0|0|0,0:0|0:0|0:0|0:0,0:0:0:0:
8,310,75055,2,0,L|0:263,3,47.4375009047985,10|0|0|0,0:0|0:0|0:0|0:0,0:0:0:0:
77,355,75403,5,6,1:0:0:0:
108,347,75491,1,0,0:0:0:0:
141,343,75578,1,0,0:0:0:0:
173,337,75665,1,0,0:0:0:0:
205,332,75752,2,0,P|188:301|186:273,3,49.4999984893799,10|0|0|0,0:0|0:0|0:0|0:0,0:0:0:0:
113,239,76101,5,2,1:0:0:0:
139,218,76188,1,0,0:0:0:0:
179,208,76275,1,0,0:0:0:0:
213,213,76363,1,0,0:0:0:0:
242,231,76450,2,0,L|235:168,3,49.4999984893799,10|0|0|0,0:0|0:0|0:0|0:0,0:0:0:0:
292,70,76799,6,0,L|285:133,1,49.4999984893799,2|0,1:0|0:0,0:0:0:0:
345,186,76973,1,2,0:0:0:0:
345,186,77060,1,2,0:0:0:0:
345,186,77148,2,0,P|374:173|403:172,3,49.4999984893799,10|0|0|0,0:0|0:0|0:0|0:0,0:0:0:0:
456,128,77496,2,0,P|465:150|466:175,1,49.4999984893799,2|0,1:0|0:0,0:0:0:0:
425,240,77671,1,2,0:0:0:0:
341,105,77845,1,10,0:0:0:0:
310,286,78020,1,2,0:0:0:0:
174,127,78194,6,0,L|280:111,1,90.7500027694703,6|2,0:0|0:0,0:0:0:0:
165,269,78543,2,0,L|75:282,1,90.7500027694703,10|2,0:0|0:0,0:0:0:0:
220,201,78892,1,2,0:0:0:0:
286,372,79066,1,2,0:0:0:0:
309,192,79241,1,10,0:0:0:0:
205,340,79415,1,2,0:0:0:0:
363,334,79589,6,0,P|377:289|372:241,1,90.7500027694703,2|2,0:0|0:0,0:0:0:0:
319,104,79938,2,0,P|304:148|309:196,1,90.7500027694703,10|2,0:0|0:0,0:0:0:0:
398,59,80287,1,2,0:0:0:0:
231,139,80461,1,2,0:0:0:0:
320,25,80636,1,10,0:0:0:0:
405,156,80810,1,2,0:0:0:0:
245,57,80985,6,0,B|138:52,1,94.8750018095971,2|2,0:0|0:0,0:0:0:0:
12,170,81334,2,0,B|106:174,1,94.8750018095971,10|2,0:0|0:0,0:0:0:0:
254,175,81682,1,2,0:0:0:0:
96,101,81857,1,2,0:0:0:0:
141,293,82031,1,10,0:0:0:0:
178,130,82206,1,2,0:0:0:0:
292,267,82380,2,0,B|265:247|265:247|205:252,1,90.7500027694703,2|2,0:0|0:0,0:0:0:0:
338,169,82729,1,10,0:0:0:0:
434,348,82903,5,2,0:0:0:0:
429,311,82991,1,2,0:0:0:0:
423,275,83078,1,2,0:0:0:0:
419,238,83165,1,2,0:0:0:0:
414,202,83252,1,2,0:0:0:0:
296,291,83427,1,10,0:0:0:0:
395,115,83601,5,2,0:0:0:0:
395,115,83688,1,2,0:0:0:0:
395,115,83775,2,0,P|353:97|302:101,1,90.7500027694703,6|2,0:0|0:0,0:0:0:0:
164,173,84124,2,0,P|209:174|250:157,1,90.7500027694703,10|2,0:0|0:0,0:0:0:0:
77,117,84473,1,2,0:0:0:0:
148,287,84648,1,2,0:0:0:0:
29,180,84822,1,10,0:0:0:0:
0,337,84996,1,2,0:0:0:0:
196,291,85171,6,0,L|86:282,1,90.7500027694703,2|2,0:0|0:0,0:0:0:0:
287,355,85520,1,10,0:0:0:0:
237,197,85694,1,2,0:0:0:0:
382,244,85868,2,0,P|390:195|380:155,1,90.7500027694703,2|2,0:0|0:0,0:0:0:0:
301,19,86217,2,0,P|291:62|299:107,1,90.7500027694703,10|2,0:0|0:0,0:0:0:0:
466,73,86566,6,0,L|337:63,1,90.7500027694703,2|2,0:0|0:0,0:0:0:0:
191,29,86915,2,0,B|218:67|218:67|203:177,1,142.312502714396,10|2,0:0|0:0,0:0:0:0:
182,197,87264,2,0,B|106:225|114:159|26:188,2,142.312502714396,2|2|2,0:0|0:0|0:0,0:0:0:0:
336,132,87961,6,0,P|348:175|338:256,1,103.125,2|2,0:0|0:0,0:0:0:0:
448,381,88310,2,0,P|444:329|457:280,1,103.125,10|2,0:0|0:0,0:0:0:0:
176,302,88659,2,0,B|232:298|232:298|273:338|273:338|332:334,1,173.24999471283,2|2,0:0|0:0,0:0:0:0:
368,332,89008,1,0,1:0:0:0:
238,217,89182,5,2,0:0:0:0:
238,217,89270,1,2,0:0:0:0:
238,217,89357,2,0,L|121:227,1,90.7500027694703,6|2,0:0|0:0,0:0:0:0:
12,369,89706,2,0,L|102:361,1,90.7500027694703,10|2,0:0|0:0,0:0:0:0:
55,235,90055,1,2,0:0:0:0:
180,351,90229,1,2,0:0:0:0:
135,184,90403,1,10,0:0:0:0:
91,333,90578,1,2,0:0:0:0:
222,237,90752,6,0,P|270:223|328:232,1,90.7500027694703,2|2,0:0|0:0,0:0:0:0:
456,298,91101,2,0,P|410:300|367:287,1,90.7500027694703,10|2,0:0|0:0,0:0:0:0:
512,241,91450,2,0,L|502:136,1,90.7500027694703,2|2,0:0|0:0,0:0:0:0:
489,27,91799,1,10,0:0:0:0:
416,179,91973,1,2,0:0:0:0:
322,43,92148,6,0,B|352:20|352:20|420:26,1,94.8750018095971,2|2,0:0|0:0,0:0:0:0:
186,96,92496,2,0,B|216:119|216:119|284:113,1,94.8750018095971,10|2,0:0|0:0,0:0:0:0:
120,53,92845,1,2,0:0:0:0:
100,211,93020,1,2,0:0:0:0:
237,45,93194,1,10,0:0:0:0:
314,185,93368,1,2,0:0:0:0:
156,153,93543,6,0,P|199:139|244:140,1,90.7500027694703,2|2,0:0|0:0,0:0:0:0:
145,278,93892,1,10,0:0:0:0:
314,185,94066,1,2,0:0:0:0:
314,221,94153,1,2,0:0:0:0:
314,257,94240,1,2,0:0:0:0:
314,293,94328,1,2,0:0:0:0:
314,329,94415,1,2,0:0:0:0:
215,217,94589,1,10,0:0:0:0:
360,107,94764,5,2,0:0:0:0:
360,107,94851,1,2,0:0:0:0:
360,107,94938,2,0,L|246:98,1,90.7500027694703,6|2,0:0|0:0,0:0:0:0:
421,180,95287,2,0,L|511:187,1,90.7500027694703,10|2,0:0|0:0,0:0:0:0:
420,42,95636,1,2,0:0:0:0:
327,195,95810,1,2,0:0:0:0:
326,20,95985,1,10,0:0:0:0:
428,149,96159,1,2,0:0:0:0:
266,118,96334,6,0,P|308:102|353:103,1,90.7500027694703,2|2,0:0|0:0,0:0:0:0:
200,195,96682,1,10,0:0:0:0:
221,43,96857,1,2,0:0:0:0:
69,97,97031,2,0,L|190:91,1,90.7500027694703,2|2,0:0|0:0,0:0:0:0:
3,50,97380,2,0,P|-8:92|16:166,1,90.7500027694703,10|2,0:0|0:0,0:0:0:0:
70,279,97729,6,0,P|77:234|67:190,1,90.7500027694703,2|2,0:0|0:0,0:0:0:0:
6,340,98078,2,0,B|46:371|46:371|147:355,1,142.312502714396,10|2,0:0|0:0,0:0:0:0:
167,328,98427,2,0,P|146:250|169:165,2,142.312502714396,2|2|2,0:0|0:0|0:0,0:0:0:0:
225,152,99124,6,0,L|340:160,1,98.9999969787599,2|2,0:0|0:0,0:0:0:0:
170,0,99473,2,0,B|191:46|191:46|170:113,1,98.9999969787599,10|2,0:0|0:0,0:0:0:0:
22,50,99822,1,2,0:0:0:0:
73,211,99996,1,2,0:0:0:0:
188,49,100171,5,10,0:0:0:0:
227,52,100258,1,2,0:0:0:0:
266,56,100345,1,2,0:0:0:0:
305,58,100432,1,2,0:0:0:0:
344,61,100520,6,0,P|322:112|329:175,1,103.125,6|2,1:0|0:0,0:0:0:0:
434,292,100868,1,10,0:0:0:0:
213,216,101043,2,0,B|288:196|276:258|360:237,1,154.6875,2|2,0:0|0:0,0:0:0:0:
392,211,101392,1,2,0:0:0:0:
235,310,101566,1,10,0:0:0:0:
263,124,101741,1,2,0:0:0:0:
102,176,101915,6,0,B|132:197|132:197|222:188,1,103.125,2|2,1:0|0:0,0:0:0:0:
40,275,102264,1,10,0:0:0:0:
145,105,102438,2,0,P|94:93|30:118,1,103.125,2|2,0:0|1:0,0:0:0:0:
222,189,102787,1,2,0:0:0:0:
173,10,102961,1,10,0:0:0:0:
173,10,103136,1,2,0:0:0:0:
310,131,103310,6,0,L|291:29,1,103.125,2|2,1:0|0:0,0:0:0:0:
296,209,103659,1,10,0:0:0:0:
512,106,103834,2,0,B|459:102|459:102|425:147|425:147|368:142,1,154.6875,2|2,0:0|0:0,0:0:0:0:
342,137,104182,1,2,0:0:0:0:
498,184,104357,2,0,P|514:231|507:296,1,103.125,10|2,0:0|0:0,0:0:0:0:
424,147,104706,5,2,1:0:0:0:
440,320,104880,1,2,0:0:0:0:
296,209,105055,1,10,0:0:0:0:
241,381,105229,2,0,B|273:358|273:358|353:367,1,111.375000424862,2|2,0:0|1:0,0:0:0:0:
199,300,105578,1,2,0:0:0:0:
393,239,105752,1,10,0:0:0:0:
244,140,105927,5,2,0:0:0:0:
244,140,106014,1,2,0:0:0:0:
244,140,106101,2,0,P|300:128|356:146,1,103.125,6|2,1:0|0:0,0:0:0:0:
184,215,106450,1,10,0:0:0:0:
123,5,106624,2,0,B|89:46|89:46|104:170,1,154.6875,2|2,0:0|0:0,0:0:0:0:
108,187,106973,1,2,0:0:0:0:
274,74,107148,2,0,L|159:67,1,103.125,10|2,0:0|0:0,0:0:0:0:
343,30,107496,5,2,1:0:0:0:
374,206,107671,1,2,0:0:0:0:
412,70,107845,1,10,0:0:0:0:
205,163,108020,2,0,L|320:156,1,103.125,2|2,0:0|1:0,0:0:0:0:
121,232,108368,1,2,0:0:0:0:
179,74,108543,1,10,0:0:0:0:
179,74,108717,1,2,0:0:0:0:
35,190,108892,6,0,P|26:242|38:294,1,107.249995090485,2|2,1:0|0:0,0:0:0:0:
68,323,109153,2,0,L|188:310,1,107.249995090485,2|2,0:0|0:0,0:0:0:0:
216,304,109415,1,2,0:0:0:0:
388,97,109589,6,0,L|281:108,1,107.249995090485,2|2,1:0|0:0,0:0:0:0:
246,130,109851,2,0,P|237:182|249:234,1,107.249995090485,2|2,0:0|0:0,0:0:0:0:
283,267,110113,1,2,0:0:0:0:
136,149,110287,5,2,1:0:0:0:
136,149,110374,1,2,0:0:0:0:
136,149,110461,2,0,L|82:153,1,53.6249975452424,2|2,0:0|0:0,0:0:0:0:
11,161,110636,1,10,0:0:0:0:
190,81,110810,2,0,P|214:125|216:187,1,103.125,2|2,0:0|1:0,0:0:0:0:
131,293,111159,5,2,1:0:0:0:
292,191,111334,1,2,1:0:0:0:
289,232,111421,1,2,0:0:0:0:
285,272,111508,1,2,0:0:0:0:
281,313,111595,1,2,0:0:0:0:
276,353,111682,6,0,L|392:340,1,103.125,6|2,1:0|0:0,0:0:0:0:
209,287,112031,1,10,0:0:0:0:
400,182,112206,2,0,B|321:207|335:133|233:162,1,154.6875,2|2,0:0|0:0,0:0:0:0:
220,183,112555,1,2,0:0:0:0:
366,99,112729,1,10,0:0:0:0:
409,272,112903,1,2,0:0:0:0:
494,111,113078,6,0,L|490:225,1,103.125,2|2,1:0|0:0,0:0:0:0:
433,56,113427,1,10,0:0:0:0:
287,156,113601,2,0,L|283:42,1,103.125,2|2,0:0|1:0,0:0:0:0:
213,214,113950,1,2,0:0:0:0:
382,146,114124,1,10,0:0:0:0:
382,146,114299,1,2,0:0:0:0:
228,27,114473,6,0,P|278:16|327:28,1,103.125,2|2,1:0|0:0,0:0:0:0:
168,104,114822,1,10,0:0:0:0:
333,211,114996,2,0,B|283:220|283:220|241:190|241:190|189:200,1,154.6875,2|2,0:0|0:0,0:0:0:0:
150,208,115345,1,2,0:0:0:0:
131,382,115520,2,0,L|108:266,1,103.125,10|2,0:0|0:0,0:0:0:0:
91,147,115868,5,2,1:0:0:0:
194,282,116043,1,2,0:0:0:0:
39,223,116217,1,10,0:0:0:0:
275,173,116392,2,0,P|218:179|166:157,1,111.375000424862,2|2,0:0|1:0,0:0:0:0:
343,116,116741,1,2,1:0:0:0:
315,297,116915,1,10,1:0:0:0:
446,155,117089,5,2,0:0:0:0:
446,155,117177,1,2,0:0:0:0:
446,155,117264,2,0,L|423:30,1,103.125,6|2,1:0|0:0,0:0:0:0:
373,215,117613,1,10,0:0:0:0:
244,72,117787,2,0,B|320:85|303:24|388:38,1,154.6875,2|2,0:0|0:0,0:0:0:0:
427,53,118136,1,2,0:0:0:0:
265,177,118310,1,10,0:0:0:0:
173,22,118485,5,2,0:0:0:0:
173,22,118572,1,2,0:0:0:0:
173,22,118659,2,0,P|161:74|175:125,1,98.9999969787599,2|2,1:0|0:0,0:0:0:0:
266,273,119008,2,0,P|275:224|264:176,1,98.9999969787599,10|2,0:0|0:0,0:0:0:0:
193,344,119357,1,2,1:0:0:0:
355,268,119531,1,2,0:0:0:0:
187,221,119706,1,10,0:0:0:0:
187,221,119880,1,2,0:0:0:0:
381,122,120055,6,0,B|332:144|332:144|279:133,1,107.249995090485,2|2,1:0|0:0,0:0:0:0:
253,97,120316,2,0,B|204:75|204:75|151:86,1,107.249995090485,2|2,0:0|0:0,0:0:0:0:
121,119,120578,1,2,0:0:0:0:
73,313,120752,6,0,P|90:255|81:199,1,107.249995090485,2|2,1:0|0:0,0:0:0:0:
56,181,121014,2,0,P|39:123|48:67,1,107.249995090485,2|2,0:0|0:0,0:0:0:0:
73,46,121275,1,2,0:0:0:0:
176,198,121450,5,2,1:0:0:0:
159,31,121624,1,2,0:0:0:0:
264,221,121799,1,10,0:0:0:0:
326,64,121973,2,0,B|293:85|293:85|223:76,1,103.125,2|2,0:0|1:0,0:0:0:0:
361,170,122322,5,2,1:0:0:0:
200,318,122496,1,2,1:0:0:0:
182,280,122584,1,2,0:0:0:0:
173,239,122671,1,2,0:0:0:0:
176,198,122758,1,2,0:0:0:0:
189,159,122845,6,0,P|144:180|93:182,1,90.7500027694703,6|0,0:0|0:0,0:0:0:0:
0,79,123194,2,0,P|45:58|96:56,1,90.7500027694703,2|0,0:0|0:0,0:0:0:0:
7,170,123543,1,0,0:0:0:0:
163,119,123717,2,0,B|220:181|181:260|181:260|161:251|157:229,1,181.500005538941,2|0,0:0|0:0,0:0:0:0:
239,321,124241,6,0,L|355:305,1,90.7500027694703
498,214,124589,2,0,L|408:226,1,90.7500027694703,2|0,0:0|0:0,0:0:0:0:
324,158,124938,1,0,0:0:0:0:
405,304,125113,2,0,B|406:329|384:338|384:338|357:325|366:287|411:268|385:198,1,181.500005538941,2|0,0:0|0:0,0:0:0:0:
222,221,125636,6,0,L|279:213,3,45.3750013847352,6|0|0|0,0:0|0:0|0:0|0:0,0:0:0:0:
158,265,125985,2,0,L|113:271,3,45.3750013847352,10|0|0|0,0:0|0:0|0:0|0:0,0:0:0:0:
39,313,126334,2,0,B|31:262|31:262|55:215|55:215|46:156,1,148.49999546814,2|0,0:0|0:0,0:0:0:0:
63,126,126682,2,0,L|18:132,3,45.3750013847352,10|0|0|0,0:0|0:0|0:0|0:0,0:0:0:0:
144,95,127031,6,0,P|139:118|145:151,3,45.3750013847352,2|0|0|0,0:0|0:0|0:0|0:0,0:0:0:0:
202,192,127380,2,0,P|204:214|199:236,3,45.3750013847352,10|0|0|0,0:0|0:0|0:0|0:0,0:0:0:0:
211,311,127729,2,0,P|188:311|166:304,1,45.3750013847352,2|0,0:0|0:0,0:0:0:0:
282,275,127903,2,0,P|304:274|326:281,5,45.3750013847352,0|0|10|0|0|0,0:0|0:0|0:0|0:0|0:0|0:0,0:0:0:0:
211,311,135403,5,2,1:0:0:0:
170,291,135491,1,2,0:0:0:0:
126,281,135578,1,2,0:0:0:0:
82,289,135665,1,2,0:0:0:0:
45,319,135752,6,0,P|53:294|51:268,3,49.4999984893799,10|2|2|2,0:0|0:0|0:0|0:0,0:0:0:0:
3,211,136101,5,2,1:0:0:0:
7,172,136188,1,2,0:0:0:0:
10,134,136275,1,2,0:0:0:0:
14,95,136363,1,2,0:0:0:0:
21,58,136450,2,0,L|77:69,3,47.4375009047985,10|2|2|2,0:0|0:0|0:0|0:0,0:0:0:0:
136,32,136799,5,2,1:0:0:0:
166,58,136886,1,2,0:0:0:0:
206,57,136973,1,2,1:0:0:0:
247,25,137060,1,2,0:0:0:0:
296,6,137148,1,10,1:0:0:0:
346,16,137235,1,2,0:0:0:0:
386,48,137322,6,0,L|380:131,2,57.7499982376099,2|2|2,1:0|0:0|1:0,0:0:0:0:
324,233,137584,2,0,L|328:175,1,57.7499982376099,2|2,0:0|1:0,0:0:0:0:
353,317,137758,1,2,0:0:0:0:
353,317,137845,2,0,B|288:343|290:281|212:305,1,123.750004720688,10|2,1:0|0:0,0:0:0:0:
445,269,138194,6,0,L|452:166,1,103.125,6|2,1:0|0:0,0:0:0:0:
456,33,138543,1,10,0:0:0:0:
236,79,138717,2,0,B|288:74|288:74|319:112|319:112|379:106,1,154.6875,2|2,0:0|0:0,0:0:0:0:
408,100,139066,1,2,0:0:0:0:
288,250,139241,2,0,P|258:200|255:129,1,103.125,10|2,0:0|0:0,0:0:0:0:
326,13,139589,5,2,1:0:0:0:
137,76,139764,1,2,0:0:0:0:
320,112,139938,1,10,0:0:0:0:
186,231,140113,2,0,P|203:182|201:131,1,103.125,2|2,0:0|1:0,0:0:0:0:
108,290,140461,1,2,0:0:0:0:
284,203,140636,1,10,0:0:0:0:
284,203,140810,1,2,0:0:0:0:
208,382,140985,6,0,B|240:361|240:361|316:370,1,103.125,2|2,1:0|0:0,0:0:0:0:
191,245,141334,1,10,0:0:0:0:
70,365,141508,2,0,B|33:321|33:321|42:205,1,154.6875,2|2,0:0|0:0,0:0:0:0:
49,183,141857,1,2,0:0:0:0:
203,125,142031,2,0,P|151:124|85:89,1,103.125,10|2,0:0|0:0,0:0:0:0:
278,73,142380,5,2,1:0:0:0:
211,225,142555,1,2,0:0:0:0:
359,62,142729,1,10,0:0:0:0:
411,255,142903,2,0,P|360:271|299:267,1,111.375000424862,2|2,0:0|1:0,0:0:0:0:
490,187,143252,1,2,0:0:0:0:
455,360,143427,1,10,0:0:0:0:
351,198,143601,5,2,0:0:0:0:
351,198,143688,1,2,0:0:0:0:
351,198,143775,2,0,L|357:95,1,103.125,6|2,1:0|0:0,0:0:0:0:
277,249,144124,1,10,0:0:0:0:
84,159,144299,2,0,B|158:139|146:201|230:180,1,154.6875,2|2,0:0|0:0,0:0:0:0:
267,161,144648,1,2,0:0:0:0:
119,338,144822,2,0,L|111:223,1,103.125,10|2,0:0|0:0,0:0:0:0:
98,83,145171,5,2,1:0:0:0:
24,220,145345,1,2,0:0:0:0:
16,43,145520,1,10,0:0:0:0:
204,150,145694,2,0,P|154:167|84:161,1,103.125,2|2,0:0|1:0,0:0:0:0:
275,75,146043,1,2,0:0:0:0:
235,249,146217,1,10,0:0:0:0:
235,249,146392,1,2,0:0:0:0:
352,51,146566,6,0,L|363:168,1,107.249995090485,2|2,1:0|0:0,0:0:0:0:
389,185,146828,2,0,L|400:302,1,107.249995090485,2|2,0:0|0:0,0:0:0:0:
402,334,147089,1,2,0:0:0:0:
441,117,147264,6,0,P|382:106|331:124,1,107.249995090485,2|2,1:0|0:0,0:0:0:0:
312,156,147525,2,0,P|260:170|209:159,1,107.249995090485,2|2,0:0|0:0,0:0:0:0:
180,125,147787,1,2,0:0:0:0:
152,312,147961,5,2,1:0:0:0:
152,312,148049,1,2,0:0:0:0:
152,312,148136,2,0,L|142:239,1,53.6249975452424,2|2,0:0|0:0,0:0:0:0:
131,189,148310,1,10,0:0:0:0:
195,376,148485,2,0,B|227:350|227:350|313:355,1,103.125,2|2,0:0|1:0,0:0:0:0:
452,367,148834,5,2,1:0:0:0:
298,231,149008,1,2,1:0:0:0:
326,201,149095,1,2,0:0:0:0:
363,185,149182,1,2,0:0:0:0:
404,181,149270,1,2,0:0:0:0:
440,199,149357,6,0,P|414:245|414:303,1,103.125,6|2,1:0|0:0,0:0:0:0:
512,150,149706,1,10,0:0:0:0:
276,108,149880,2,0,B|345:102|345:102|361:90|361:90|443:84,1,154.6875,2|2,0:0|0:0,0:0:0:0:
465,82,150229,1,2,0:0:0:0:
309,27,150403,2,0,L|206:37,1,103.125,10|2,0:0|0:0,0:0:0:0:
66,47,150752,5,2,1:0:0:0:
149,219,150927,1,2,0:0:0:0:
177,60,151101,1,10,0:0:0:0:
0,185,151275,2,0,P|47:162|117:167,1,103.125,2|2,0:0|1:0,0:0:0:0:
227,213,151624,1,2,0:0:0:0:
75,305,151799,1,10,0:0:0:0:
75,305,151973,1,2,0:0:0:0:
245,337,152148,6,0,L|133:349,1,103.125,2|2,1:0|0:0,0:0:0:0:
293,267,152496,1,10,0:0:0:0:
256,44,152671,2,0,B|211:80|211:80|224:211,1,154.6875,2|2,0:0|0:0,0:0:0:0:
227,213,153020,1,2,0:0:0:0:
397,121,153194,2,0,L|285:109,1,103.125,10|2,0:0|0:0,0:0:0:0:
475,68,153543,5,2,1:0:0:0:
512,248,153717,1,2,0:0:0:0:
372,159,153892,1,10,0:0:0:0:
336,320,154066,2,0,B|373:348|373:348|448:339,1,111.375000424862,2|2,0:0|1:0,0:0:0:0:
314,214,154415,1,2,1:0:0:0:
285,384,154589,1,10,1:0:0:0:
217,169,154764,5,2,0:0:0:0:
217,169,154851,1,2,0:0:0:0:
217,169,154938,2,0,P|203:225|221:286,1,103.125,6|2,1:0|0:0,0:0:0:0:
286,134,155287,1,10,0:0:0:0:
77,63,155461,2,0,B|152:33|150:104|223:82,1,154.6875,2|2,0:0|0:0,0:0:0:0:
259,60,155810,1,2,0:0:0:0:
106,147,155985,1,10,0:0:0:0:
19,0,156159,5,2,0:0:0:0:
19,0,156246,1,2,0:0:0:0:
19,0,156334,2,0,P|-1:48|5:114,1,98.9999969787599,2|2,1:0|0:0,0:0:0:0:
73,223,156682,1,10,0:0:0:0:
96,66,156857,1,2,0:0:0:0:
183,175,157031,1,2,1:0:0:0:
20,288,157206,2,0,P|-2:244|-2:195,1,98.9999969787599,2|10,0:0|0:0,0:0:0:0:
98,306,157555,1,2,0:0:0:0:
241,231,157729,6,0,B|267:203|267:203|343:197,1,107.249995090485,2|2,1:0|0:0,0:0:0:0:
370,216,157991,2,0,B|400:239|400:239|476:231,1,107.249995090485,2|2,0:0|0:0,0:0:0:0:
507,208,158252,1,2,0:0:0:0:
334,384,158427,6,0,L|326:277,1,107.249995090485,2|2,1:0|0:0,0:0:0:0:
299,244,158688,2,0,L|291:137,1,107.249995090485,2|2,0:0|0:0,0:0:0:0:
289,96,158950,1,2,0:0:0:0:
452,73,159124,6,0,P|398:52|334:59,1,103.125,2|2,1:0|0:0,0:0:0:0:
222,161,159473,1,10,0:0:0:0:
184,0,159648,2,0,P|237:20|301:13,1,103.125,2|2,0:0|1:0,0:0:0:0:
134,92,159996,5,2,1:0:0:0:
348,171,160171,1,2,1:0:0:0:
306,167,160259,1,2,0:0:0:0:
264,162,160346,1,2,0:0:0:0:
222,161,160433,1,2,0:0:0:0:
181,158,160520,1,2,0:0:0:0:
113,203,161741,5,2,0:0:0:0:
106,162,161828,1,2,0:0:0:0:
103,121,161915,1,6,1:0:0:0:
