osu file format v14

[General]
AudioFilename: audio.mp3
AudioLeadIn: 0
PreviewTime: 100520
Countdown: 0
SampleSet: Soft
StackLeniency: 0.7
Mode: 0
LetterboxInBreaks: 0
SkinPreference:Default
EpilepsyWarning: 1
WidescreenStoryboard: 1

[Editor]
DistanceSpacing: 0.8
BeatDivisor: 4
GridSize: 4
TimelineZoom: 0.9999999

[Metadata]
Title:(9) destiny ~ Zutto Cirno no Turn
TitleUnicode:⑨destiny ~ ずっとチルノのターン
Artist:Silver Forest feat. Nano
ArtistUnicode:Silver Forest feat. Nano
Creator:Bloxi
Version:Runigh's Normal
Source:東方Project
Tags:baka kero japanese touhou 東方project 2hu video game vgm zun 風神録 mountain of faith mof th10 native otenba koimusume beloved tomboyish daughter girl in love eosd 東方紅魔郷 the Embodiment Scarlet Devil ネイティブフェイス 洩矢諏訪子 もりやすわこ fuujinroku zutto no everlasting moriya suwako comiket c73 おてんば恋娘 蒼天歌 チルノ koumakyou th6 its it's always cirno's cirnos chiruno nine revolution nice boat cheat nyo 重音 テト kasane teto territory leorda bnmc ayel fsjallink kolikiscool runigh yokespai
BeatmapID:3560289
BeatmapSetID:1714809

[Difficulty]
HPDrainRate:3
CircleSize:4
OverallDifficulty:3
ApproachRate:5
SliderMultiplier:0.999999999999999
SliderTickRate:1

[Events]
//Background and Video events
0,0,"bg.jpg",0,0
//Break Periods
2,67230,76874
2,123044,131293
//Storyboard Layer 0 (Background)
//Storyboard Layer 1 (Fail)
//Storyboard Layer 2 (Pass)
//Storyboard Layer 3 (Foreground)
//Storyboard Layer 4 (Overlay)
//Storyboard Sound Samples

[TimingPoints]
55,348.837209302326,4,2,1,75,1,0
2148,-100,4,2,1,55,0,0
5636,-100,4,2,1,65,0,0
20635,-100,4,2,1,75,0,0
20985,-100,4,2,1,65,0,0
24123,-100,4,2,1,65,0,0
24472,-100,4,2,1,65,0,0
31798,-100,4,2,1,75,0,0
32148,-100,4,2,1,65,0,0
32845,-100,4,2,1,75,0,0
33543,-100,4,2,1,65,0,0
44356,-100,4,2,1,70,0,0
44706,-90.9090909090909,4,2,1,75,0,1
67031,-100,4,2,1,75,0,0
82728,-100,4,2,1,75,0,0
83077,-100,4,2,1,75,0,0
87612,-100,4,2,1,65,0,0
87961,-100,4,2,1,75,0,0
98775,-100,4,2,1,65,0,0
99124,-100,4,2,1,75,0,0
99821,-100,4,2,1,65,0,0
100520,-90.9090909090909,4,2,1,75,0,1
122845,-100,4,2,1,65,0,0
137845,-100,4,2,1,70,0,0
138194,-90.9090909090909,4,2,1,75,0,1
160520,-100,4,2,1,55,0,0
161915,-100,4,2,1,75,0,0
163310,-100,4,2,1,5,0,0

[Colours]
Combo1 : 101,134,188
Combo2 : 203,219,157
Combo3 : 164,200,236
Combo4 : 254,227,180
Sliderborder : 255,255,255

[HitObjects]
256,192,55,12,2,2148,0:0:0:0:
278,145,2845,6,0,P|306:120|297:157,1,99.9999999999999,6|2,0:0|0:0,0:0:0:0:
204,193,3543,2,0,P|168:180|204:169,1,99.9999999999999,2|2,0:0|0:0,0:0:0:0:
283,233,4241,2,0,P|289:270|262:244,1,99.9999999999999,2|2,0:0|0:0,0:0:0:0:
26,58,5636,6,0,B|39:134|39:134|21:179|21:179|34:252,3,200,6|2|2|2,1:0|1:0|1:0|1:0,0:0:0:0:
184,118,8427,2,0,L|134:126,2,50,6|2|10,1:0|0:0|0:0,0:0:0:0:
262,55,9124,2,0,L|215:37,2,50,2|2|10,1:0|0:0|0:0,0:0:0:0:
361,39,9822,2,0,L|328:0,2,50,2|2|10,1:0|0:0|0:0,0:0:0:0:
454,74,10520,2,0,L|445:24,2,50,2|2|10,1:0|0:0|0:0,0:0:0:0:
400,156,11217,6,0,B|375:144|366:114|366:114|377:258,1,200,6|2,0:0|0:0,0:0:0:0:
436,340,12264,1,10,0:0:0:0:
508,272,12613,2,0,L|500:172,3,99.9999999999999,2|10|2|10,0:0|0:0|0:0|0:0,0:0:0:0:
400,156,14008,6,0,B|280:147|349:244|202:220,1,200,2|2,0:0|0:0,0:0:0:0:
149,155,15055,1,10,0:0:0:0:
200,69,15403,2,0,P|237:101|250:148,3,99.9999999999999,2|10|2|10,0:0|0:0|0:0|0:0,0:0:0:0:
223,245,16799,6,0,B|185:216|185:216|133:225,1,99.9999999999999,6|10,0:0|0:0,0:0:0:0:
109,322,17496,2,0,L|68:293,2,50,2|2|10,0:0|0:0|0:0,0:0:0:0:
205,343,18194,2,0,L|254:339,2,50,2|2|10,0:0|0:0|0:0,0:0:0:0:
179,246,18892,2,0,L|188:196,2,50,2|2|10,0:0|0:0|0:0,0:0:0:0:
109,322,19589,6,0,P|158:325|205:343,1,99.9999999999999,2|10,0:0|0:0,0:0:0:0:
305,343,20287,2,0,P|351:325|401:321,1,99.9999999999999,2|10,0:0|0:0,0:0:0:0:
348,236,20985,2,0,B|296:236|256:268|256:268|216:236|162:236,1,200,2|2,0:0|0:0,0:0:0:0:
156,36,22380,6,0,B|242:30|242:30|264:44|264:44|357:35,1,200,6|2,0:0|0:0,0:0:0:0:
442,76,23427,1,10,0:0:0:0:
373,148,23775,2,0,L|273:159,3,99.9999999999999,2|10|2|10,0:0|0:0|0:0|0:0,0:0:0:0:
244,254,25171,6,0,B|317:172|343:326|343:171|427:233,1,200,2|2,0:0|0:0,0:0:0:0:
486,313,26217,1,10,0:0:0:0:
397,359,26566,2,0,P|349:373|300:367,3,99.9999999999999,2|10|2|10,0:0|0:0|0:0|0:0,0:0:0:0:
207,328,27961,6,0,B|230:282|230:282|204:239,1,99.9999999999999,6|10,0:0|0:0,0:0:0:0:
112,280,28659,2,0,L|75:313,2,50,2|2|10,0:0|0:0|0:0,0:0:0:0:
51,199,29357,2,0,L|2:205,2,50,2|2|10,0:0|0:0|0:0,0:0:0:0:
95,108,30055,2,0,L|51:84,2,50,2|2|10,0:0|0:0|0:0,0:0:0:0:
151,190,30752,6,0,P|172:145|204:108,1,99.9999999999999,2|10,0:0|0:0,0:0:0:0:
306,109,31450,2,0,P|338:146|359:191,1,99.9999999999999,2|8,0:0|0:0,0:0:0:0:
292,264,32148,2,0,B|256:244|256:176|256:176|256:244|224:268,1,200,2|2,0:0|0:0,0:0:0:0:
120,96,33543,6,0,P|82:98|51:117,2,74.9999999999999,2|2|2,1:0|0:0|0:0,0:0:0:0:
165,118,34241,2,0,L|314:105,1,150,2|2,1:0|0:0,0:0:0:0:
362,119,34938,2,0,P|382:88|384:51,2,74.9999999999999,2|2|2,1:0|0:0|0:0,0:0:0:0:
324,151,35636,2,0,P|288:214|310:283,1,150,2|2,1:0|0:0,0:0:0:0:
355,305,36334,6,0,P|391:313|426:302,1,74.9999999999999,2|2,1:0|0:0,0:0:0:0:
483,253,36857,1,2,0:0:0:0:
483,253,37031,2,0,L|462:104,1,150,2|2,1:0|0:0,0:0:0:0:
425,70,37729,6,0,P|391:54|354:58,1,74.9999999999999,2|2,1:0|0:0,0:0:0:0:
291,96,38252,1,2,0:0:0:0:
291,96,38427,2,0,P|255:107|219:100,1,74.9999999999999,2|2,1:0|0:0,0:0:0:0:
130,11,39124,6,0,L|136:181,1,150,2|2,1:0|0:0,0:0:0:0:
133,209,39822,2,0,P|102:230|65:234,2,74.9999999999999,2|2|2,1:0|0:0|0:0,0:0:0:0:
172,178,40520,2,0,P|208:182|239:202,2,74.9999999999999,2|2|2,1:0|0:0|0:0,0:0:0:0:
124,162,41217,2,0,P|99:134|93:90,1,74.9999999999999,2|2,1:0|0:0,0:0:0:0:
170,0,41915,6,0,P|206:-5|242:7,1,74.9999999999999,2|2,1:0|0:0,0:0:0:0:
269,82,42438,1,2,0:0:0:0:
269,82,42613,2,0,P|306:85|341:74,1,74.9999999999999,2|2,1:0|0:0,0:0:0:0:
391,17,43136,1,2,0:0:0:0:
391,17,43310,6,0,B|439:83|391:157|391:157|347:229|390:298,1,300,2|10,1:0|1:0,0:0:0:0:
496,329,44706,6,0,L|492:387,2,55.0000016784668,6|2|10,1:0|0:0|0:0,0:0:0:0:
500,268,45229,1,2,0:0:0:0:
390,297,45578,1,2,0:0:0:0:
390,297,45752,1,10,0:0:0:0:
299,217,46101,6,0,P|247:201|196:221,1,110.000003356934,2|10,1:0|0:0,0:0:0:0:
143,251,46625,2,0,B|124:258|124:258|125:146,1,110.000003356934,2|2,0:0|0:0,0:0:0:0:
141,109,47148,1,10,0:0:0:0:
249,55,47496,6,0,L|243:0,2,55.0000016784668,2|2|10,1:0|0:0|0:0,0:0:0:0:
308,65,48019,1,2,0:0:0:0:
329,188,48368,1,2,0:0:0:0:
329,188,48543,1,10,0:0:0:0:
208,195,48892,6,0,L|98:207,1,110.000003356934,2|10,1:0|0:0,0:0:0:0:
39,220,49415,2,0,B|31:286|71:259|63:331,1,110.000003356934,2|2,0:0|0:0,0:0:0:0:
44,381,49938,1,10,0:0:0:0:
158,341,50287,6,0,P|157:313|154:287,2,55.0000016784668,6|2|10,1:0|0:0|0:0,0:0:0:0:
200,383,50810,1,2,0:0:0:0:
268,284,51159,1,2,0:0:0:0:
268,284,51334,1,10,0:0:0:0:
343,377,51682,6,0,P|395:389|444:366,1,110.000003356934,2|10,1:0|0:0,0:0:0:0:
485,320,52206,2,0,B|500:295|500:295|501:206,1,110.000003356934,2|2,0:0|0:0,0:0:0:0:
464,165,52729,1,10,0:0:0:0:
351,209,53078,6,0,B|334:247|334:247|348:292,2,82.5000025177002,2|2|2,1:0|0:0|0:0,0:0:0:0:
361,147,53775,2,0,B|329:122|329:122|205:140,1,165.0000050354,2|2,1:0|0:0,0:0:0:0:
150,165,54473,6,0,L|158:220,1,55.0000016784668,2|2,1:0|0:0,0:0:0:0:
138,277,54822,2,0,L|131:332,1,55.0000016784668,10|0,0:0|0:0,0:0:0:0:
239,268,55345,1,2,1:0:0:0:
239,268,55520,2,0,P|265:260|292:263,1,55.0000016784668,2|2,1:0|0:0,0:0:0:0:
324,317,55868,6,0,L|317:389,2,55.0000016784668,6|2|10,1:0|0:0|0:0,0:0:0:0:
376,287,56392,1,2,0:0:0:0:
302,190,56741,1,2,0:0:0:0:
302,190,56915,1,10,0:0:0:0:
408,133,57264,6,0,P|430:84|420:31,1,110.000003356934,2|10,1:0|0:0,0:0:0:0:
363,9,57787,2,0,B|293:-4|324:50|240:34,1,110.000003356934,2|2,0:0|0:0,0:0:0:0:
206,12,58310,1,10,0:0:0:0:
141,115,58659,6,0,L|61:110,2,55.0000016784668,2|2|10,1:0|0:0|0:0,0:0:0:0:
185,157,59182,1,2,0:0:0:0:
91,227,59531,1,2,0:0:0:0:
91,227,59706,1,10,0:0:0:0:
183,306,60055,6,0,L|301:320,1,110.000003356934,2|10,1:0|0:0,0:0:0:0:
329,271,60578,2,0,B|329:258|347:252|347:252|266:241,1,110.000003356934,2|2,0:0|1:0,0:0:0:0:
205,235,61101,1,10,1:0:0:0:
257,127,61450,6,0,L|264:73,2,55.0000016784668,6|2|10,1:0|0:0|0:0,0:0:0:0:
303,167,61973,1,2,0:0:0:0:
405,94,62322,1,2,0:0:0:0:
405,94,62496,1,10,0:0:0:0:
494,176,62845,6,0,L|509:286,1,110.000003356934,2|10,1:0|0:0,0:0:0:0:
388,298,63543,2,0,L|373:189,1,110.000003356934,2|10,1:0|0:0,0:0:0:0:
258,229,64241,6,0,B|249:269|249:269|272:307,2,82.5000025177002,2|2|2,1:0|0:0|0:0,0:0:0:0:
279,172,64938,2,0,B|247:147|247:147|123:165,1,165.0000050354,2|2,1:0|0:0,0:0:0:0:
63,167,65636,6,0,L|54:112,1,55.0000016784668,2|2,1:0|0:0,0:0:0:0:
74,55,65985,2,0,L|83:0,1,55.0000016784668,10|2,0:0|0:0,0:0:0:0:
197,53,66508,1,2,1:0:0:0:
197,53,66682,2,0,P|223:61|250:62,2,55.0000016784668,2|2|6,1:0|0:0|0:0,0:0:0:0:
4,244,78194,6,0,B|-20:206|-20:206|141:225,1,200,6|2,0:0|0:0,0:0:0:0:
233,235,79241,1,10,0:0:0:0:
331,248,79589,2,0,L|431:261,3,99.9999999999999,2|10|2|10,0:0|0:0|0:0|0:0,0:0:0:0:
455,357,80985,6,0,B|342:324|381:419|244:378,1,200,2|2,0:0|0:0,0:0:0:0:
166,368,82031,1,10,0:0:0:0:
73,330,82380,2,0,P|35:298|24:250,3,99.9999999999999,2|10|2|10,0:0|0:0|0:0|0:0,0:0:0:0:
38,151,83775,6,0,B|52:101|52:101|108:86,1,99.9999999999999,6|10,0:0|0:0,0:0:0:0:
190,49,84473,2,0,L|182:0,2,50,2|2|10,0:0|0:0|0:0,0:0:0:0:
256,124,85171,2,0,L|256:174,2,50,2|2|10,0:0|0:0|0:0,0:0:0:0:
324,52,85868,2,0,L|331:2,2,50,2|2|10,0:0|0:0|0:0,0:0:0:0:
404,112,86566,6,0,P|422:157|415:206,1,99.9999999999999,2|10,0:0|0:0,0:0:0:0:
358,289,87264,2,0,P|339:335|346:384,1,99.9999999999999,2|10,0:0|0:0,0:0:0:0:
438,346,87961,2,0,B|462:298|462:298|443:136,1,200,2|2,0:0|0:0,0:0:0:0:
281,37,89357,6,0,B|203:30|203:30|159:51|159:51|86:45,1,200,6|2,0:0|0:0,0:0:0:0:
2,99,90403,1,10,0:0:0:0:
91,144,90752,2,0,L|190:135,3,99.9999999999999,2|10|2|10,0:0|0:0|0:0|0:0,0:0:0:0:
240,222,92148,6,0,B|156:160|156:315|130:161|57:243,1,200,2|2,0:0|0:0,0:0:0:0:
15,334,93194,1,10,0:0:0:0:
112,358,93543,2,0,P|161:368|206:351,3,99.9999999999999,2|10|2|10,0:0|0:0|0:0|0:0,0:0:0:0:
286,290,94938,6,0,B|332:277|332:277|384:306,1,99.9999999999999,6|10,0:0|0:0,0:0:0:0:
463,249,95636,2,0,L|512:257,2,50,2|2|10,0:0|0:0|0:0,0:0:0:0:
380,192,96334,2,0,L|330:192,2,50,2|2|10,0:0|0:0|0:0,0:0:0:0:
463,135,97031,2,0,L|512:127,2,50,2|2|10,0:0|0:0|0:0,0:0:0:0:
383,73,97729,6,0,P|334:65|288:83,1,99.9999999999999,2|10,0:0|0:0,0:0:0:0:
211,147,98427,2,0,P|162:153|116:134,1,99.9999999999999,2|10,0:0|0:0,0:0:0:0:
49,59,99124,2,0,B|21:102|21:102|39:259,1,200,2|2,0:0|0:0,0:0:0:0:
267,328,100520,6,0,L|252:396,2,55.0000016784668,6|2|10,1:0|0:0|0:0,0:0:0:0:
318,295,101043,1,2,0:0:0:0:
247,203,101392,1,2,0:0:0:0:
247,203,101566,1,10,0:0:0:0:
145,269,101915,6,0,P|92:278|41:258,1,110.000003356934,2|10,1:0|0:0,0:0:0:0:
26,198,102439,2,0,B|14:195|3:211|3:211|14:130,1,110.000003356934,2|2,0:0|0:0,0:0:0:0:
27,70,102962,1,10,0:0:0:0:
147,82,103310,6,0,L|202:76,2,55.0000016784668,2|2|10,1:0|0:0|0:0,0:0:0:0:
141,136,103833,1,2,0:0:0:0:
236,218,104182,1,2,0:0:0:0:
236,218,104357,1,10,0:0:0:0:
117,241,104706,6,0,L|101:357,1,110.000003356934,2|10,1:0|0:0,0:0:0:0:
153,381,105229,2,0,B|219:389|192:349|264:357,1,110.000003356934,2|2,0:0|0:0,0:0:0:0:
313,378,105752,1,10,0:0:0:0:
375,274,106101,6,0,P|376:247|380:220,2,55.0000016784668,6|2|10,1:0|0:0|0:0,0:0:0:0:
427,304,106624,1,2,0:0:0:0:
512,220,106973,1,2,0:0:0:0:
512,220,107148,1,10,0:0:0:0:
446,118,107496,6,0,P|398:93|345:105,1,110.000003356934,2|10,1:0|0:0,0:0:0:0:
302,148,108020,2,0,B|277:167|277:167|188:164,1,110.000003356934,2|2,0:0|0:0,0:0:0:0:
147,130,108543,1,10,0:0:0:0:
87,24,108892,6,0,B|49:7|49:7|4:21,2,82.5000025177002,2|2|2,1:0|0:0|0:0,0:0:0:0:
59,77,109589,2,0,B|42:121|42:121|63:251,1,165.0000050354,2|2,1:0|0:0,0:0:0:0:
121,238,110287,6,0,L|176:230,1,55.0000016784668,2|2,1:0|0:0,0:0:0:0:
226,262,110636,2,0,L|281:269,1,55.0000016784668,10|0,0:0|0:0,0:0:0:0:
382,201,111159,1,2,1:0:0:0:
382,201,111334,2,0,P|382:173|373:147,1,55.0000016784668,2|2,1:0|0:0,0:0:0:0:
314,131,111682,6,0,L|242:124,2,55.0000016784668,6|2|10,1:0|0:0|0:0,0:0:0:0:
360,91,112206,1,2,0:0:0:0:
277,9,112555,1,2,0:0:0:0:
277,9,112729,1,10,0:0:0:0:
156,15,113078,6,0,P|124:58|131:111,1,110.000003356934,2|10,1:0|0:0,0:0:0:0:
168,159,113601,2,0,B|229:146|213:189|297:172,1,110.000003356934,2|2,0:0|0:0,0:0:0:0:
329,150,114124,1,10,0:0:0:0:
312,269,114473,6,0,L|392:274,2,55.0000016784668,2|2|10,1:0|0:0|0:0,0:0:0:0:
275,317,114996,1,2,0:0:0:0:
158,310,115345,1,2,0:0:0:0:
158,310,115520,1,10,0:0:0:0:
121,194,115869,6,0,L|135:76,1,110.000003356934,2|10,1:0|0:0,0:0:0:0:
182,48,116392,2,0,B|185:36|169:25|169:25|250:36,1,110.000003356934,2|2,0:0|1:0,0:0:0:0:
305,60,116915,1,10,1:0:0:0:
425,53,117264,6,0,L|418:-1,2,55.0000016784668,6|2|10,1:0|0:0|0:0,0:0:0:0:
469,94,117787,1,2,0:0:0:0:
372,166,118136,1,2,0:0:0:0:
372,166,118310,1,10,0:0:0:0:
458,251,118659,6,0,L|443:378,1,110.000003356934,2|10,1:0|0:0,0:0:0:0:
324,349,119357,2,0,L|336:239,1,110.000003356934,2|10,1:0|0:0,0:0:0:0:
215,257,120055,6,0,B|206:297|206:297|229:335,2,82.5000025177002,2|2|2,1:0|0:0|0:0,0:0:0:0:
239,201,120752,2,0,B|207:176|207:176|83:194,1,165.0000050354,2|2,1:0|0:0,0:0:0:0:
32,161,121450,6,0,L|41:106,1,55.0000016784668,2|2,1:0|0:0,0:0:0:0:
70,54,121799,2,0,L|61:-1,1,55.0000016784668,10|2,0:0|0:0,0:0:0:0:
165,71,122322,1,2,1:0:0:0:
165,71,122496,2,0,P|192:79|219:80,2,55.0000016784668,2|2|6,1:0|0:0|0:0,0:0:0:0:
0,73,132613,6,0,P|45:54|94:64,3,99.9999999999999,2|0|2|0,0:0|0:0|0:0|0:0,0:0:0:0:
80,163,134008,6,0,P|56:170|31:167,2,50,2|0|2,0:0|0:0|0:0,0:0:0:0:
172,125,134706,2,0,P|195:117|220:120,2,50,2|0|2,0:0|0:0|0:0,0:0:0:0:
211,217,135403,6,0,P|259:229|305:212,1,99.9999999999999,2|10,1:0|0:0,0:0:0:0:
378,143,136101,2,0,P|426:131|472:148,1,99.9999999999999,2|10,1:0|0:0,0:0:0:0:
484,246,136799,6,0,B|419:296|325:264|372:209|281:175|210:217,1,300,2|10,1:0|1:0,0:0:0:0:
106,280,138194,6,0,L|121:348,2,55.0000016784668,6|2|10,1:0|0:0|0:0,0:0:0:0:
54,250,138717,1,2,0:0:0:0:
144,169,139066,1,2,0:0:0:0:
144,169,139240,1,10,0:0:0:0:
234,249,139589,6,0,P|287:258|338:238,1,110.000003356934,2|10,1:0|0:0,0:0:0:0:
375,189,140113,2,0,B|378:177|362:166|362:166|443:177,1,110.000003356934,2|2,0:0|0:0,0:0:0:0:
494,209,140636,1,10,0:0:0:0:
456,323,140984,6,0,L|462:378,2,55.0000016784668,2|2|10,1:0|0:0|0:0,0:0:0:0:
409,289,141507,1,2,0:0:0:0:
326,377,141856,1,2,0:0:0:0:
326,377,142031,1,10,0:0:0:0:
237,294,142380,6,0,L|121:278,1,110.000003356934,2|10,1:0|0:0,0:0:0:0:
68,289,142903,2,0,B|60:223|100:250|92:178,1,110.000003356934,2|2,0:0|0:0,0:0:0:0:
58,135,143426,1,10,0:0:0:0:
172,95,143775,6,0,P|173:67|176:41,2,55.0000016784668,6|2|10,1:0|0:0|0:0,0:0:0:0:
215,137,144298,1,2,0:0:0:0:
325,83,144647,1,2,0:0:0:0:
325,83,144822,1,10,0:0:0:0:
425,150,145170,6,0,P|450:197|439:250,1,110.000003356934,2|10,1:0|0:0,0:0:0:0:
395,293,145694,2,0,B|370:308|370:308|281:309,1,110.000003356934,2|2,0:0|0:0,0:0:0:0:
239,273,146217,1,10,0:0:0:0:
203,157,146566,6,0,B|163:148|163:148|125:171,2,82.5000025177002,2|2|2,1:0|0:0|0:0,0:0:0:0:
263,156,147263,2,0,B|287:124|287:124|269:0,1,165.0000050354,2|2,1:0|0:0,0:0:0:0:
209,9,147961,6,0,L|154:1,1,55.0000016784668,2|2,1:0|0:0,0:0:0:0:
96,18,148310,2,0,L|41:25,1,55.0000016784668,10|2,0:0|0:0,0:0:0:0:
82,143,148833,1,2,1:0:0:0:
82,143,149008,2,0,P|91:168|91:196,1,55.0000016784668,2|2,1:0|0:0,0:0:0:0:
53,243,149356,6,0,L|-19:236,2,55.0000016784668,6|2|10,1:0|0:0|0:0,0:0:0:0:
83,296,149880,1,2,0:0:0:0:
207,307,150229,1,2,0:0:0:0:
207,307,150403,1,10,0:0:0:0:
212,186,150752,6,0,P|256:154|309:161,1,110.000003356934,2|10,1:0|0:0,0:0:0:0:
346,207,151275,2,0,B|407:220|391:177|475:194,1,110.000003356934,2|2,0:0|0:0,0:0:0:0:
509,216,151798,1,10,0:0:0:0:
469,330,152147,6,0,L|474:410,2,55.0000016784668,2|2|10,1:0|0:0|0:0,0:0:0:0:
423,291,152670,1,2,0:0:0:0:
340,384,153019,1,2,0:0:0:0:
340,384,153194,1,10,0:0:0:0:
248,305,153543,6,0,L|262:187,1,110.000003356934,2|10,1:0|0:0,0:0:0:0:
295,145,154066,2,0,B|307:142|318:158|318:158|307:77,1,110.000003356934,2|2,0:0|1:0,0:0:0:0:
271,28,154589,1,10,1:0:0:0:
151,35,154938,6,0,L|97:28,2,55.0000016784668,6|2|10,1:0|0:0|0:0,0:0:0:0:
189,82,155461,1,2,0:0:0:0:
68,112,155810,1,2,0:0:0:0:
68,112,155984,1,10,0:0:0:0:
144,207,156333,6,0,L|127:334,1,110.000003356934,2|10,1:0|0:0,0:0:0:0:
10,298,157031,2,0,L|25:188,1,110.000003356934,2|10,1:0|0:0,0:0:0:0:
144,207,157729,6,0,B|153:167|153:167|130:129,2,82.5000025177002,2|2|2,1:0|0:0|0:0,0:0:0:0:
145,267,158426,2,0,B|176:291|176:291|300:273,1,165.0000050354,2|2,1:0|0:0,0:0:0:0:
348,237,159124,6,0,L|403:246,1,55.0000016784668,2|2,1:0|0:0,0:0:0:0:
458,268,159473,2,0,L|513:259,1,55.0000016784668,10|2,0:0|0:0,0:0:0:0:
478,147,159996,1,2,1:0:0:0:
478,147,160170,2,0,P|470:120|469:93,2,55.0000016784668,2|2|2,1:0|0:0|0:0,0:0:0:0:
256,192,161915,12,2,163310,0:0:0:0:
