osu file format v14

[General]
AudioFilename: audio.mp3
AudioLeadIn: 0
PreviewTime: 100520
Countdown: 0
SampleSet: Soft
StackLeniency: 0.7
Mode: 0
LetterboxInBreaks: 0
SkinPreference:Default
EpilepsyWarning: 1
WidescreenStoryboard: 1

[Editor]
Bookmarks: 33543,67031,77671,122845,132613,149357
DistanceSpacing: 0.8
BeatDivisor: 4
GridSize: 8
TimelineZoom: 3.499999

[Metadata]
Title:(9) destiny ~ Zutto Cirno no Turn
TitleUnicode:⑨destiny ~ ずっとチルノのターン
Artist:Silver Forest feat. Nano
ArtistUnicode:Silver Forest feat. Nano
Creator:Bloxi
Version:Collab Extra
Source:東方Project
Tags:baka kero japanese touhou 東方project 2hu video game vgm zun 風神録 mountain of faith mof th10 native otenba koimusume beloved tomboyish daughter girl in love eosd 東方紅魔郷 the Embodiment Scarlet Devil ネイティブフェイス 洩矢諏訪子 もりやすわこ fuujinroku zutto no everlasting moriya suwako comiket c73 おてんば恋娘 蒼天歌 チルノ koumakyou th6 its it's always cirno's cirnos chiruno nine revolution nice boat cheat nyo 重音 テト kasane teto territory leorda bnmc ayel fsjallink kolikiscool runigh yokespai
BeatmapID:3563454
BeatmapSetID:1714809

[Difficulty]
HPDrainRate:6
CircleSize:4
OverallDifficulty:8.5
ApproachRate:8
SliderMultiplier:1.5
SliderTickRate:1

[Events]
//Background and Video events
0,0,"bg.jpg",0,0
//Break Periods
2,67231,76921
2,123044,131863
//Storyboard Layer 0 (Background)
//Storyboard Layer 1 (Fail)
//Storyboard Layer 2 (Pass)
//Storyboard Layer 3 (Foreground)
//Storyboard Layer 4 (Overlay)
//Storyboard Sound Samples

[TimingPoints]
55,348.837209302326,4,2,1,75,1,0
55,-100,4,2,1,75,0,0
70,-100,4,2,1,55,0,0
5636,-100,4,2,1,65,0,0
43310,-100,4,2,1,65,0,0
43485,-100,4,2,1,50,0,0
43834,-100,4,2,1,60,0,0
44182,-100,4,2,1,70,0,0
44706,-66.6666666666667,4,2,1,75,0,1
55781,-66.6666666666667,4,2,1,75,0,0
55868,-66.6666666666667,4,2,1,75,0,1
67031,-100,4,2,1,75,0,0
100520,-66.6666666666667,4,2,1,75,0,1
111595,-100,4,2,1,75,0,0
111682,-66.6666666666667,4,2,1,75,0,1
122845,-100,4,2,1,65,0,0
128601,-100,4,2,1,5,0,0
132264,-100,4,2,1,65,0,0
135403,-100,4,2,1,65,0,0
136624,-100,4,2,1,65,0,0
136973,-100,4,2,1,50,0,0
137322,-100,4,2,1,60,0,0
137671,-100,4,2,1,70,0,0
138194,-66.6666666666667,4,2,1,75,0,1
149270,-100,4,2,1,75,0,0
149357,-66.6666666666667,4,2,1,75,0,1
160520,-100,4,2,1,55,0,0
161915,-100,4,2,1,75,0,0
163310,-100,4,2,1,5,0,0

[Colours]
Combo1 : 101,134,188
Combo2 : 203,219,157
Combo3 : 164,200,236
Combo4 : 254,227,180
Sliderborder : 255,255,255

[HitObjects]
255,190,55,6,0,B|241:341|403:324|403:324,1,225,4|0,0:0|0:0,0:0:0:0:
484,229,752,2,0,B|498:78|336:95|336:95,1,225,2|0,0:0|0:0,0:0:0:0:
255,190,1450,6,0,B|159:225|25:219|25:219,1,225,2|0,0:0|0:0,0:0:0:0:
171,353,2148,2,0,B|267:318|401:324|401:324,1,225,2|0,0:0|0:0,0:0:0:0:
400,201,2845,6,0,B|443:200|499:176|499:176,2,75,6|0|2,0:0|0:0|0:0,0:0:0:0:
320,173,3368,1,0,0:0:0:0:
348,93,3543,6,0,B|347:50|323:-6|323:-6,2,75,2|0|2,0:0|0:0|0:0,0:0:0:0:
320,173,4066,1,0,0:0:0:0:
240,145,4241,6,0,B|196:146|140:170|140:170,2,75,2|2|2,0:0|0:0|0:0,0:0:0:0:
320,173,4764,1,2,0:0:0:0:
292,253,4938,6,0,B|293:296|317:352|317:352,2,75,2|2|2,0:0|0:0|0:0,0:0:0:0:
320,173,5461,1,2,0:0:0:0:
200,73,5636,6,0,L|188:20,3,37.5,6|2|2|2,1:0|0:0|0:0|0:0,0:0:0:0:
110,18,5985,2,0,L|57:30,3,37.5,10|2|2|2,0:0|0:0|0:0|0:0,0:0:0:0:
38,107,6334,2,0,L|50:160,3,37.5,2|2|2|2,1:0|0:0|0:0|0:0,0:0:0:0:
130,168,6683,2,0,L|183:156,3,37.5,10|2|2|2,0:0|0:0|0:0|0:0,0:0:0:0:
276,136,7031,6,0,L|288:189,3,37.5,2|2|2|2,1:0|0:0|0:0|0:0,0:0:0:0:
376,185,7380,2,0,L|347:230,3,37.5,10|2|2|2,0:0|0:0|0:0|0:0,0:0:0:0:
393,296,7729,2,0,L|340:308,3,37.5,2|2|2|2,1:0|0:0|0:0|0:0,0:0:0:0:
302,368,8078,2,0,L|256:339,3,37.5,10|2|2|2,0:0|0:0|0:0|0:0,0:0:0:0:
178,371,8427,5,6,1:0:0:0:
142,383,8514,1,2,0:0:0:0:
106,375,8601,1,2,0:0:0:0:
78,350,8688,1,2,0:0:0:0:
70,313,8775,1,10,0:0:0:0:
84,278,8863,1,2,0:0:0:0:
116,258,8950,1,2,0:0:0:0:
155,261,9037,1,2,0:0:0:0:
191,248,9124,1,2,1:0:0:0:
206,213,9211,1,2,0:0:0:0:
200,176,9299,1,2,0:0:0:0:
170,154,9386,1,2,0:0:0:0:
132,154,9473,1,10,0:0:0:0:
103,178,9560,1,2,0:0:0:0:
64,179,9648,1,2,0:0:0:0:
32,158,9735,1,2,0:0:0:0:
20,125,9822,6,0,B|19:97|15:72|15:72,3,37.5,2|2|2|2,1:0|0:0|0:0|0:0,0:0:0:0:
110,58,10171,2,0,B|118:31|128:8|128:8,3,37.5,10|2|2|2,0:0|0:0|0:0|0:0,0:0:0:0:
225,2,10520,1,2,1:0:0:0:
264,8,10607,1,2,0:0:0:0:
289,37,10694,1,2,0:0:0:0:
290,75,10781,1,0,0:0:0:0:
266,105,10868,1,10,0:0:0:0:
230,122,10956,1,0,0:0:0:0:
211,154,11043,1,2,0:0:0:0:
220,191,11130,1,0,0:0:0:0:
243,218,11217,6,0,B|314:223|309:274|401:275,1,150,6|10,0:0|0:0,0:0:0:0:
498,237,11741,1,2,0:0:0:0:
512,124,11915,1,2,0:0:0:0:
407,77,12089,1,2,0:0:0:0:
334,164,12264,1,10,0:0:0:0:
392,259,12438,1,2,0:0:0:0:
294,65,12613,6,0,B|223:70|228:121|136:122,2,150,2|10|2,0:0|0:0|0:0,0:0:0:0:
377,19,13485,5,2,0:0:0:0:
380,122,13659,1,10,0:0:0:0:
295,175,13834,1,2,0:0:0:0:
109,267,14008,2,0,B|-2:258|20:157|20:157,1,150,2|10,0:0|0:0,0:0:0:0:
107,172,14531,5,2,0:0:0:0:
207,228,14705,1,2,0:0:0:0:
182,338,14879,1,2,0:0:0:0:
76,352,15054,1,10,0:0:0:0:
26,251,15228,1,2,0:0:0:0:
297,211,15403,2,0,B|380:210|450:231|450:231,1,150,2|10,0:0|0:0,0:0:0:0:
207,228,15927,5,2,0:0:0:0:
189,196,16015,1,0,0:0:0:0:
200,158,16102,1,2,0:0:0:0:
228,140,16189,1,2,0:0:0:0:
243,105,16276,1,2,0:0:0:0:
236,69,16363,1,0,0:0:0:0:
213,42,16451,1,10,0:0:0:0:
316,299,16624,1,2,0:0:0:0:
316,299,16711,1,0,0:0:0:0:
316,299,16799,6,0,B|233:298|163:319|163:319,1,150,6|10,0:0|0:0,0:0:0:0:
61,331,17322,1,2,0:0:0:0:
11,230,17496,1,2,0:0:0:0:
92,151,17670,1,2,0:0:0:0:
192,207,17845,1,10,0:0:0:0:
167,317,18019,1,2,0:0:0:0:
27,239,18194,5,2,0:0:0:0:
67,137,18368,1,2,0:0:0:0:
29,41,18543,1,10,0:0:0:0:
16,251,18717,5,2,0:0:0:0:
112,213,18892,1,2,0:0:0:0:
214,253,19066,1,2,0:0:0:0:
283,335,19241,2,0,B|337:362|396:342|396:342,1,112.5,10|0,0:0|0:0,0:0:0:0:
404,339,19589,6,0,L|422:238,1,75,2|0,0:0|0:0,0:0:0:0:
274,145,19938,2,0,L|287:218,1,75,10|0,0:0|0:0,0:0:0:0:
411,134,20287,2,0,L|432:13,1,112.5,2|2,0:0|0:0,0:0:0:0:
445,18,20636,1,0,0:0:0:0:
512,122,20810,1,2,0:0:0:0:
316,71,20985,5,2,0:0:0:0:
131,222,21159,1,2,0:0:0:0:
377,203,21333,1,10,0:0:0:0:
168,76,21508,1,2,0:0:0:0:
259,297,21682,2,0,B|257:343|276:373|276:373,1,75,2|2,0:0|0:0,0:0:0:0:
310,87,22206,1,0,0:0:0:0:
310,87,22293,1,0,0:0:0:0:
310,87,22380,6,0,B|312:41|293:11|293:11,2,75,6|0|10,0:0|0:0|0:0,0:0:0:0:
263,184,22903,1,2,0:0:0:0:
259,297,23077,1,2,0:0:0:0:
147,325,23251,1,2,0:0:0:0:
90,227,23426,1,10,0:0:0:0:
164,143,23600,1,2,0:0:0:0:
353,245,23775,6,0,B|448:255|461:162|461:162,2,150,2|10|2,0:0|0:0|0:0,0:0:0:0:
376,348,24648,1,2,0:0:0:0:
272,330,24822,1,10,0:0:0:0:
256,226,24996,1,2,0:0:0:0:
364,83,25171,6,0,P|516:61|516:61,1,150,2|10,0:0|0:0,0:0:0:0:
279,12,25694,1,2,0:0:0:0:
196,91,25868,1,2,0:0:0:0:
249,191,26042,1,2,0:0:0:0:
355,177,26217,1,10,0:0:0:0:
377,67,26391,1,2,0:0:0:0:
148,194,26566,6,0,P|170:346|170:346,1,150,2|10,0:0|0:0,0:0:0:0:
249,191,27089,5,2,0:0:0:0:
244,155,27176,1,0,0:0:0:0:
223,124,27263,1,2,0:0:0:0:
194,105,27350,1,2,0:0:0:0:
180,73,27437,1,2,0:0:0:0:
183,44,27525,1,0,0:0:0:0:
205,23,27612,1,10,0:0:0:0:
335,114,27787,1,2,0:0:0:0:
335,114,27874,1,0,0:0:0:0:
335,114,27961,6,0,B|410:146|491:118|491:118,1,150,6|10,0:0|0:0,0:0:0:0:
375,19,28485,1,2,0:0:0:0:
260,21,28659,1,2,0:0:0:0:
230,131,28833,1,2,0:0:0:0:
323,193,29008,1,10,0:0:0:0:
409,128,29182,1,2,0:0:0:0:
229,144,29357,5,2,0:0:0:0:
119,115,29531,1,2,0:0:0:0:
141,3,29706,1,10,0:0:0:0:
229,157,29880,5,2,0:0:0:0:
341,186,30054,1,2,0:0:0:0:
314,306,30229,1,2,0:0:0:0:
196,281,30403,2,0,B|155:287|129:321|69:326,1,112.5,10|0,0:0|0:0,0:0:0:0:
79,334,30752,6,0,L|60:247,1,75,2|0,0:0|0:0,0:0:0:0:
223,125,31101,2,0,L|206:198,1,75,10|0,0:0|0:0,0:0:0:0:
91,144,31450,2,0,L|67:30,1,112.5,2|2,0:0|0:0,0:0:0:0:
49,23,31799,1,8,0:0:0:0:
0,166,31973,1,2,0:0:0:0:
256,192,32148,12,0,32845,0:0:0:0:
361,261,33020,5,2,1:0:0:0:
296,175,33194,2,0,L|290:132,3,37.5,2|0|0|0,1:0|0:0|0:0|0:0,0:0:0:0:
245,271,33543,1,2,1:0:0:0:
218,297,33630,1,2,0:0:0:0:
181,305,33717,1,2,0:0:0:0:
143,297,33805,1,2,0:0:0:0:
105,300,33892,2,0,P|60:314|50:318,3,37.5,10|2|2|2,0:0|0:0|0:0|0:0,0:0:0:0:
125,211,34241,5,2,1:0:0:0:
148,173,34328,1,2,0:0:0:0:
150,128,34415,1,2,0:0:0:0:
129,87,34502,1,2,0:0:0:0:
87,70,34589,1,10,0:0:0:0:
43,83,34677,1,2,0:0:0:0:
14,121,34764,1,2,0:0:0:0:
21,165,34851,1,2,0:0:0:0:
55,193,34938,5,2,1:0:0:0:
100,167,35025,1,2,0:0:0:0:
150,151,35113,1,2,0:0:0:0:
200,164,35200,1,2,0:0:0:0:
239,198,35287,1,10,0:0:0:0:
281,229,35374,1,2,0:0:0:0:
331,241,35461,1,2,0:0:0:0:
380,221,35549,1,2,0:0:0:0:
413,180,35636,2,0,P|417:147|419:120,7,37.5,2|2|2|2|10|2|2|2,1:0|0:0|0:0|0:0|0:0|0:0|0:0|0:0,0:0:0:0:
323,146,36334,5,2,1:0:0:0:
317,109,36421,1,2,0:0:0:0:
326,72,36508,1,2,0:0:0:0:
347,41,36595,1,2,0:0:0:0:
381,25,36682,1,10,0:0:0:0:
417,14,36770,1,2,0:0:0:0:
452,26,36857,1,2,0:0:0:0:
479,51,36944,1,2,0:0:0:0:
492,93,37031,5,2,1:0:0:0:
461,126,37118,1,2,0:0:0:0:
456,171,37206,1,2,0:0:0:0:
475,211,37293,1,2,0:0:0:0:
500,247,37380,1,10,0:0:0:0:
507,291,37467,1,2,0:0:0:0:
488,332,37555,1,2,0:0:0:0:
450,356,37642,1,2,0:0:0:0:
405,351,37729,1,2,1:0:0:0:
375,317,37816,1,2,0:0:0:0:
375,272,37903,1,2,0:0:0:0:
362,228,37991,1,2,0:0:0:0:
336,191,38078,1,10,0:0:0:0:
293,176,38165,1,2,0:0:0:0:
250,191,38252,1,2,0:0:0:0:
219,223,38339,1,2,0:0:0:0:
215,268,38427,2,0,P|231:315|243:336,3,37.5,2|2|2|2,1:0|0:0|0:0|0:0,0:0:0:0:
127,209,38775,2,0,P|90:226|63:237,3,37.5,10|2|2|2,0:0|0:0|0:0|0:0,0:0:0:0:
183,133,39124,5,2,1:0:0:0:
186,88,39211,1,2,0:0:0:0:
215,53,39299,1,2,0:0:0:0:
259,46,39386,1,2,0:0:0:0:
299,64,39473,1,10,0:0:0:0:
320,103,39560,1,2,0:0:0:0:
305,146,39648,1,2,0:0:0:0:
304,190,39735,1,2,0:0:0:0:
332,224,39822,1,2,1:0:0:0:
376,230,39909,1,2,0:0:0:0:
416,210,39996,1,2,0:0:0:0:
433,168,40084,1,2,0:0:0:0:
427,123,40171,1,10,0:0:0:0:
396,90,40258,1,2,0:0:0:0:
351,87,40345,1,2,0:0:0:0:
310,106,40432,1,2,0:0:0:0:
264,111,40520,5,2,1:0:0:0:
235,86,40607,1,2,0:0:0:0:
229,48,40694,1,2,0:0:0:0:
202,21,40781,1,2,0:0:0:0:
164,16,40868,1,10,0:0:0:0:
131,36,40956,1,2,0:0:0:0:
124,72,41043,1,2,0:0:0:0:
131,108,41130,1,2,0:0:0:0:
152,138,41217,1,2,1:0:0:0:
158,175,41305,1,2,0:0:0:0:
149,211,41392,1,2,0:0:0:0:
131,244,41479,1,2,0:0:0:0:
98,261,41566,2,0,L|32:264,3,37.5,10|2|2|2,0:0|0:0|0:0|0:0,0:0:0:0:
168,329,41915,6,0,L|170:368,7,37.5,2|2|2|2|10|2|2|2,1:0|0:0|0:0|0:0|0:0|0:0|0:0|0:0,0:0:0:0:
224,269,42613,1,2,1:0:0:0:
242,224,42700,1,2,0:0:0:0:
240,175,42787,1,2,0:0:0:0:
230,127,42874,1,2,0:0:0:0:
258,87,42961,1,10,0:0:0:0:
307,87,43049,1,2,0:0:0:0:
333,127,43136,1,2,0:0:0:0:
326,171,43223,1,2,0:0:0:0:
292,200,43310,5,2,1:0:0:0:
237,214,43398,1,2,0:0:0:0:
183,229,43485,2,0,L|124:245,1,37.5,2|2,1:0|0:0,0:0:0:0:
196,136,43659,5,10,1:0:0:0:
141,150,43747,1,2,0:0:0:0:
87,165,43834,2,0,L|28:181,1,37.5,2|0,1:0|0:0,0:0:0:0:
150,54,44008,5,2,1:0:0:0:
95,68,44096,1,2,0:0:0:0:
41,83,44183,2,0,L|-18:99,1,37.5,2|0,1:0|0:0,0:0:0:0:
45,2,44357,1,10,1:0:0:0:
73,330,44706,6,0,B|121:378|206:351|206:351,1,112.500004291535,6|2,1:0|0:0,0:0:0:0:
338,243,45055,1,10,0:0:0:0:
293,132,45229,2,0,B|177:129|228:266|96:251,1,225.000008583069,2|2,0:0|0:0,0:0:0:0:
257,321,45752,2,0,B|309:319|404:366|404:366,1,112.500004291535,10|2,0:0|0:0,0:0:0:0:
452,364,46101,5,2,1:0:0:0:
502,252,46275,1,2,0:0:0:0:
403,171,46450,1,10,0:0:0:0:
287,221,46624,2,0,B|225:398|426:374|426:374,1,225.000008583069,2|2,0:0|0:0,0:0:0:0:
403,171,47148,2,0,B|405:110|366:55|366:55,1,112.500004291535,10|2,0:0|0:0,0:0:0:0:
255,159,47496,5,2,1:0:0:0:
218,296,47671,1,2,0:0:0:0:
354,263,47845,1,10,0:0:0:0:
134,360,48020,2,0,B|85:284|176:204|111:100,1,225.000008583069,2|2,0:0|0:0,0:0:0:0:
46,67,48543,1,10,0:0:0:0:
349,190,48892,6,0,B|423:202|474:158|474:158,1,112.500004291535,2|2,1:0|0:0,0:0:0:0:
446,37,49241,1,10,0:0:0:0:
271,137,49415,2,0,B|235:216|311:288|256:378,1,225.000008583069,2|2,0:0|0:0,0:0:0:0:
169,369,49938,1,10,0:0:0:0:
349,190,50113,1,2,0:0:0:0:
349,190,50200,1,2,0:0:0:0:
349,190,50287,6,0,B|426:189|484:236|484:236,1,112.500004291535,6|2,1:0|0:0,0:0:0:0:
336,372,50636,1,10,0:0:0:0:
126,307,50810,2,0,B|5:201|137:89|137:89,1,225.000008583069,2|2,0:0|0:0,0:0:0:0:
246,56,51334,1,10,0:0:0:0:
206,201,51508,1,2,0:0:0:0:
358,143,51682,2,0,B|428:131|475:76|475:76,1,112.500004291535,2|2,1:0|0:0,0:0:0:0:
240,35,52031,1,10,0:0:0:0:
179,196,52206,2,0,B|271:192|267:314|396:312,1,225.000008583069,2|2,0:0|0:0,0:0:0:0:
488,184,52729,2,0,B|418:195|373:237|373:237,1,112.500004291535,10|0,0:0|0:0,0:0:0:0:
183,288,53078,6,0,B|113:277|68:235|68:235,1,112.500004291535,2|0,1:0|0:0,0:0:0:0:
54,225,53339,1,2,0:0:0:0:
54,225,53427,1,0,0:0:0:0:
62,358,53601,1,2,0:0:0:0:
169,264,53775,1,2,1:0:0:0:
51,99,54037,1,2,0:0:0:0:
51,99,54124,1,0,0:0:0:0:
174,182,54299,1,2,0:0:0:0:
310,170,54473,1,2,1:0:0:0:
353,179,54560,1,2,0:0:0:0:
386,209,54648,1,2,0:0:0:0:
403,250,54735,1,2,0:0:0:0:
387,292,54822,6,0,B|297:267|272:355|155:334,1,225.000008583069,10|2,0:0|1:0,0:0:0:0:
58,196,55345,1,2,1:0:0:0:
226,242,55520,1,2,1:0:0:0:
235,197,55607,1,0,0:0:0:0:
237,152,55694,1,2,0:0:0:0:
229,107,55781,1,2,0:0:0:0:
200,72,55868,6,0,B|166:137|179:205|179:205,1,112.500004291535,6|2,1:0|0:0,0:0:0:0:
329,305,56217,1,10,0:0:0:0:
470,174,56392,2,0,B|476:1|314:20|314:20,1,225.000008583069,2|2,0:0|0:0,0:0:0:0:
313,238,56915,2,0,B|350:311|455:270|455:270,1,112.500004291535,10|2,0:0|0:0,0:0:0:0:
266,141,57264,1,2,1:0:0:0:
151,256,57438,1,2,0:0:0:0:
41,132,57613,1,10,0:0:0:0:
160,22,57787,6,0,B|256:7|298:117|395:68,1,225.000008583069,2|2,0:0|0:0,0:0:0:0:
504,132,58310,2,0,B|417:141|375:201|375:201,1,112.500004291535,10|2,0:0|0:0,0:0:0:0:
255,140,58659,1,2,1:0:0:0:
314,275,58834,1,2,0:0:0:0:
206,372,59008,1,10,0:0:0:0:
145,231,59182,2,0,B|152:148|48:113|77:17,1,225.000008583069,2|2,0:0|0:0,0:0:0:0:
174,40,59706,1,10,0:0:0:0:
49,237,60055,5,2,1:0:0:0:
160,364,60229,1,2,0:0:0:0:
325,317,60403,1,10,0:0:0:0:
360,169,60578,2,0,B|342:12|196:56|196:56,1,225.000008583069,2|2,0:0|1:0,0:0:0:0:
183,157,61101,1,10,1:0:0:0:
445,251,61275,1,2,0:0:0:0:
445,251,61363,1,2,0:0:0:0:
445,251,61450,6,0,B|483:181|443:115|443:115,1,112.500004291535,6|2,1:0|0:0,0:0:0:0:
450,348,61799,1,10,0:0:0:0:
321,249,61973,2,0,B|251:250|226:363|74:339,1,225.000008583069,2|2,0:0|0:0,0:0:0:0:
141,251,62496,1,10,0:0:0:0:
339,354,62671,2,0,B|396:371|470:340|470:340,1,112.500004291535,2|2,0:0|1:0,0:0:0:0:
274,119,63020,2,0,B|217:102|143:133|143:133,1,112.500004291535,2|10,0:0|0:0,0:0:0:0:
163,263,63368,1,2,0:0:0:0:
321,222,63543,1,2,1:0:0:0:
401,118,63717,2,0,B|424:47|419:2|419:2,1,112.500004291535,2|10,0:0|0:0,0:0:0:0:
485,215,64066,2,0,B|462:286|467:331|467:331,1,112.500004291535,2|2,0:0|1:0,0:0:0:0:
229,354,64502,5,2,0:0:0:0:
229,354,64589,1,0,0:0:0:0:
317,295,64764,1,2,0:0:0:0:
199,240,64938,1,2,1:0:0:0:
340,83,65200,1,2,0:0:0:0:
340,83,65287,1,0,0:0:0:0:
236,18,65461,1,2,0:0:0:0:
134,72,65636,6,0,B|46:134|84:235|84:235,1,168.750006437302,2|0,1:0|0:0,0:0:0:0:
71,264,65985,2,0,P|157:270|195:286,1,112.500004291535,10|2,0:0|0:0,0:0:0:0:
278,303,66334,1,2,1:0:0:0:
163,177,66508,1,2,1:0:0:0:
320,128,66682,1,2,1:0:0:0:
274,132,66770,1,2,0:0:0:0:
229,125,66857,1,2,0:0:0:0:
188,105,66944,1,0,0:0:0:0:
164,75,67031,1,6,0:0:0:0:
483,184,77671,5,2,0:0:0:0:
393,159,77845,1,2,0:0:0:0:
389,68,78020,5,2,0:0:0:0:
389,68,78107,1,0,0:0:0:0:
389,68,78194,2,0,B|295:69|296:167|296:167,1,150,6|10,0:0|0:0,0:0:0:0:
356,255,78717,1,2,0:0:0:0:
285,344,78891,1,2,0:0:0:0:
178,303,79065,1,2,0:0:0:0:
188,190,79240,1,10,0:0:0:0:
296,164,79414,1,2,0:0:0:0:
178,303,79589,6,0,B|123:340|27:341|27:341,2,150,2|10|2,0:0|0:0|0:0,0:0:0:0:
260,358,80461,1,2,0:0:0:0:
331,292,80636,1,10,0:0:0:0:
287,207,80810,1,2,0:0:0:0:
90,250,80985,6,0,B|-21:241|1:140|1:140,1,150,2|10,0:0|0:0,0:0:0:0:
92,158,81508,1,2,0:0:0:0:
192,214,81682,1,2,0:0:0:0:
167,324,81856,1,2,0:0:0:0:
61,338,82031,1,10,0:0:0:0:
11,237,82205,1,2,0:0:0:0:
215,205,82380,6,0,B|251:142|246:60|246:60,1,150,2|10,0:0|0:0,0:0:0:0:
350,139,82903,5,2,0:0:0:0:
332,171,82991,1,0,0:0:0:0:
343,209,83078,1,2,0:0:0:0:
371,227,83165,1,2,0:0:0:0:
386,262,83252,1,2,0:0:0:0:
379,298,83339,1,0,0:0:0:0:
356,325,83427,1,10,0:0:0:0:
449,152,83601,1,2,0:0:0:0:
449,152,83688,1,2,0:0:0:0:
449,152,83775,6,0,B|449:51|361:47|361:47,1,150,6|10,0:0|0:0,0:0:0:0:
259,71,84299,1,2,0:0:0:0:
157,103,84473,1,2,0:0:0:0:
153,217,84647,1,2,0:0:0:0:
262,252,84822,1,10,0:0:0:0:
326,159,84996,1,2,0:0:0:0:
142,104,85171,5,2,0:0:0:0:
40,60,85345,1,2,0:0:0:0:
128,2,85520,1,10,0:0:0:0:
139,115,85694,5,2,0:0:0:0:
153,217,85868,1,2,0:0:0:0:
241,159,86043,1,2,0:0:0:0:
51,184,86217,2,0,B|77:234|88:294|88:294,1,112.5,10|0,0:0|0:0,0:0:0:0:
85,309,86566,6,0,L|174:322,1,75,2|0,0:0|0:0,0:0:0:0:
293,254,86915,2,0,L|280:343,1,75,10|0,0:0|0:0,0:0:0:0:
426,229,87264,2,0,B|404:173|409:114|409:114,1,112.5,2|2,0:0|0:0,0:0:0:0:
394,103,87613,1,0,0:0:0:0:
512,143,87787,1,2,0:0:0:0:
300,168,87961,5,2,0:0:0:0:
62,212,88135,1,2,0:0:0:0:
282,305,88309,1,10,0:0:0:0:
164,105,88484,1,2,0:0:0:0:
139,342,88659,2,0,B|103:362|61:361|61:361,1,75,2|2,0:0|0:0,0:0:0:0:
303,183,89182,5,2,0:0:0:0:
303,183,89270,1,2,0:0:0:0:
303,183,89357,2,0,B|339:163|381:164|381:164,2,75,6|0|10,0:0|0:0|0:0,0:0:0:0:
223,254,89880,1,2,0:0:0:0:
125,201,90054,1,2,0:0:0:0:
145,90,90229,1,2,0:0:0:0:
259,77,90403,1,10,0:0:0:0:
303,183,90577,1,2,0:0:0:0:
138,109,90752,6,0,B|81:90|74:42|10:23,2,150,2|10|2,0:0|0:0|0:0,0:0:0:0:
157,208,91624,1,2,0:0:0:0:
49,239,91798,1,10,0:0:0:0:
25,138,91973,1,2,0:0:0:0:
194,38,92148,6,0,B|253:74|336:91|336:91,1,150,2|10,0:0|0:0,0:0:0:0:
414,20,92671,1,2,0:0:0:0:
512,73,92845,1,2,0:0:0:0:
492,184,93020,1,2,0:0:0:0:
378,197,93194,1,10,0:0:0:0:
334,91,93368,1,2,0:0:0:0:
482,201,93543,6,0,L|466:361,1,150,2|10,0:0|0:0,0:0:0:0:
350,304,94066,5,2,0:0:0:0:
318,286,94154,1,0,0:0:0:0:
280,297,94241,1,2,0:0:0:0:
262,325,94328,1,2,0:0:0:0:
227,340,94415,1,2,0:0:0:0:
191,333,94502,1,0,0:0:0:0:
164,310,94590,1,10,0:0:0:0:
42,343,94764,5,2,0:0:0:0:
42,343,94851,1,2,0:0:0:0:
42,343,94938,2,0,L|27:193,1,150,6|10,0:0|0:0,0:0:0:0:
51,87,95461,1,2,0:0:0:0:
162,83,95635,1,2,0:0:0:0:
200,190,95810,1,2,0:0:0:0:
108,258,95984,1,10,0:0:0:0:
17,188,96158,1,2,0:0:0:0:
160,62,96334,5,2,0:0:0:0:
92,0,96508,1,2,0:0:0:0:
0,11,96682,1,10,0:0:0:0:
149,79,96857,5,2,0:0:0:0:
217,141,97031,1,2,0:0:0:0:
309,130,97205,1,2,0:0:0:0:
375,64,97380,2,0,B|456:63|457:140|457:140,1,112.5,10|0,0:0|0:0,0:0:0:0:
444,136,97729,6,0,L|436:217,1,75,2|0,0:0|0:0,0:0:0:0:
284,289,98078,2,0,L|276:214,1,75,10|0,0:0|0:0,0:0:0:0:
488,339,98427,2,0,B|442:329|436:294|365:288,1,112.5,2|2,0:0|0:0,0:0:0:0:
374,299,98775,1,0,0:0:0:0:
209,336,98950,1,2,0:0:0:0:
256,192,99124,12,0,99822,0:0:0:0:
109,215,99996,5,2,0:0:0:0:
62,88,100171,1,2,0:0:0:0:
83,78,100258,1,2,0:0:0:0:
111,75,100345,1,2,0:0:0:0:
136,79,100432,1,0,0:0:0:0:
155,89,100520,6,0,B|217:114|280:106,1,112.500004291535,6|2,1:0|0:0,0:0:0:0:
403,167,100868,1,10,0:0:0:0:
405,72,101043,2,0,B|254:50|260:212|260:212,1,225.000008583069,2|2,0:0|0:0,0:0:0:0:
392,363,101566,2,0,B|405:301|378:239|378:239,1,112.500004291535,10|2,0:0|0:0,0:0:0:0:
276,97,101915,5,2,1:0:0:0:
154,109,102089,1,2,0:0:0:0:
133,228,102264,1,10,0:0:0:0:
174,345,102438,2,0,B|23:367|23:207|23:207,1,225.000008583069,2|2,0:0|0:0,0:0:0:0:
204,32,102961,1,10,0:0:0:0:
204,32,103310,5,2,1:0:0:0:
248,170,103485,1,2,0:0:0:0:
175,305,103659,1,10,0:0:0:0:
129,178,103834,2,0,B|237:173|245:259|347:260,1,225.000008583069,2|2,0:0|0:0,0:0:0:0:
171,320,104357,2,0,B|116:347|56:342|56:342,1,112.500004291535,10|2,0:0|0:0,0:0:0:0:
25,165,104706,5,2,1:0:0:0:
69,49,104880,1,2,0:0:0:0:
179,44,105055,1,10,0:0:0:0:
271,153,105229,2,0,B|268:207|290:284|290:284,1,112.500004291535,2|0,0:0|0:0,0:0:0:0:
310,354,105578,1,2,0:0:0:0:
150,224,105752,1,10,0:0:0:0:
365,122,105927,1,2,0:0:0:0:
365,122,106014,1,2,0:0:0:0:
365,122,106101,6,0,B|366:35|283:57|283:57,1,112.500004291535,6|2,1:0|0:0,0:0:0:0:
182,141,106450,1,10,0:0:0:0:
284,264,106624,2,0,B|383:278|376:368|497:373,1,225.000008583069,2|2,0:0|0:0,0:0:0:0:
236,345,107148,2,0,L|125:364,1,112.500004291535,10|2,0:0|0:0,0:0:0:0:
38,218,107496,5,2,1:0:0:0:
144,136,107671,1,2,0:0:0:0:
263,206,107845,1,10,0:0:0:0:
252,359,108020,2,0,B|420:340|393:193|393:193,1,225.000008583069,2|2,0:0|0:0,0:0:0:0:
367,24,108543,1,10,0:0:0:0:
367,24,108892,5,2,1:0:0:0:
383,139,109153,1,2,0:0:0:0:
383,139,109241,1,0,0:0:0:0:
264,154,109415,1,2,0:0:0:0:
241,40,109589,1,2,1:0:0:0:
55,64,109850,1,2,0:0:0:0:
55,64,109938,1,0,0:0:0:0:
43,177,110112,1,2,0:0:0:0:
161,234,110287,1,2,1:0:0:0:
173,255,110374,1,2,0:0:0:0:
175,282,110461,1,2,0:0:0:0:
166,308,110549,1,2,0:0:0:0:
182,330,110636,6,0,B|293:299|299:387|423:382,1,225.000008583069,10|2,0:0|1:0,0:0:0:0:
507,254,111159,1,2,1:0:0:0:
379,248,111334,1,2,1:0:0:0:
358,222,111421,1,2,0:0:0:0:
347,192,111508,1,2,0:0:0:0:
348,156,111595,1,2,0:0:0:0:
356,127,111682,6,0,B|402:77|387:18|387:18,1,112.500004291535,6|2,1:0|0:0,0:0:0:0:
200,0,112031,1,10,0:0:0:0:
90,163,112206,2,0,B|106:322|264:274|264:274,1,225.000008583069,2|2,0:0|0:0,0:0:0:0:
454,96,112729,2,0,B|391:96|326:121|326:121,1,112.500004291535,10|2,0:0|0:0,0:0:0:0:
207,157,113078,5,2,1:0:0:0:
120,292,113252,1,2,0:0:0:0:
289,382,113427,1,10,0:0:0:0:
372,243,113601,2,0,B|382:164|281:125|317:-14,1,225.000008583069,2|2,0:0|0:0,0:0:0:0:
502,24,114124,1,10,0:0:0:0:
502,24,114473,5,2,1:0:0:0:
402,139,114648,1,2,0:0:0:0:
229,135,114822,1,10,0:0:0:0:
130,27,114996,2,0,B|-19:51|13:201|13:201,1,225.000008583069,2|2,0:0|0:0,0:0:0:0:
105,301,115520,2,0,B|187:303|222:225|222:225,1,112.500004291535,10|0,0:0|0:0,0:0:0:0:
123,147,115868,5,2,1:0:0:0:
14,296,116043,1,2,0:0:0:0:
188,377,116217,1,10,0:0:0:0:
289,210,116392,2,0,B|293:105|382:-16|382:-16,1,225.000008583069,2|2,0:0|1:0,0:0:0:0:
437,127,116915,1,10,1:0:0:0:
177,176,117089,5,2,0:0:0:0:
177,176,117177,1,2,0:0:0:0:
177,176,117264,2,0,B|96:185|54:98|54:98,1,112.500004291535,6|2,1:0|0:0,0:0:0:0:
154,1,117613,1,10,0:0:0:0:
306,140,117787,2,0,B|342:219|266:291|321:381,1,225.000008583069,2|2,0:0|0:0,0:0:0:0:
212,364,118310,1,10,0:0:0:0:
389,277,118485,1,2,0:0:0:0:
217,196,118659,6,0,B|154:197|101:222|101:222,1,112.500004291535,2|2,1:0|0:0,0:0:0:0:
46,103,119008,1,10,0:0:0:0:
283,125,119182,2,0,B|346:124|399:99|399:99,1,112.500004291535,2|2,0:0|1:0,0:0:0:0:
139,12,119531,2,0,B|152:58|188:71|200:137,1,112.500004291535,2|10,0:0|0:0,0:0:0:0:
94,217,119880,1,2,0:0:0:0:
249,344,120055,6,0,B|255:302|289:291|302:245,1,112.500004291535,2|0,1:0|0:0,0:0:0:0:
302,215,120316,1,2,0:0:0:0:
302,215,120403,1,0,0:0:0:0:
380,105,120578,1,2,0:0:0:0:
512,163,120752,1,2,1:0:0:0:
396,360,121014,1,2,0:0:0:0:
396,360,121101,1,0,0:0:0:0:
276,293,121275,1,2,0:0:0:0:
143,338,121450,6,0,B|21:346|36:221|36:221,1,168.750006437302,2|0,1:0|0:0,0:0:0:0:
42,212,121799,2,0,B|105:218|164:186|164:186,1,112.500004291535,10|2,0:0|0:0,0:0:0:0:
289,106,122148,1,2,1:0:0:0:
257,285,122322,1,2,1:0:0:0:
85,114,122496,1,2,1:0:0:0:
80,85,122583,1,2,0:0:0:0:
75,58,122670,1,2,0:0:0:0:
70,29,122757,1,0,0:0:0:0:
66,3,122844,1,6,0:0:0:0:
177,174,132613,6,0,P|181:200|187:233,3,37.5,2|0|0|0,0:0|0:0|0:0|0:0,0:0:0:0:
105,119,132961,2,0,P|101:93|95:60,3,37.5
46,187,133310,1,2,0:0:0:0:
54,220,133398,1,0,0:0:0:0:
60,252,133485,1,0,0:0:0:0:
67,284,133572,1,0,0:0:0:0:
73,317,133659,2,0,L|82:365,3,37.5
153,273,134008,5,2,0:0:0:0:
181,291,134095,1,0,0:0:0:0:
216,291,134182,1,0,0:0:0:0:
246,276,134270,1,0,0:0:0:0:
273,256,134357,1,2,0:0:0:0:
306,252,134444,1,0,0:0:0:0:
337,262,134531,1,0,0:0:0:0:
359,286,134618,1,0,0:0:0:0:
373,316,134706,2,0,P|365:358|363:370,7,37.5,2|0|0|0|2|0|0|0,0:0|0:0|0:0|0:0|0:0|0:0|0:0|0:0,0:0:0:0:
406,229,135403,5,2,1:0:0:0:
365,200,135491,1,2,0:0:0:0:
343,154,135578,1,2,0:0:0:0:
351,106,135665,1,2,0:0:0:0:
373,63,135752,1,10,0:0:0:0:
326,78,135839,1,2,0:0:0:0:
281,56,135927,1,2,0:0:0:0:
244,23,136014,1,2,0:0:0:0:
196,15,136101,1,2,1:0:0:0:
159,46,136188,1,2,0:0:0:0:
157,94,136275,1,2,0:0:0:0:
189,130,136363,1,2,0:0:0:0:
203,176,136450,1,10,0:0:0:0:
188,222,136537,1,2,0:0:0:0:
212,268,136624,1,2,0:0:0:0:
263,279,136711,1,2,0:0:0:0:
295,232,136799,5,2,1:0:0:0:
311,285,136886,1,2,0:0:0:0:
333,336,136973,2,0,L|346:380,1,37.5,2|2,1:0|0:0,0:0:0:0:
366,153,137148,5,10,1:0:0:0:
382,206,137235,1,2,0:0:0:0:
404,257,137322,2,0,L|417:301,1,37.5,2|2,1:0|0:0,0:0:0:0:
435,69,137496,5,2,1:0:0:0:
451,122,137583,1,2,0:0:0:0:
473,173,137670,2,0,L|486:217,1,37.5,2|2,1:0|0:0,0:0:0:0:
499,8,137845,1,10,1:0:0:0:
259,92,138194,6,0,B|187:125|138:116|138:116,1,112.500004291535,6|2,1:0|0:0,0:0:0:0:
49,32,138543,1,10,0:0:0:0:
7,178,138717,2,0,B|104:156|86:291|245:269,1,225.000008583069,2|2,0:0|0:0,0:0:0:0:
283,198,139241,1,10,0:0:0:0:
153,116,139415,1,2,0:0:0:0:
196,371,139589,6,0,B|258:343|329:356|329:356,1,112.500004291535,2|2,1:0|0:0,0:0:0:0:
409,241,139938,1,10,0:0:0:0:
334,41,140113,2,0,B|183:52|186:206|186:206,1,225.000008583069,2|2,0:0|0:0,0:0:0:0:
346,366,140636,2,0,B|352:288|313:248|313:248,1,112.500004291535,10|2,0:0|0:0,0:0:0:0:
115,229,140985,5,2,1:0:0:0:
27,314,141159,1,2,0:0:0:0:
146,351,141334,1,10,0:0:0:0:
70,123,141508,2,0,B|173:109|201:208|276:193,1,225.000008583069,2|2,0:0|0:0,0:0:0:0:
400,184,142031,1,10,0:0:0:0:
115,229,142380,6,0,B|52:223|-11:243|-11:243,1,112.500004291535,2|2,1:0|0:0,0:0:0:0:
49,355,142729,1,10,0:0:0:0:
197,344,142903,2,0,B|327:374|426:299|426:299,1,225.000008583069,2|2,0:0|0:0,0:0:0:0:
448,198,143427,1,10,0:0:0:0:
385,108,143601,1,2,0:0:0:0:
385,108,143688,1,2,0:0:0:0:
385,108,143775,5,6,1:0:0:0:
291,167,143950,1,2,0:0:0:0:
354,259,144124,1,10,0:0:0:0:
279,42,144299,2,0,B|127:81|185:231|185:231,1,225.000008583069,2|2,0:0|0:0,0:0:0:0:
306,356,144822,5,10,0:0:0:0:
473,299,144996,1,2,0:0:0:0:
375,216,145171,6,0,B|326:271|248:261|248:261,1,112.500004291535,2|2,1:0|0:0,0:0:0:0:
98,185,145520,1,10,0:0:0:0:
320,85,145694,2,0,B|473:78|466:235|466:235,1,225.000008583069,2|2,0:0|0:0,0:0:0:0:
244,147,146217,2,0,B|211:93|237:21|237:21,1,112.500004291535,10|0,0:0|0:0,0:0:0:0:
329,205,146566,5,2,1:0:0:0:
224,332,146828,1,2,0:0:0:0:
224,332,146915,1,0,0:0:0:0:
178,221,147089,1,2,0:0:0:0:
341,305,147264,1,2,1:0:0:0:
433,110,147525,1,2,0:0:0:0:
433,110,147613,1,0,0:0:0:0:
322,27,147787,1,2,0:0:0:0:
225,99,147961,1,2,1:0:0:0:
190,109,148049,1,2,0:0:0:0:
151,117,148136,1,2,0:0:0:0:
112,111,148223,1,2,0:0:0:0:
77,91,148310,6,0,B|148:59|213:163|296:133,1,225.000008583069,10|2,0:0|1:0,0:0:0:0:
258,22,148834,1,2,1:0:0:0:
190,217,149008,1,2,1:0:0:0:
150,220,149095,1,2,0:0:0:0:
112,232,149182,1,2,0:0:0:0:
76,253,149270,1,2,0:0:0:0:
55,281,149357,6,0,B|-8:254|5:163|5:163,1,112.500004291535,6|2,1:0|0:0,0:0:0:0:
63,104,149706,1,10,0:0:0:0:
244,53,149880,2,0,B|401:86|324:261|324:261,1,225.000008583069,2|2,0:0|0:0,0:0:0:0:
178,121,150403,2,0,B|136:74|141:7|141:7,1,112.500004291535,10|2,0:0|0:0,0:0:0:0:
344,15,150752,5,2,1:0:0:0:
468,143,150927,1,2,0:0:0:0:
346,254,151101,1,10,0:0:0:0:
196,227,151275,2,0,B|101:225|101:295|-14:331,1,225.000008583069,2|2,0:0|0:0,0:0:0:0:
186,326,151799,2,0,B|233:368|300:363|300:363,1,112.500004291535,10|2,0:0|0:0,0:0:0:0:
418,189,152148,5,2,1:0:0:0:
512,274,152322,1,2,0:0:0:0:
421,381,152496,1,10,0:0:0:0:
320,283,152671,2,0,B|270:211|333:127|263:48,1,225.000008583069,2|2,0:0|0:0,0:0:0:0:
51,52,153194,1,10,0:0:0:0:
51,52,153543,5,2,1:0:0:0:
128,168,153717,1,2,0:0:0:0:
70,290,153892,1,10,0:0:0:0:
25,168,154066,2,0,B|181:167|170:314|170:314,1,225.000008583069,2|2,0:0|1:0,0:0:0:0:
25,369,154589,1,10,1:0:0:0:
177,203,154764,5,2,0:0:0:0:
177,203,154851,1,2,0:0:0:0:
177,203,154938,2,0,B|240:198|300:229|300:229,1,112.500004291535,6|2,1:0|0:0,0:0:0:0:
441,341,155287,1,10,0:0:0:0:
328,342,155461,2,0,B|348:257|437:237|442:145,1,225.000008583069,2|2,0:0|0:0,0:0:0:0:
350,53,155985,1,10,0:0:0:0:
282,141,156159,1,2,0:0:0:0:
403,256,156334,6,0,B|466:261|526:230|526:230,1,112.500004291535,2|2,1:0|0:0,0:0:0:0:
508,108,156682,1,10,0:0:0:0:
420,1,156857,1,2,0:0:0:0:
269,55,157031,1,2,1:0:0:0:
293,226,157206,2,0,B|266:291|191:286|191:286,1,112.500004291535,2|10,0:0|0:0,0:0:0:0:
50,234,157555,1,2,0:0:0:0:
66,119,157729,6,0,B|124:121|132:160|193:165,1,112.500004291535,2|0,1:0|0:0,0:0:0:0:
193,160,157991,1,2,0:0:0:0:
193,160,158078,1,0,0:0:0:0:
293,104,158252,1,2,0:0:0:0:
254,0,158427,1,2,1:0:0:0:
0,35,158688,1,2,0:0:0:0:
0,35,158775,1,0,0:0:0:0:
68,150,158950,1,2,0:0:0:0:
0,252,159124,6,0,B|-4:372|123:345|123:345,1,168.750006437302,2|0,1:0|0:0,0:0:0:0:
122,336,159473,2,0,B|181:320|233:318|233:318,1,112.500004291535,10|2,0:0|0:0,0:0:0:0:
402,243,159822,1,2,1:0:0:0:
337,360,159996,1,2,1:0:0:0:
270,203,160171,1,2,1:0:0:0:
258,170,160258,1,2,0:0:0:0:
252,132,160345,1,2,0:0:0:0:
255,100,160432,1,0,0:0:0:0:
261,68,160519,1,2,0:0:0:0:
256,192,160607,12,6,161915,1:0:0:0:
