osu file format v14

[General]
AudioFilename: audio.mp3
AudioLeadIn: 0
PreviewTime: 48299
Countdown: 1
SampleSet: Soft
StackLeniency: 0.3
Mode: 0
LetterboxInBreaks: 0
UseSkinSprites: 1
SkinPreference:Default
EpilepsyWarning: 1
WidescreenStoryboard: 1

[Editor]
Bookmarks: 5633,16299,26966,48299,58966,69633,80299,85633,112299,122966,133633,144299
DistanceSpacing: 1
BeatDivisor: 4
GridSize: 8
TimelineZoom: 1

[Metadata]
Title:Tsurupettan (Game Ver.)
TitleUnicode:つるぺったん (Game Ver.)
Artist:Silver Forest
ArtistUnicode:Silver Forest
Creator:Bloxi
Version:bnmc's Easy
Source:東方永夜抄 ~ Imperishable Night.
Tags:touhou 東方project japanese video game vgm novelty zun 2hu th8 in reitaisai 14 rts14 例大祭14 collective performance とうほうインスパイア くろねこ アキ カガリ 星河さきち kuroneko aki kagari hoshikawa sakichi toho inspire 東方萃奏楽 suisougaku chunithm sound voltex iv heavenly haven pettan hare yukai crossover ハレ晴レユカイ harupittan mojipittan 竹取飛翔 ~ Lunatic Princess 蓬莱山 輝夜 Houraisan Kaguya はるぴったん レッツゴー!陰陽師 let's lets go! onmyoji 伊吹 萃香 Ibuki Suika 電波 denpa ニコニコ動画 nico douga boshyman741 frey kival_evan deppyforce uberfazz flux3on fluxie phynta bnmc coppertine
BeatmapID:3690387
BeatmapSetID:1615177

[Difficulty]
HPDrainRate:2
CircleSize:2.5
OverallDifficulty:2
ApproachRate:3.5
SliderMultiplier:0.699999999999999
SliderTickRate:1

[Events]
//Background and Video events
0,0,"bg/bg4.jpg",0,0
//Break Periods
2,80299,84253
//Storyboard Layer 0 (Background)
//Storyboard Layer 1 (Fail)
//Storyboard Layer 2 (Pass)
//Storyboard Layer 3 (Foreground)
//Storyboard Layer 4 (Overlay)
//Storyboard Sound Samples

[TimingPoints]
300,333.333333333333,4,2,1,75,1,0
58966,-100,4,2,1,75,0,1
69633,-100,4,2,1,75,0,0
122966,-100,4,2,1,75,0,1
133633,-100,4,2,1,75,0,0
144299,-100,4,2,1,75,0,1
154799,-100,4,2,1,75,0,0
157633,-100,4,2,1,5,0,0

[Colours]
Combo1 : 248,77,67
Combo2 : 217,210,196
Combo3 : 253,187,233
Combo4 : 243,222,148
Sliderborder : 255,255,255

[HitObjects]
31,96,5633,6,0,B|75:135|75:135|70:221,1,140,2|2,1:0|1:0,0:0:0:0:
149,314,6966,2,0,P|198:269|284:259,1,140,2|2,1:0|1:0,0:0:0:0:
382,311,8299,1,2,1:0:0:0:
474,225,8966,1,2,1:0:0:0:
416,112,9633,2,0,B|344:93|347:152|277:127,1,140,2|2,1:0|1:0,0:0:0:0:
185,47,10966,6,0,P|152:97|159:185,1,140,6|2,1:0|1:0,0:0:0:0:
259,244,12299,1,2,1:0:0:0:
214,361,12966,1,2,1:0:0:0:
88,346,13633,2,0,B|48:322|48:322|36:229,1,140,2|2,1:0|1:0,0:0:0:0:
21,104,14966,1,2,1:0:0:0:
146,90,15633,1,0,1:0:0:0:
242,171,16299,6,2,B|295:119|271:44|271:44|331:39|333:93|408:76,1,280
509,5,18299,1,2,0:0:0:0:
512,131,18966,2,0,B|474:164|474:164|485:259,1,140,2|2,0:0|0:0,0:0:0:0:
435,369,20299,2,0,P|376:328|295:328,1,140,2|2,0:0|0:0,0:0:0:0:
198,380,21633,5,6,0:0:0:0:
107,292,22299,1,2,0:0:0:0:
169,182,22966,2,0,L|312:190,1,140,2|2,0:0|0:0,0:0:0:0:
411,262,24299,2,0,P|441:186|420:121,1,140,2|2,0:0|0:0,0:0:0:0:
315,72,25633,1,2,0:0:0:0:
203,129,26299,1,2,0:0:0:0:
83,87,26966,6,0,B|58:134|64:211|130:202|114:283|114:283|84:258|33:258,1,280,6|2,0:0|0:0,0:0:0:0:
53,384,28966,1,2,0:0:0:0:
146,371,29466,2,0,B|353:343|353:343|297:307|294:246,1,315,2|2,0:0|0:0,0:0:0:0:
343,138,31633,1,10,0:0:0:0:
467,156,32299,6,2,B|408:30|408:30|259:38,1,280,14|2,0:0|0:0,0:0:0:0:
161,106,34299,2,0,B|201:140|201:140|193:231,1,140,2|2,0:0|0:0,0:0:0:0:
172,351,35633,1,2,0:0:0:0:
261,321,36133,2,0,B|348:302|348:302|433:348,1,175,6|2,0:0|0:0,0:0:0:0:
507,248,37633,6,2,B|483:39|483:39|456:67|419:73,1,280,6|2,0:0|0:0,0:0:0:0:
303,35,39633,1,2,0:0:0:0:
242,107,40133,2,0,B|306:200|278:303|278:303|234:258|183:259,1,315,2|2,0:0|0:0,0:0:0:0:
64,305,42299,1,10,0:0:0:0:
0,195,42966,6,2,B|71:111|33:-1|33:-1|117:20,1,280,10|2,0:0|0:0,0:0:0:0:
180,115,44966,2,0,B|218:144|218:144|320:127,1,140,2|10,0:0|0:0,0:0:0:0:
432,104,46299,1,10,0:0:0:0:
506,205,46966,2,0,P|521:266|503:348,1,140,10|10,0:0|0:0,0:0:0:0:
389,384,48299,5,6,1:0:0:0:
272,336,48966,1,2,1:0:0:0:
149,364,49633,2,0,B|139:298|139:298|147:288|147:288|133:207,1,140,2|2,1:0|1:0,0:0:0:0:
111,105,50966,1,2,1:0:0:0:
236,89,51633,1,2,1:0:0:0:
338,162,52299,2,0,P|329:235|357:306,1,140,2|2,1:0|1:0,0:0:0:0:
443,210,53633,6,0,P|465:144|455:75,1,140,6|2,1:0|1:0,0:0:0:0:
351,3,54966,1,2,1:0:0:0:
238,59,55633,1,2,1:0:0:0:
126,1,56299,2,0,B|90:38|90:38|108:148,1,140,2|2,1:0|1:0,0:0:0:0:
129,248,57633,1,2,1:0:0:0:
7,215,58299,1,2,1:0:0:0:
67,341,58966,6,0,P|134:355|213:328,1,140,6|2,1:0|1:0,0:0:0:0:
318,257,60299,2,0,B|297:224|264:214|264:214|315:151|297:67,1,210,2|10,1:0|0:0,0:0:0:0:
248,16,61633,1,2,1:0:0:0:
125,84,62299,1,2,1:0:0:0:
0,21,62966,2,0,B|9:84|9:84|1:96|1:96|10:158,1,140,2|2,1:0|1:0,0:0:0:0:
108,256,64299,6,0,P|166:210|234:202,1,140,2|2,1:0|1:0,0:0:0:0:
325,303,65633,2,0,B|379:256|379:256|366:108,1,210,2|10,1:0|0:0,0:0:0:0:
354,34,66966,1,2,1:0:0:0:
223,85,67633,1,2,1:0:0:0:
110,1,68299,2,0,P|79:60|89:147,1,140,2|2,1:0|1:0,0:0:0:0:
149,239,69633,6,0,B|189:202|189:202|288:213,1,140,6|2,1:0|1:0,0:0:0:0:
398,228,70966,1,2,1:0:0:0:
352,110,71633,1,2,1:0:0:0:
438,19,72299,2,0,P|377:-7|302:0,1,140,2|2,1:0|1:0,0:0:0:0:
213,85,73633,1,2,1:0:0:0:
91,44,74299,1,2,1:0:0:0:
1,132,74966,6,0,L|12:282,2,140,2|2|2,1:0|1:0|1:0,0:0:0:0:
91,44,76966,1,2,1:0:0:0:
213,85,77633,2,0,P|272:49|346:44,1,140,2|2,1:0|1:0,0:0:0:0:
453,101,78966,1,2,1:0:0:0:
443,226,79633,1,2,1:0:0:0:
443,226,85633,6,2,B|428:154|457:84|457:84|400:125|323:117,1,280,6|2,0:0|0:0,0:0:0:0:
216,60,87633,1,2,0:0:0:0:
112,131,88299,2,0,B|150:168|150:168|141:271,1,140,2|2,0:0|0:0,0:0:0:0:
130,380,89633,1,2,0:0:0:0:
247,335,90299,1,2,0:0:0:0:
366,374,90966,6,2,B|391:327|385:250|319:259|335:178|335:178|367:203|416:203,1,280,6|2,0:0|0:0,0:0:0:0:
394,76,92966,1,2,0:0:0:0:
299,68,93466,2,2,B|308:17|344:-5|344:-5|182:12,1,245
105,23,94966,1,2,0:0:0:0:
31,125,95633,1,10,0:0:0:0:
94,233,96299,6,2,B|188:205|182:295|287:271|287:271|258:233|257:190,1,280,10|2,0:0|0:0,0:0:0:0:
355,123,98299,2,2,B|424:151|424:151|500:134,1,140
430,24,99633,1,2,0:0:0:0:
338,1,100133,2,0,L|158:22,1,175,6|10,0:0|0:0,0:0:0:0:
63,97,101633,6,2,B|140:175|104:290|104:290|175:273,1,280,10|2,0:0|0:0,0:0:0:0:
295,243,103633,1,2,0:0:0:0:
378,287,104133,2,2,B|402:244|398:173|331:175|309:110|341:47,1,245
399,4,105633,1,2,0:0:0:0:
490,90,106299,1,10,0:0:0:0:
402,180,106966,6,2,B|449:283|419:383|419:383|389:344|350:337,1,280,10|2,0:0|0:0,0:0:0:0:
239,365,108966,1,2,0:0:0:0:
135,292,109633,2,0,B|169:256|169:256|158:165,1,140,10|10,0:0|0:0,0:0:0:0:
140,41,110966,1,10,0:0:0:0:
260,78,111633,1,10,0:0:0:0:
359,0,112299,6,0,P|389:53|386:135,1,140,6|2,1:0|1:0,0:0:0:0:
285,203,113633,1,2,1:0:0:0:
334,318,114299,1,2,1:0:0:0:
221,374,114966,2,0,B|156:368|156:368|144:375|144:375|81:369,1,140,2|2,1:0|1:0,0:0:0:0:
0,276,116299,1,2,1:0:0:0:
63,166,116966,1,2,1:0:0:0:
189,187,117633,6,0,P|248:226|326:228,1,140,6|2,1:0|1:0,0:0:0:0:
431,279,118966,2,0,P|435:207|397:138,1,140,2|2,1:0|1:0,0:0:0:0:
286,105,120299,1,2,1:0:0:0:
169,153,120966,1,2,1:0:0:0:
66,79,121633,2,0,B|30:117|30:117|43:216,1,140,2|2,1:0|1:0,0:0:0:0:
126,315,122966,6,0,P|189:276|272:272,1,140,6|2,1:0|1:0,0:0:0:0:
371,345,124299,2,0,B|411:291|376:210|376:210|407:229|450:224,1,210,2|10,1:0|0:0,0:0:0:0:
512,175,125633,1,2,1:0:0:0:
460,44,126299,1,2,1:0:0:0:
321,66,126966,2,0,B|257:59|257:59|243:49|243:49|173:41,1,140,2|2,1:0|1:0,0:0:0:0:
47,69,128299,6,0,B|80:108|80:108|63:208,1,140,2|2,1:0|1:0,0:0:0:0:
0,320,129633,2,0,B|2:360|38:380|38:380|184:356,1,210,2|10,1:0|0:0,0:0:0:0:
237,305,130966,2,0,P|200:241|200:168,1,140,2|2,1:0|1:0,0:0:0:0:
295,76,132299,1,2,1:0:0:0:
175,3,132966,1,2,1:0:0:0:
51,27,133633,6,0,L|33:173,1,140,6|2,1:0|1:0,0:0:0:0:
9,289,134966,1,2,1:0:0:0:
133,271,135633,1,2,1:0:0:0:
226,354,136299,2,0,P|253:294|245:219,1,140,2|2,1:0|1:0,0:0:0:0:
161,128,137633,1,2,1:0:0:0:
272,68,138299,1,2,1:0:0:0:
393,100,138966,6,0,B|429:138|429:138|422:244,1,140,2|2,1:0|1:0,0:0:0:0:
361,335,140299,2,0,P|311:295|230:286,1,140,2|2,1:0|1:0,0:0:0:0:
122,335,141633,1,2,1:0:0:0:
27,252,142299,1,2,1:0:0:0:
107,154,142966,2,0,B|200:108|207:198|312:160,1,210,2|10,1:0|0:0,0:0:0:0:
372,104,144299,5,6,1:0:0:0:
422,234,144966,1,2,1:0:0:0:
351,355,145633,2,0,B|307:299|307:299|139:286,1,210,2|10,1:0|0:0,0:0:0:0:
85,281,146966,1,2,1:0:0:0:
145,154,147633,1,2,1:0:0:0:
52,48,148299,2,0,P|118:19|205:28,1,140,2|2,1:0|1:0,0:0:0:0:
297,104,149633,5,6,1:0:0:0:
423,44,150299,1,2,1:0:0:0:
510,153,150966,2,0,B|506:215|506:215|498:229|498:229|494:308,1,140,2|2,1:0|1:0,0:0:0:0:
386,378,152299,2,0,B|330:374|295:328|295:328|249:356|177:334,1,210,2|10,1:0|0:0,0:0:0:0:
130,285,153633,1,2,1:0:0:0:
224,182,154299,1,2,1:0:0:0:
256,192,154799,12,0,157633,0:0:0:0:
